  0
SECTION
  2
HEADER
  9
$ACADVER
  1
AC1015
  9
$ACADMAINTVER
 70
     6
  9
$DWGCODEPAGE
  3
ANSI_1252
  9
$INSBASE
 10
0.0
 20
0.0
 30
0.0
  9
$EXTMIN
 10
0.0
 20
0.0
 30
0.0
  9
$EXTMAX
 10
90.0
 20
36.0
 30
0.0
  9
$LIMMIN
 10
0.0
 20
0.0
  9
$LIMMAX
 10
90.0
 20
36.0
  9
$ORTHOMODE
 70
     0
  9
$REGENMODE
 70
     1
  9
$FILLMODE
 70
     1
  9
$QTEXTMODE
 70
     0
  9
$MIRRTEXT
 70
     1
  9
$LTSCALE
 40
1.0
  9
$ATTMODE
 70
     1
  9
$TEXTSIZE
 40
0.5
  9
$TRACEWID
 40
0.05
  9
$TEXTSTYLE
  7
STANDARD
  9
$CLAYER
  8
0
  9
$CELTYPE
  6
ByLayer
  9
$CECOLOR
 62
   256
  9
$CELTSCALE
 40
1.0
  9
$DISPSILH
 70
     0
  9
$DIMSCALE
 40
1.0
  9
$DIMASZ
 40
0.3
  9
$DIMEXO
 40
0.1666666667
  9
$DIMDLI
 40
0.38
  9
$DIMRND
 40
0.0
  9
$DIMDLE
 40
0.0
  9
$DIMEXE
 40
0.375
  9
$DIMTP
 40
0.0
  9
$DIMTM
 40
0.0
  9
$DIMTXT
 40
0.5
  9
$DIMCEN
 40
0.09
  9
$DIMTSZ
 40
0.0
  9
$DIMTOL
 70
     0
  9
$DIMLIM
 70
     0
  9
$DIMTIH
 70
     1
  9
$DIMTOH
 70
     1
  9
$DIMSE1
 70
     0
  9
$DIMSE2
 70
     0
  9
$DIMTAD
 70
     0
  9
$DIMZIN
 70
     1
  9
$DIMBLK
  1

  9
$DIMASO
 70
     1
  9
$DIMSHO
 70
     1
  9
$DIMPOST
  1

  9
$DIMAPOST
  1

  9
$DIMALT
 70
     0
  9
$DIMALTD
 70
     2
  9
$DIMALTF
 40
25.4
  9
$DIMLFAC
 40
1.0
  9
$DIMTOFL
 70
     0
  9
$DIMTVP
 40
0.0
  9
$DIMTIX
 70
     0
  9
$DIMSOXD
 70
     0
  9
$DIMSAH
 70
     0
  9
$DIMBLK1
  1

  9
$DIMBLK2
  1

  9
$DIMSTYLE
  2
Standard
  9
$DIMCLRD
 70
     0
  9
$DIMCLRE
 70
     0
  9
$DIMCLRT
 70
     0
  9
$DIMTFAC
 40
1.0
  9
$DIMGAP
 40
0.125
  9
$DIMJUST
 70
     0
  9
$DIMSD1
 70
     0
  9
$DIMSD2
 70
     0
  9
$DIMTOLJ
 70
     1
  9
$DIMTZIN
 70
     1
  9
$DIMALTZ
 70
     0
  9
$DIMALTTZ
 70
     0
  9
$DIMUPT
 70
     0
  9
$DIMDEC
 70
     2
  9
$DIMTDEC
 70
     2
  9
$DIMALTU
 70
     2
  9
$DIMALTTD
 70
     2
  9
$DIMTXSTY
  7
STANDARD
  9
$DIMAUNIT
 70
     0
  9
$DIMADEC
 70
     2
  9
$DIMALTRND
 40
0.0
  9
$DIMAZIN
 70
     0
  9
$DIMDSEP
 70
    46
  9
$DIMATFIT
 70
     3
  9
$DIMFRAC
 70
     0
  9
$DIMLDRBLK
  1

  9
$DIMLUNIT
 70
     2
  9
$DIMLWD
 70
    -2
  9
$DIMLWE
 70
    -2
  9
$DIMTMOVE
 70
     0
  9
$LUNITS
 70
     2
  9
$LUPREC
 70
     4
  9
$SKETCHINC
 40
0.1
  9
$FILLETRAD
 40
0.5
  9
$AUNITS
 70
     0
  9
$AUPREC
 70
     2
  9
$MENU
  1
.
  9
$ELEVATION
 40
0.0
  9
$PELEVATION
 40
0.0
  9
$THICKNESS
 40
0.0
  9
$LIMCHECK
 70
     0
  9
$CHAMFERA
 40
0.0
  9
$CHAMFERB
 40
0.0
  9
$CHAMFERC
 40
0.0
  9
$CHAMFERD
 40
0.0
  9
$SKPOLY
 70
     0
  9
$TDCREATE
 40
2459467.578888403
  9
$TDUCREATE
 40
2459467.745555069
  9
$TDUPDATE
 40
2459467.578894838
  9
$TDUUPDATE
 40
2459467.745561505
  9
$TDINDWG
 40
0.0000000116
  9
$TDUSRTIMER
 40
0.0000000116
  9
$USRTIMER
 70
     1
  9
$ANGBASE
 50
0.0
  9
$ANGDIR
 70
     0
  9
$PDMODE
 70
     0
  9
$PDSIZE
 40
-1.0
  9
$PLINEWID
 40
0.0
  9
$SPLFRAME
 70
     0
  9
$SPLINETYPE
 70
     6
  9
$SPLINESEGS
 70
     8
  9
$HANDSEED
  5
59C
  9
$SURFTAB1
 70
     6
  9
$SURFTAB2
 70
     6
  9
$SURFTYPE
 70
     6
  9
$SURFU
 70
     6
  9
$SURFV
 70
     6
  9
$UCSBASE
  2

  9
$UCSNAME
  2

  9
$UCSORG
 10
0.0
 20
0.0
 30
0.0
  9
$UCSXDIR
 10
1.0
 20
0.0
 30
0.0
  9
$UCSYDIR
 10
0.0
 20
1.0
 30
0.0
  9
$UCSORTHOREF
  2

  9
$UCSORTHOVIEW
 70
     0
  9
$UCSORGTOP
 10
0.0
 20
0.0
 30
0.0
  9
$UCSORGBOTTOM
 10
0.0
 20
0.0
 30
0.0
  9
$UCSORGLEFT
 10
0.0
 20
0.0
 30
0.0
  9
$UCSORGRIGHT
 10
0.0
 20
0.0
 30
0.0
  9
$UCSORGFRONT
 10
0.0
 20
0.0
 30
0.0
  9
$UCSORGBACK
 10
0.0
 20
0.0
 30
0.0
  9
$PUCSBASE
  2

  9
$PUCSNAME
  2

  9
$PUCSORG
 10
0.0
 20
0.0
 30
0.0
  9
$PUCSXDIR
 10
1.0
 20
0.0
 30
0.0
  9
$PUCSYDIR
 10
0.0
 20
1.0
 30
0.0
  9
$PUCSORTHOREF
  2

  9
$PUCSORTHOVIEW
 70
     0
  9
$PUCSORGTOP
 10
0.0
 20
0.0
 30
0.0
  9
$PUCSORGBOTTOM
 10
0.0
 20
0.0
 30
0.0
  9
$PUCSORGLEFT
 10
0.0
 20
0.0
 30
0.0
  9
$PUCSORGRIGHT
 10
0.0
 20
0.0
 30
0.0
  9
$PUCSORGFRONT
 10
0.0
 20
0.0
 30
0.0
  9
$PUCSORGBACK
 10
0.0
 20
0.0
 30
0.0
  9
$USERI1
 70
     0
  9
$USERI2
 70
     0
  9
$USERI3
 70
     0
  9
$USERI4
 70
     0
  9
$USERI5
 70
     0
  9
$USERR1
 40
0.0
  9
$USERR2
 40
0.0
  9
$USERR3
 40
0.0
  9
$USERR4
 40
0.0
  9
$USERR5
 40
0.0
  9
$WORLDVIEW
 70
     1
  9
$SHADEDGE
 70
     3
  9
$SHADEDIF
 70
    70
  9
$TILEMODE
 70
     1
  9
$MAXACTVP
 70
    64
  9
$PINSBASE
 10
0.0
 20
0.0
 30
0.0
  9
$PLIMCHECK
 70
     0
  9
$PEXTMIN
 10
1.0000000000E+20
 20
1.0000000000E+20
 30
1.0000000000E+20
  9
$PEXTMAX
 10
-1.0000000000E+20
 20
-1.0000000000E+20
 30
-1.0000000000E+20
  9
$PLIMMIN
 10
0.0
 20
0.0
  9
$PLIMMAX
 10
12.0
 20
9.0
  9
$UNITMODE
 70
     0
  9
$VISRETAIN
 70
     1
  9
$PLINEGEN
 70
     0
  9
$PSLTSCALE
 70
     1
  9
$TREEDEPTH
 70
  3020
  9
$CMLSTYLE
  2
Standard
  9
$CMLJUST
 70
     0
  9
$CMLSCALE
 40
1.0
  9
$PROXYGRAPHICS
 70
     1
  9
$MEASUREMENT
 70
     0
  9
$CELWEIGHT
370
    -1
  9
$ENDCAPS
280
     0
  9
$JOINSTYLE
280
     0
  9
$LWDISPLAY
290
     1
  9
$INSUNITS
 70
     1
  9
$HYPERLINKBASE
  1

  9
$STYLESHEET
  1

  9
$XEDIT
290
     1
  9
$CEPSNTYPE
380
     0
  9
$PSTYLEMODE
290
     1
  9
$FINGERPRINTGUID
  2
{442bac29-9a32-4a91-85c1-bfcc6aafb705}
  9
$VERSIONGUID
  2
{FAEB1C32-E019-11D5-929B-00C0DF256EC4}
  9
$EXTNAMES
290
     1
  9
$PSVPSCALE
 40
0.0
  9
$OLESTARTUP
290
     0
  0
ENDSEC
  0
SECTION
  2
CLASSES
  0
CLASS
  1
ACDBDICTIONARYWDFLT
  2
AcDbDictionaryWithDefault
  3
ObjectDBX Classes
 90
        0
280
     0
281
     0
  0
CLASS
  1
VISUALSTYLE
  2
AcDbVisualStyle
  3
ObjectDBX Classes
 90
     4095
280
     0
281
     0
  0
CLASS
  1
MATERIAL
  2
AcDbMaterial
  3
ObjectDBX Classes
 90
     1153
280
     0
281
     0
  0
CLASS
  1
SCALE
  2
AcDbScale
  3
ObjectDBX Classes
 90
     1153
280
     0
281
     0
  0
CLASS
  1
TABLESTYLE
  2
AcDbTableStyle
  3
ObjectDBX Classes
 90
     4095
280
     0
281
     0
  0
CLASS
  1
MLEADERSTYLE
  2
AcDbMLeaderStyle
  3
ACDB_MLEADERSTYLE_CLASS
 90
     4095
280
     0
281
     0
  0
CLASS
  1
SUN
  2
AcDbSun
  3
SCENEOE
 90
     1153
280
     0
281
     0
  0
CLASS
  1
ACDBPLACEHOLDER
  2
AcDbPlaceHolder
  3
ObjectDBX Classes
 90
        0
280
     0
281
     0
  0
CLASS
  1
LAYOUT
  2
AcDbLayout
  3
ObjectDBX Classes
 90
        0
280
     0
281
     0
  0
ENDSEC
  0
SECTION
  2
TABLES
  0
TABLE
  2
VPORT
  5
8
330
0
100
AcDbSymbolTable
 70
     1
  0
VPORT
  5
29
330
8
100
AcDbSymbolTableRecord
100
AcDbViewportTableRecord
  2
*Active
 70
     0
 10
0.0
 20
0.0
 11
1.0
 21
1.0
 12
45.0
 22
18.0
 13
0.0
 23
0.0
 14
0.5
 24
0.5
 15
0.5
 25
0.5
 16
0.0
 26
0.0
 36
1.0
 17
0.0
 27
0.0
 37
0.0
 40
36.0
 41
2.5
 42
50.0
 43
0.0
 44
0.0
 50
0.0
 51
0.0
 71
     0
 72
  2000
 73
     1
 74
     3
 75
     0
 76
     0
 77
     0
 78
     0
281
     0
 65
     1
110
0.0
120
0.0
130
0.0
111
1.0
121
0.0
131
0.0
112
0.0
122
1.0
132
0.0
 79
     0
146
0.0
  0
ENDTAB
  0
TABLE
  2
LTYPE
  5
5
330
0
100
AcDbSymbolTable
 70
     8
  0
LTYPE
  5
14
330
5
100
AcDbSymbolTableRecord
100
AcDbLinetypeTableRecord
  2
ByBlock
 70
     0
  3

 72
    65
 73
     0
 40
0.0
  0
LTYPE
  5
15
330
5
100
AcDbSymbolTableRecord
100
AcDbLinetypeTableRecord
  2
ByLayer
 70
     0
  3

 72
    65
 73
     0
 40
0.0
  0
LTYPE
  5
16
330
5
100
AcDbSymbolTableRecord
100
AcDbLinetypeTableRecord
  2
Continuous
 70
     0
  3
Solid line
 72
    65
 73
     0
 40
0.0
  0
LTYPE
  5
6E
330
5
100
AcDbSymbolTableRecord
100
AcDbLinetypeTableRecord
  2
SLD-Solid
 70
     0
  3
SolidWorks Line Style
 72
    65
 73
     0
 40
0.0
  0
LTYPE
  5
6F
330
5
100
AcDbSymbolTableRecord
100
AcDbLinetypeTableRecord
  2
SLD-Dashed
 70
     0
  3
SolidWorks Line Style
 72
    65
 73
     2
 40
0.075
 49
0.05
 74
     0
 49
-0.025
 74
     0
  0
LTYPE
  5
70
330
5
100
AcDbSymbolTableRecord
100
AcDbLinetypeTableRecord
  2
SLD-Phantom
 70
     0
  3
SolidWorks Line Style
 72
    65
 73
     6
 40
0.5
 49
0.25
 74
     0
 49
-0.05
 74
     0
 49
0.05
 74
     0
 49
-0.05
 74
     0
 49
0.05
 74
     0
 49
-0.05
 74
     0
  0
LTYPE
  5
71
330
5
100
AcDbSymbolTableRecord
100
AcDbLinetypeTableRecord
  2
SLD-Chain
 70
     0
  3
SolidWorks Line Style
 72
    65
 73
     4
 40
0.4
 49
0.25
 74
     0
 49
-0.05
 74
     0
 49
0.05
 74
     0
 49
-0.05
 74
     0
  0
LTYPE
  5
72
330
5
100
AcDbSymbolTableRecord
100
AcDbLinetypeTableRecord
  2
SLD-Center
 70
     0
  3
SolidWorks Line Style
 72
    65
 73
     4
 40
0.75
 49
0.6
 74
     0
 49
-0.05
 74
     0
 49
0.05
 74
     0
 49
-0.05
 74
     0
  0
LTYPE
  5
73
330
5
100
AcDbSymbolTableRecord
100
AcDbLinetypeTableRecord
  2
SLD-Stitch
 70
     0
  3
SolidWorks Line Style
 72
    65
 73
     2
 40
0.025
 49
0.0
 74
     0
 49
-0.025
 74
     0
  0
LTYPE
  5
74
330
5
100
AcDbSymbolTableRecord
100
AcDbLinetypeTableRecord
  2
SLD-Thin-Thick-Chain
 70
     0
  3
SolidWorks Line Style
 72
    65
 73
     4
 40
0.4
 49
0.25
 74
     0
 49
-0.05
 74
     0
 49
0.05
 74
     0
 49
-0.05
 74
     0
  0
ENDTAB
  0
TABLE
  2
LAYER
  5
2
330
0
100
AcDbSymbolTable
 70
     6
  0
LAYER
  5
10
330
2
100
AcDbSymbolTableRecord
100
AcDbLayerTableRecord
  2
0
 70
     0
 62
     7
  6
Continuous
370
    -3
390
F
  0
LAYER
  5
75
330
2
100
AcDbSymbolTableRecord
100
AcDbLayerTableRecord
  2
FORMAT
 70
     0
 62
     7
  6
SLD-Solid
370
    -3
390
F
  0
LAYER
  5
76
330
2
100
AcDbSymbolTableRecord
100
AcDbLayerTableRecord
  2
NOTES
 70
     0
 62
     1
  6
SLD-Solid
370
    -3
390
F
  0
LAYER
  5
77
330
2
100
AcDbSymbolTableRecord
100
AcDbLayerTableRecord
  2
OBJECT
 70
     0
 62
     7
  6
SLD-Solid
370
    25
390
F
  0
LAYER
  5
78
330
2
100
AcDbSymbolTableRecord
100
AcDbLayerTableRecord
  2
DIMS
 70
     0
 62
     5
  6
SLD-Solid
370
    -3
390
F
  0
LAYER
  5
79
330
2
100
AcDbSymbolTableRecord
100
AcDbLayerTableRecord
  2
TITLE
 70
     0
 62
     8
  6
SLD-Solid
370
    -3
390
F
  0
ENDTAB
  0
TABLE
  2
STYLE
  5
3
330
0
100
AcDbSymbolTable
 70
     5
  0
STYLE
  5
11
330
3
100
AcDbSymbolTableRecord
100
AcDbTextStyleTableRecord
  2
STANDARD
 70
     0
 40
0.0
 41
1.0
 50
0.0
 71
     0
 42
0.5
  3
GOTHIC.TTF
  4

1001
ACAD
1000
CENTURY GOTHIC
1071
       34
  0
STYLE
  5
109
330
3
100
AcDbSymbolTableRecord
100
AcDbTextStyleTableRecord
  2
SLDTEXTSTYLE0
 70
     0
 40
0.0
 41
0.948
 50
0.0
 71
     0
 42
0.5
  3
ARIAL.TTF
  4

1001
ACAD
1000
Arial
1071
      290
  0
STYLE
  5
10D
330
3
100
AcDbSymbolTableRecord
100
AcDbTextStyleTableRecord
  2
SLDTEXTSTYLE1
 70
     0
 40
0.0
 41
0.913
 50
0.0
 71
     0
 42
0.5
  3
GOTHIC.TTF
  4

1001
ACAD
1000
Century Gothic
1071
      290
  0
STYLE
  5
11C
330
3
100
AcDbSymbolTableRecord
100
AcDbTextStyleTableRecord
  2
SLDTEXTSTYLE2
 70
     0
 40
0.0
 41
0.87
 50
0.0
 71
     0
 42
0.5
  3
ARIALNB.TTF
  4

1001
ACAD
1000
Arial Narrow
1071
 33554722
  0
STYLE
  5
11E
330
3
100
AcDbSymbolTableRecord
100
AcDbTextStyleTableRecord
  2
SLDTEXTSTYLE3
 70
     0
 40
0.0
 41
0.87
 50
0.0
 71
     0
 42
0.5
  3
ARIALN.TTF
  4

1001
ACAD
1000
Arial Narrow
1071
      290
  0
ENDTAB
  0
TABLE
  2
VIEW
  5
6
330
0
100
AcDbSymbolTable
 70
     0
  0
ENDTAB
  0
TABLE
  2
UCS
  5
7
330
0
100
AcDbSymbolTable
 70
     0
  0
ENDTAB
  0
TABLE
  2
APPID
  5
9
330
0
100
AcDbSymbolTable
 70
     1
  0
APPID
  5
12
330
9
100
AcDbSymbolTableRecord
100
AcDbRegAppTableRecord
  2
ACAD
 70
     0
  0
ENDTAB
  0
TABLE
  2
DIMSTYLE
  5
A
330
0
100
AcDbSymbolTable
 70
     4
100
AcDbDimStyleTable
  0
DIMSTYLE
105
27
330
A
100
AcDbSymbolTableRecord
100
AcDbDimStyleTableRecord
  2
Standard
 70
     0
178
     0
340
11
  0
DIMSTYLE
105
301
102
{ACAD_REACTORS
330
300
330
312
330
31D
330
347
330
352
102
}
330
A
100
AcDbSymbolTableRecord
100
AcDbDimStyleTableRecord
  2
SLDDIMSTYLE0
 70
     0
 41
0.3
 44
0.0
 45
0.000000001
 78
    12
 79
     3
140
0.5
147
0.125
173
     1
178
     0
271
     2
272
     2
276
     2
277
     5
284
    12
340
10D
341
302
343
302
344
302
  0
DIMSTYLE
105
329
102
{ACAD_REACTORS
330
328
330
338
330
37C
102
}
330
A
100
AcDbSymbolTableRecord
100
AcDbDimStyleTableRecord
  2
SLDDIMSTYLE1
 70
     0
 41
0.3
 44
0.0
 45
0.000000001
 78
    12
 79
     3
140
0.5
147
0.125
173
     1
178
     0
271
     6
272
     2
276
     2
277
     5
284
    12
340
10D
341
302
343
302
344
302
  0
DIMSTYLE
105
35E
102
{ACAD_REACTORS
330
35D
330
36D
330
3DD
330
3EB
102
}
330
A
100
AcDbSymbolTableRecord
100
AcDbDimStyleTableRecord
  2
SLDDIMSTYLE2
 70
     0
 41
0.3
 44
0.0
 45
0.000000001
 78
    12
 79
     3
140
0.5
147
0.125
172
     1
173
     1
178
     0
271
     6
272
     2
276
     2
277
     5
284
    12
289
     0
340
10D
341
302
343
302
344
302
  0
ENDTAB
  0
TABLE
  2
BLOCK_RECORD
  5
1
330
0
100
AcDbSymbolTable
 70
    17
  0
BLOCK_RECORD
  5
1F
330
1
100
AcDbSymbolTableRecord
100
AcDbBlockTableRecord
  2
*Model_Space
340
22
  0
BLOCK_RECORD
  5
1B
330
1
100
AcDbSymbolTableRecord
100
AcDbBlockTableRecord
  2
*Paper_Space
340
1E
  0
BLOCK_RECORD
  5
23
330
1
100
AcDbSymbolTableRecord
100
AcDbBlockTableRecord
  2
*Paper_Space0
340
26
  0
BLOCK_RECORD
  5
113
330
1
100
AcDbSymbolTableRecord
100
AcDbBlockTableRecord
  2
SW_NOTE_0
340
0
102
{BLKREFS
331
118
102
}
  0
BLOCK_RECORD
  5
119
330
1
100
AcDbSymbolTableRecord
100
AcDbBlockTableRecord
  2
SW_NOTE_0_1
340
0
102
{BLKREFS
331
122
102
}
  0
BLOCK_RECORD
  5
302
330
1
100
AcDbSymbolTableRecord
100
AcDbBlockTableRecord
  2
_Open90
340
0
102
{BLKREFS
331
30B
331
30C
331
316
331
317
331
321
331
322
331
32D
331
32E
331
33C
331
33D
331
34B
331
34C
331
356
331
357
331
362
331
363
331
371
331
372
331
380
331
381
331
3E1
331
3E2
331
3EF
331
3F0
102
}
  0
BLOCK_RECORD
  5
308
330
1
100
AcDbSymbolTableRecord
100
AcDbBlockTableRecord
  2
_D
340
0
  0
BLOCK_RECORD
  5
313
330
1
100
AcDbSymbolTableRecord
100
AcDbBlockTableRecord
  2
_D_1
340
0
  0
BLOCK_RECORD
  5
31E
330
1
100
AcDbSymbolTableRecord
100
AcDbBlockTableRecord
  2
_D_2
340
0
  0
BLOCK_RECORD
  5
32A
330
1
100
AcDbSymbolTableRecord
100
AcDbBlockTableRecord
  2
_D_3
340
0
  0
BLOCK_RECORD
  5
339
330
1
100
AcDbSymbolTableRecord
100
AcDbBlockTableRecord
  2
_D_4
340
0
  0
BLOCK_RECORD
  5
348
330
1
100
AcDbSymbolTableRecord
100
AcDbBlockTableRecord
  2
_D_5
340
0
  0
BLOCK_RECORD
  5
353
330
1
100
AcDbSymbolTableRecord
100
AcDbBlockTableRecord
  2
_D_6
340
0
  0
BLOCK_RECORD
  5
35F
330
1
100
AcDbSymbolTableRecord
100
AcDbBlockTableRecord
  2
_D_7
340
0
  0
BLOCK_RECORD
  5
36E
330
1
100
AcDbSymbolTableRecord
100
AcDbBlockTableRecord
  2
_D_8
340
0
  0
BLOCK_RECORD
  5
37D
330
1
100
AcDbSymbolTableRecord
100
AcDbBlockTableRecord
  2
_D_9
340
0
  0
BLOCK_RECORD
  5
3DE
330
1
100
AcDbSymbolTableRecord
100
AcDbBlockTableRecord
  2
_D_10
340
0
  0
BLOCK_RECORD
  5
3EC
330
1
100
AcDbSymbolTableRecord
100
AcDbBlockTableRecord
  2
_D_11
340
0
  0
BLOCK_RECORD
  5
595
330
1
100
AcDbSymbolTableRecord
100
AcDbBlockTableRecord
  2
SW_NOTE_0_2
340
0
102
{BLKREFS
331
59A
102
}
  0
ENDTAB
  0
ENDSEC
  0
SECTION
  2
BLOCKS
  0
BLOCK
  5
20
330
1F
100
AcDbEntity
  8
0
100
AcDbBlockBegin
  2
*Model_Space
 70
     0
 10
0.0
 20
0.0
 30
0.0
  3
*Model_Space
  1

  0
ENDBLK
  5
21
330
1F
100
AcDbEntity
  8
0
100
AcDbBlockEnd
  0
BLOCK
  5
1C
330
1B
100
AcDbEntity
 67
     1
  8
0
100
AcDbBlockBegin
  2
*Paper_Space
 70
     0
 10
0.0
 20
0.0
 30
0.0
  3
*Paper_Space
  1

  0
ENDBLK
  5
1D
330
1B
100
AcDbEntity
 67
     1
  8
0
100
AcDbBlockEnd
  0
BLOCK
  5
24
330
23
100
AcDbEntity
  8
0
100
AcDbBlockBegin
  2
*Paper_Space0
 70
     0
 10
0.0
 20
0.0
 30
0.0
  3
*Paper_Space0
  1

  0
ENDBLK
  5
25
330
23
100
AcDbEntity
  8
0
100
AcDbBlockEnd
  0
BLOCK
  5
114
330
113
100
AcDbEntity
  8
0
100
AcDbBlockBegin
  2
SW_NOTE_0
 70
     0
 10
0.0
 20
0.0
 30
0.0
  3
SW_NOTE_0
  1

  0
MTEXT
  5
116
330
113
100
AcDbEntity
  8
NOTES
 62
     0
100
AcDbMText
 10
0.0
 20
0.3759780908
 30
0.0
 40
0.2916666667
 41
0.0
 71
     1
 72
     1
  1
FROST PRODUCTS LTD.
  7
SLDTEXTSTYLE0
 73
     1
 44
1.0
  0
MTEXT
  5
117
330
113
100
AcDbEntity
  8
NOTES
 62
     0
100
AcDbMText
 10
0.0
 20
-0.0495142709
 30
0.0
 40
0.2291666667
 41
0.0
 71
     1
 72
     1
  1
5280 JOHN LUCAS DRIVE, BURLINGTON, ON, L7L 5Z9
  7
SLDTEXTSTYLE0
 73
     1
 44
1.0
  0
ENDBLK
  5
115
330
113
100
AcDbEntity
  8
0
100
AcDbBlockEnd
  0
BLOCK
  5
11A
330
119
100
AcDbEntity
  8
0
100
AcDbBlockBegin
  2
SW_NOTE_0_1
 70
     0
 10
0.0
 20
0.0
 30
0.0
  3
SW_NOTE_0_1
  1

  0
MTEXT
  5
11D
330
119
100
AcDbEntity
  8
NOTES
 62
     0
100
AcDbMText
 10
0.0
 20
0.2381282771
 30
0.0
 40
0.184729064
 41
0.0
 71
     1
 72
     1
  1
PROPRIETARY AND CONFIDENTIAL
  7
SLDTEXTSTYLE2
 73
     1
 44
1.0
  0
MTEXT
  5
11F
330
119
100
AcDbEntity
  8
NOTES
 62
     0
100
AcDbMText
 10
0.0
 20
-0.0504364796
 30
0.0
 40
0.25
 41
0.0
 71
     1
 72
     1
  1
THE INFORMATION CONTAINED IN THIS DRAWING IS THE SOLE PROPERTY OF 
  7
SLDTEXTSTYLE3
 73
     1
 44
1.0
  0
MTEXT
  5
120
330
119
100
AcDbEntity
  8
NOTES
 62
     0
100
AcDbMText
 10
0.0
 20
-0.4231398941
 30
0.0
 40
0.25
 41
0.0
 71
     1
 72
     1
  1
FROST PRODUCTS LTD.  ANY REPRODUCTION IN PART OR AS A WHOLE WITHOUT 
  7
SLDTEXTSTYLE3
 73
     1
 44
1.0
  0
MTEXT
  5
121
330
119
100
AcDbEntity
  8
NOTES
 62
     0
100
AcDbMText
 10
0.0
 20
-0.7958433086
 30
0.0
 40
0.25
 41
0.0
 71
     1
 72
     1
  1
THE WRITTEN PERMISSION OF FROST PRODUCTS LTD. IS PROHIBITED.
  7
SLDTEXTSTYLE3
 73
     1
 44
1.0
  0
ENDBLK
  5
11B
330
119
100
AcDbEntity
  8
0
100
AcDbBlockEnd
  0
BLOCK
  5
303
330
302
100
AcDbEntity
  8
0
100
AcDbBlockBegin
  2
_Open90
 70
     0
 10
0.0
 20
0.0
 30
0.0
  3
_Open90
  1

  0
LINE
  5
305
330
302
100
AcDbEntity
  8
0
  6
ByBlock
 62
     0
370
    -2
100
AcDbLine
 10
-0.5
 20
0.5
 30
0.0
 11
0.0
 21
0.0
 31
0.0
  0
LINE
  5
306
330
302
100
AcDbEntity
  8
0
  6
ByBlock
 62
     0
370
    -2
100
AcDbLine
 10
0.0
 20
0.0
 30
0.0
 11
-0.5
 21
-0.5
 31
0.0
  0
LINE
  5
307
330
302
100
AcDbEntity
  8
0
  6
ByBlock
 62
     0
370
    -2
100
AcDbLine
 10
0.0
 20
0.0
 30
0.0
 11
-1.0
 21
0.0
 31
0.0
  0
ENDBLK
  5
304
330
302
100
AcDbEntity
  8
0
100
AcDbBlockEnd
  0
BLOCK
  5
309
330
308
100
AcDbEntity
  8
0
100
AcDbBlockBegin
  2
_D
 70
     0
 10
0.0
 20
0.0
 30
0.0
  3
_D
  1

  0
INSERT
  5
30B
330
308
100
AcDbEntity
  8
DIMS
100
AcDbBlockReference
  2
_Open90
 10
8.9243060917
 20
4.0771637036
 30
0.0
 41
0.3
 42
0.3
 50
270.0
  0
INSERT
  5
30C
330
308
100
AcDbEntity
  8
DIMS
100
AcDbBlockReference
  2
_Open90
 10
8.9243060917
 20
9.0771637036
 30
0.0
 41
0.3
 42
0.3
 50
90.0
  0
LINE
  5
30D
330
308
100
AcDbEntity
  8
DIMS
100
AcDbLine
 10
10.0237811573
 20
9.0771637036
 30
0.0
 11
8.5493060917
 21
9.0771637036
 31
0.0
  0
LINE
  5
30E
330
308
100
AcDbEntity
  8
DIMS
100
AcDbLine
 10
8.9243060917
 20
9.0771637036
 30
0.0
 11
8.9243060917
 21
6.1670013745
 31
0.0
  0
MTEXT
  5
30F
330
308
100
AcDbEntity
  8
DIMS
100
AcDbMText
 10
-10.0948109445
 20
6.0119232806
 30
0.0
 40
0.5
 41
0.0
 71
     1
 72
     1
  1
                                                                                                     48" (1220mm) position may vary depending on installation    
  7
SLDTEXTSTYLE1
 73
     1
 44
1.0
  0
MTEXT
  5
310
330
308
100
AcDbEntity
  8
DIMS
100
AcDbMText
 10
8.739583869
 20
5.2181732567
 30
0.0
 40
0.5
 41
0.0
 71
     1
 72
     1
  1
  
  7
SLDTEXTSTYLE1
 73
     1
 44
1.0
  0
MTEXT
  5
311
330
308
100
AcDbEntity
  8
DIMS
100
AcDbMText
 10
8.8319449803
 20
4.4244232329
 30
0.0
 40
0.5
 41
0.0
 71
     1
 72
     1
  1
 
  7
SLDTEXTSTYLE1
 73
     1
 44
1.0
  0
ENDBLK
  5
30A
330
308
100
AcDbEntity
  8
0
100
AcDbBlockEnd
  0
BLOCK
  5
314
330
313
100
AcDbEntity
  8
0
100
AcDbBlockBegin
  2
_D_1
 70
     0
 10
0.0
 20
0.0
 30
0.0
  3
_D_1
  1

  0
INSERT
  5
316
330
313
100
AcDbEntity
  8
DIMS
100
AcDbBlockReference
  2
_Open90
 10
30.1652509736
 20
33.0771637036
 30
0.564604021
 41
0.3
 42
0.3
 50
90.0
  0
INSERT
  5
317
330
313
100
AcDbEntity
  8
DIMS
100
AcDbBlockReference
  2
_Open90
 10
30.1652509736
 20
9.0771637036
 30
0.564604021
 41
0.3
 42
0.3
 50
270.0
  0
LINE
  5
318
330
313
100
AcDbEntity
  8
DIMS
100
AcDbLine
 10
28.3571144907
 20
33.0771637036
 30
0.0
 11
30.5402509736
 21
33.0771637036
 31
0.0
  0
LINE
  5
319
330
313
100
AcDbEntity
  8
DIMS
100
AcDbLine
 10
28.3571144907
 20
9.0771637036
 30
0.0
 11
30.5402509736
 21
9.0771637036
 31
0.0
  0
LINE
  5
31A
330
313
100
AcDbEntity
  8
DIMS
100
AcDbLine
 10
30.1652509736
 20
33.0771637036
 30
0.0
 11
30.1652509736
 21
21.4740387155
 31
0.0
  0
LINE
  5
31B
330
313
100
AcDbEntity
  8
DIMS
100
AcDbLine
 10
30.1652509736
 20
9.0771637036
 30
0.0
 11
30.1652509736
 21
20.6802886916
 31
0.0
  0
MTEXT
  5
31C
330
313
100
AcDbEntity
  8
DIMS
100
AcDbMText
 10
29.6926815461
 20
21.3189606216
 30
0.0
 40
0.5
 41
0.0
 71
     1
 72
     1
  1
24"
  7
SLDTEXTSTYLE1
 73
     1
 44
1.0
  0
ENDBLK
  5
315
330
313
100
AcDbEntity
  8
0
100
AcDbBlockEnd
  0
BLOCK
  5
31F
330
31E
100
AcDbEntity
  8
0
100
AcDbBlockBegin
  2
_D_2
 70
     0
 10
0.0
 20
0.0
 30
0.0
  3
_D_2
  1

  0
INSERT
  5
321
330
31E
100
AcDbEntity
  8
DIMS
100
AcDbBlockReference
  2
_Open90
 10
28.190447824
 20
6.8661400815
 30
0.564604021
 41
0.3
 42
0.3
 50
0.0
  0
INSERT
  5
322
330
31E
100
AcDbEntity
  8
DIMS
100
AcDbBlockReference
  2
_Open90
 10
10.190447824
 20
6.8661400815
 30
0.564604021
 41
0.3
 42
0.3
 50
180.0
  0
LINE
  5
323
330
31E
100
AcDbEntity
  8
DIMS
100
AcDbLine
 10
28.190447824
 20
8.9104970369
 30
0.0
 11
28.190447824
 21
6.4911400815
 31
0.0
  0
LINE
  5
324
330
31E
100
AcDbEntity
  8
DIMS
100
AcDbLine
 10
10.190447824
 20
8.9104970369
 30
0.0
 11
10.190447824
 21
6.4911400815
 31
0.0
  0
LINE
  5
325
330
31E
100
AcDbEntity
  8
DIMS
100
AcDbLine
 10
28.190447824
 20
6.8661400815
 30
0.0
 11
18.1448480624
 21
6.8661400815
 31
0.0
  0
LINE
  5
326
330
31E
100
AcDbEntity
  8
DIMS
100
AcDbLine
 10
10.190447824
 20
6.8661400815
 30
0.0
 11
17.1997092074
 21
6.8661400815
 31
0.0
  0
MTEXT
  5
327
330
31E
100
AcDbEntity
  8
DIMS
100
AcDbMText
 10
17.1997092074
 20
7.1079369996
 30
0.0
 40
0.5
 41
0.0
 71
     1
 72
     1
  1
18"
  7
SLDTEXTSTYLE1
 73
     1
 44
1.0
  0
ENDBLK
  5
320
330
31E
100
AcDbEntity
  8
0
100
AcDbBlockEnd
  0
BLOCK
  5
32B
330
32A
100
AcDbEntity
  8
0
100
AcDbBlockBegin
  2
_D_3
 70
     0
 10
0.0
 20
0.0
 30
0.0
  3
_D_3
  1

  0
INSERT
  5
32D
330
32A
100
AcDbEntity
  8
DIMS
100
AcDbBlockReference
  2
_Open90
 10
12.413947824
 20
7.8110219713
 30
0.564604021
 41
0.3
 42
0.3
 50
180.0
  0
INSERT
  5
32E
330
32A
100
AcDbEntity
  8
DIMS
100
AcDbBlockReference
  2
_Open90
 10
25.966947824
 20
7.8110219713
 30
0.564604021
 41
0.3
 42
0.3
 50
0.0
  0
LINE
  5
32F
330
32A
100
AcDbEntity
  8
DIMS
100
AcDbLine
 10
22.0627462562
 20
7.8623066697
 30
0.0
 11
22.9481629512
 21
7.8623066697
 31
0.0
  0
LINE
  5
330
330
32A
100
AcDbEntity
  8
DIMS
100
AcDbLine
 10
12.413947824
 20
8.7104970369
 30
0.0
 11
12.413947824
 21
7.4360219713
 31
0.0
  0
LINE
  5
331
330
32A
100
AcDbEntity
  8
DIMS
100
AcDbLine
 10
25.966947824
 20
8.7104970369
 30
0.0
 11
25.966947824
 21
7.4360219713
 31
0.0
  0
LINE
  5
332
330
32A
100
AcDbEntity
  8
DIMS
100
AcDbLine
 10
12.413947824
 20
7.8110219713
 30
0.0
 11
21.2505934633
 21
7.8110219713
 31
0.0
  0
LINE
  5
333
330
32A
100
AcDbEntity
  8
DIMS
100
AcDbLine
 10
25.966947824
 20
7.8110219713
 30
0.0
 11
23.2276768905
 21
7.8110219713
 31
0.0
  0
MTEXT
  5
334
330
32A
100
AcDbEntity
  8
DIMS
100
AcDbMText
 10
21.2505934633
 20
8.0917077301
 30
0.0
 40
0.5
 41
0.0
 71
     1
 72
     1
  1
13
  7
SLDTEXTSTYLE1
 73
     1
 44
1.0
  0
MTEXT
  5
335
330
32A
100
AcDbEntity
  8
DIMS
100
AcDbMText
 10
22.320732381
 20
8.4570202292
 30
0.0
 40
0.5
 41
0.0
 71
     1
 72
     1
  1
9
  7
SLDTEXTSTYLE1
 73
     1
 44
1.0
  0
MTEXT
  5
336
330
32A
100
AcDbEntity
  8
DIMS
100
AcDbMText
 10
22.1360101582
 20
7.7958396506
 30
0.0
 40
0.5
 41
0.0
 71
     1
 72
     1
  1
16
  7
SLDTEXTSTYLE1
 73
     1
 44
1.0
  0
MTEXT
  5
337
330
32A
100
AcDbEntity
  8
DIMS
100
AcDbMText
 10
23.0214269265
 20
8.0917077301
 30
0.0
 40
0.5
 41
0.0
 71
     1
 72
     1
  1
"
  7
SLDTEXTSTYLE1
 73
     1
 44
1.0
  0
ENDBLK
  5
32C
330
32A
100
AcDbEntity
  8
0
100
AcDbBlockEnd
  0
BLOCK
  5
33A
330
339
100
AcDbEntity
  8
0
100
AcDbBlockBegin
  2
_D_4
 70
     0
 10
0.0
 20
0.0
 30
0.0
  3
_D_4
  1

  0
INSERT
  5
33C
330
339
100
AcDbEntity
  8
DIMS
100
AcDbBlockReference
  2
_Open90
 10
28.190447824
 20
7.8110219713
 30
0.564604021
 41
0.3
 42
0.3
 50
0.0
  0
INSERT
  5
33D
330
339
100
AcDbEntity
  8
DIMS
100
AcDbBlockReference
  2
_Open90
 10
25.966947824
 20
7.8110219713
 30
0.564604021
 41
0.3
 42
0.3
 50
180.0
  0
LINE
  5
33E
330
339
100
AcDbEntity
  8
DIMS
100
AcDbLine
 10
26.9509279141
 20
7.8623066697
 30
0.0
 11
27.4669001635
 21
7.8623066697
 31
0.0
  0
LINE
  5
33F
330
339
100
AcDbEntity
  8
DIMS
100
AcDbLine
 10
28.190447824
 20
8.9104970369
 30
0.0
 11
28.190447824
 21
7.4360219713
 31
0.0
  0
LINE
  5
340
330
339
100
AcDbEntity
  8
DIMS
100
AcDbLine
 10
25.966947824
 20
8.7104970369
 30
0.0
 11
25.966947824
 21
7.4360219713
 31
0.0
  0
LINE
  5
341
330
339
100
AcDbEntity
  8
DIMS
100
AcDbLine
 10
28.190447824
 20
7.8110219713
 30
0.0
 11
27.7464141029
 21
7.8110219713
 31
0.0
  0
LINE
  5
342
330
339
100
AcDbEntity
  8
DIMS
100
AcDbLine
 10
25.966947824
 20
7.8110219713
 30
0.0
 11
26.5082195666
 21
7.8110219713
 31
0.0
  0
MTEXT
  5
343
330
339
100
AcDbEntity
  8
DIMS
100
AcDbMText
 10
26.5082195666
 20
8.0917077301
 30
0.0
 40
0.5
 41
0.0
 71
     1
 72
     1
  1
2
  7
SLDTEXTSTYLE1
 73
     1
 44
1.0
  0
MTEXT
  5
344
330
339
100
AcDbEntity
  8
DIMS
100
AcDbMText
 10
27.0241918161
 20
8.4570202292
 30
0.0
 40
0.5
 41
0.0
 71
     1
 72
     1
  1
1
  7
SLDTEXTSTYLE1
 73
     1
 44
1.0
  0
MTEXT
  5
345
330
339
100
AcDbEntity
  8
DIMS
100
AcDbMText
 10
27.0241918161
 20
7.7958396506
 30
0.0
 40
0.5
 41
0.0
 71
     1
 72
     1
  1
4
  7
SLDTEXTSTYLE1
 73
     1
 44
1.0
  0
MTEXT
  5
346
330
339
100
AcDbEntity
  8
DIMS
100
AcDbMText
 10
27.5401640655
 20
8.0917077301
 30
0.0
 40
0.5
 41
0.0
 71
     1
 72
     1
  1
"
  7
SLDTEXTSTYLE1
 73
     1
 44
1.0
  0
ENDBLK
  5
33B
330
339
100
AcDbEntity
  8
0
100
AcDbBlockEnd
  0
BLOCK
  5
349
330
348
100
AcDbEntity
  8
0
100
AcDbBlockBegin
  2
_D_5
 70
     0
 10
0.0
 20
0.0
 30
0.0
  3
_D_5
  1

  0
INSERT
  5
34B
330
348
100
AcDbEntity
  8
DIMS
100
AcDbBlockReference
  2
_Open90
 10
29.2203690838
 20
9.0771637036
 30
0.564604021
 41
0.3
 42
0.3
 50
270.0
  0
INSERT
  5
34C
330
348
100
AcDbEntity
  8
DIMS
100
AcDbBlockReference
  2
_Open90
 10
29.2203690838
 20
21.0771637036
 30
0.564604021
 41
0.3
 42
0.3
 50
90.0
  0
LINE
  5
34D
330
348
100
AcDbEntity
  8
DIMS
100
AcDbLine
 10
28.3571144907
 20
9.0771637036
 30
0.0
 11
29.5953690838
 21
9.0771637036
 31
0.0
  0
LINE
  5
34E
330
348
100
AcDbEntity
  8
DIMS
100
AcDbLine
 10
28.5571144907
 20
21.0771637036
 30
0.0
 11
29.5953690838
 21
21.0771637036
 31
0.0
  0
LINE
  5
34F
330
348
100
AcDbEntity
  8
DIMS
100
AcDbLine
 10
29.2203690838
 20
9.0771637036
 30
0.0
 11
29.2203690838
 21
14.6802886916
 31
0.0
  0
LINE
  5
350
330
348
100
AcDbEntity
  8
DIMS
100
AcDbLine
 10
29.2203690838
 20
21.0771637036
 30
0.0
 11
29.2203690838
 21
15.4740387155
 31
0.0
  0
MTEXT
  5
351
330
348
100
AcDbEntity
  8
DIMS
100
AcDbMText
 10
28.7477996563
 20
15.3189606216
 30
0.0
 40
0.5
 41
0.0
 71
     1
 72
     1
  1
12"
  7
SLDTEXTSTYLE1
 73
     1
 44
1.0
  0
ENDBLK
  5
34A
330
348
100
AcDbEntity
  8
0
100
AcDbBlockEnd
  0
BLOCK
  5
354
330
353
100
AcDbEntity
  8
0
100
AcDbBlockBegin
  2
_D_6
 70
     0
 10
0.0
 20
0.0
 30
0.0
  3
_D_6
  1

  0
INSERT
  5
356
330
353
100
AcDbEntity
  8
DIMS
100
AcDbBlockReference
  2
_Open90
 10
29.2203690838
 20
21.0771637036
 30
0.564604021
 41
0.3
 42
0.3
 50
270.0
  0
INSERT
  5
357
330
353
100
AcDbEntity
  8
DIMS
100
AcDbBlockReference
  2
_Open90
 10
29.2203690838
 20
33.0771637036
 30
0.564604021
 41
0.3
 42
0.3
 50
90.0
  0
LINE
  5
358
330
353
100
AcDbEntity
  8
DIMS
100
AcDbLine
 10
28.5571144907
 20
21.0771637036
 30
0.0
 11
29.5953690838
 21
21.0771637036
 31
0.0
  0
LINE
  5
359
330
353
100
AcDbEntity
  8
DIMS
100
AcDbLine
 10
28.3571144907
 20
33.0771637036
 30
0.0
 11
29.5953690838
 21
33.0771637036
 31
0.0
  0
LINE
  5
35A
330
353
100
AcDbEntity
  8
DIMS
100
AcDbLine
 10
29.2203690838
 20
21.0771637036
 30
0.0
 11
29.2203690838
 21
26.6802886916
 31
0.0
  0
LINE
  5
35B
330
353
100
AcDbEntity
  8
DIMS
100
AcDbLine
 10
29.2203690838
 20
33.0771637036
 30
0.0
 11
29.2203690838
 21
27.4740387155
 31
0.0
  0
MTEXT
  5
35C
330
353
100
AcDbEntity
  8
DIMS
100
AcDbMText
 10
28.7477996563
 20
27.3189606216
 30
0.0
 40
0.5
 41
0.0
 71
     1
 72
     1
  1
12"
  7
SLDTEXTSTYLE1
 73
     1
 44
1.0
  0
ENDBLK
  5
355
330
353
100
AcDbEntity
  8
0
100
AcDbBlockEnd
  0
BLOCK
  5
360
330
35F
100
AcDbEntity
  8
0
100
AcDbBlockBegin
  2
_D_7
 70
     0
 10
0.0
 20
0.0
 30
0.0
  3
_D_7
  1

  0
INSERT
  5
362
330
35F
100
AcDbEntity
  8
DIMS
100
AcDbBlockReference
  2
_Open90
 10
30.1652509736
 20
33.2771637036
 30
0.564604021
 41
0.3
 42
0.3
 50
270.0
  0
INSERT
  5
363
330
35F
100
AcDbEntity
  8
DIMS
100
AcDbBlockReference
  2
_Open90
 10
30.1652509736
 20
33.0771637036
 30
0.564604021
 41
0.3
 42
0.3
 50
90.0
  0
LINE
  5
364
330
35F
100
AcDbEntity
  8
DIMS
100
AcDbLine
 10
30.5385148756
 20
33.9221491894
 30
0.0
 11
31.4239315705
 21
33.9221491894
 31
0.0
  0
LINE
  5
365
330
35F
100
AcDbEntity
  8
DIMS
100
AcDbLine
 10
26.1336144907
 20
33.2771637036
 30
0.0
 11
30.5402509736
 21
33.2771637036
 31
0.0
  0
LINE
  5
366
330
35F
100
AcDbEntity
  8
DIMS
100
AcDbLine
 10
28.3571144907
 20
33.0771637036
 30
0.0
 11
30.5402509736
 21
33.0771637036
 31
0.0
  0
LINE
  5
367
330
35F
100
AcDbEntity
  8
DIMS
100
AcDbLine
 10
30.4652509736
 20
33.870864491
 30
0.0
 11
30.1652509736
 21
33.870864491
 31
0.0
  0
LINE
  5
368
330
35F
100
AcDbEntity
  8
DIMS
100
AcDbLine
 10
30.1652509736
 20
33.870864491
 30
0.0
 11
30.1652509736
 21
33.2771637036
 31
0.0
  0
LINE
  5
369
330
35F
100
AcDbEntity
  8
DIMS
100
AcDbLine
 10
30.1652509736
 20
33.0771637036
 30
0.0
 11
30.1652509736
 21
32.7771637036
 31
0.0
  0
MTEXT
  5
36A
330
35F
100
AcDbEntity
  8
DIMS
100
AcDbMText
 10
30.7965010003
 20
34.5168627488
 30
0.0
 40
0.5
 41
0.0
 71
     1
 72
     1
  1
3
  7
SLDTEXTSTYLE1
 73
     1
 44
1.0
  0
MTEXT
  5
36B
330
35F
100
AcDbEntity
  8
DIMS
100
AcDbMText
 10
30.6117787776
 20
33.8556821703
 30
0.0
 40
0.5
 41
0.0
 71
     1
 72
     1
  1
16
  7
SLDTEXTSTYLE1
 73
     1
 44
1.0
  0
MTEXT
  5
36C
330
35F
100
AcDbEntity
  8
DIMS
100
AcDbMText
 10
31.4971954725
 20
34.1515502498
 30
0.0
 40
0.5
 41
0.0
 71
     1
 72
     1
  1
"
  7
SLDTEXTSTYLE1
 73
     1
 44
1.0
  0
ENDBLK
  5
361
330
35F
100
AcDbEntity
  8
0
100
AcDbBlockEnd
  0
BLOCK
  5
36F
330
36E
100
AcDbEntity
  8
0
100
AcDbBlockBegin
  2
_D_8
 70
     0
 10
0.0
 20
0.0
 30
0.0
  3
_D_8
  1

  0
INSERT
  5
371
330
36E
100
AcDbEntity
  8
DIMS
100
AcDbBlockReference
  2
_Open90
 10
29.2203690838
 20
9.0771637036
 30
0.564604021
 41
0.3
 42
0.3
 50
270.0
  0
INSERT
  5
372
330
36E
100
AcDbEntity
  8
DIMS
100
AcDbBlockReference
  2
_Open90
 10
29.2203690838
 20
8.8771637036
 30
0.564604021
 41
0.3
 42
0.3
 50
90.0
  0
LINE
  5
373
330
36E
100
AcDbEntity
  8
DIMS
100
AcDbLine
 10
29.5936329858
 20
7.9745942487
 30
0.0
 11
30.4790496807
 21
7.9745942487
 31
0.0
  0
LINE
  5
374
330
36E
100
AcDbEntity
  8
DIMS
100
AcDbLine
 10
28.3571144907
 20
9.0771637036
 30
0.0
 11
29.5953690838
 21
9.0771637036
 31
0.0
  0
LINE
  5
375
330
36E
100
AcDbEntity
  8
DIMS
100
AcDbLine
 10
26.1336144907
 20
8.8771637036
 30
0.0
 11
29.5953690838
 21
8.8771637036
 31
0.0
  0
LINE
  5
376
330
36E
100
AcDbEntity
  8
DIMS
100
AcDbLine
 10
29.5203690838
 20
7.9233095503
 30
0.0
 11
29.2203690838
 21
7.9233095503
 31
0.0
  0
LINE
  5
377
330
36E
100
AcDbEntity
  8
DIMS
100
AcDbLine
 10
29.2203690838
 20
7.9233095503
 30
0.0
 11
29.2203690838
 21
8.8771637036
 31
0.0
  0
LINE
  5
378
330
36E
100
AcDbEntity
  8
DIMS
100
AcDbLine
 10
29.2203690838
 20
9.0771637036
 30
0.0
 11
29.2203690838
 21
9.3771637036
 31
0.0
  0
MTEXT
  5
379
330
36E
100
AcDbEntity
  8
DIMS
100
AcDbMText
 10
29.8516191105
 20
8.5693078082
 30
0.0
 40
0.5
 41
0.0
 71
     1
 72
     1
  1
3
  7
SLDTEXTSTYLE1
 73
     1
 44
1.0
  0
MTEXT
  5
37A
330
36E
100
AcDbEntity
  8
DIMS
100
AcDbMText
 10
29.6668968878
 20
7.9081272296
 30
0.0
 40
0.5
 41
0.0
 71
     1
 72
     1
  1
16
  7
SLDTEXTSTYLE1
 73
     1
 44
1.0
  0
MTEXT
  5
37B
330
36E
100
AcDbEntity
  8
DIMS
100
AcDbMText
 10
30.5523135827
 20
8.2039953091
 30
0.0
 40
0.5
 41
0.0
 71
     1
 72
     1
  1
"
  7
SLDTEXTSTYLE1
 73
     1
 44
1.0
  0
ENDBLK
  5
370
330
36E
100
AcDbEntity
  8
0
100
AcDbBlockEnd
  0
BLOCK
  5
37E
330
37D
100
AcDbEntity
  8
0
100
AcDbBlockBegin
  2
_D_9
 70
     0
 10
0.0
 20
0.0
 30
0.0
  3
_D_9
  1

  0
INSERT
  5
380
330
37D
100
AcDbEntity
  8
DIMS
100
AcDbBlockReference
  2
_Open90
 10
10.190447824
 20
7.8110219713
 30
0.564604021
 41
0.3
 42
0.3
 50
180.0
  0
INSERT
  5
381
330
37D
100
AcDbEntity
  8
DIMS
100
AcDbBlockReference
  2
_Open90
 10
12.413947824
 20
7.8110219713
 30
0.564604021
 41
0.3
 42
0.3
 50
0.0
  0
LINE
  5
382
330
37D
100
AcDbEntity
  8
DIMS
100
AcDbLine
 10
11.1258089033
 20
7.8623066697
 30
0.0
 11
11.6417811528
 21
7.8623066697
 31
0.0
  0
LINE
  5
383
330
37D
100
AcDbEntity
  8
DIMS
100
AcDbLine
 10
10.190447824
 20
8.9104970369
 30
0.0
 11
10.190447824
 21
7.4360219713
 31
0.0
  0
LINE
  5
384
330
37D
100
AcDbEntity
  8
DIMS
100
AcDbLine
 10
12.413947824
 20
8.7104970369
 30
0.0
 11
12.413947824
 21
7.4360219713
 31
0.0
  0
LINE
  5
385
330
37D
100
AcDbEntity
  8
DIMS
100
AcDbLine
 10
10.190447824
 20
7.8110219713
 30
0.0
 11
10.6831005559
 21
7.8110219713
 31
0.0
  0
LINE
  5
386
330
37D
100
AcDbEntity
  8
DIMS
100
AcDbLine
 10
12.413947824
 20
7.8110219713
 30
0.0
 11
11.9212950921
 21
7.8110219713
 31
0.0
  0
MTEXT
  5
387
330
37D
100
AcDbEntity
  8
DIMS
100
AcDbMText
 10
10.6831005559
 20
8.0917077301
 30
0.0
 40
0.5
 41
0.0
 71
     1
 72
     1
  1
2
  7
SLDTEXTSTYLE1
 73
     1
 44
1.0
  0
MTEXT
  5
388
330
37D
100
AcDbEntity
  8
DIMS
100
AcDbMText
 10
11.1990728053
 20
8.4570202292
 30
0.0
 40
0.5
 41
0.0
 71
     1
 72
     1
  1
1
  7
SLDTEXTSTYLE1
 73
     1
 44
1.0
  0
MTEXT
  5
389
330
37D
100
AcDbEntity
  8
DIMS
100
AcDbMText
 10
11.1990728053
 20
7.7958396506
 30
0.0
 40
0.5
 41
0.0
 71
     1
 72
     1
  1
4
  7
SLDTEXTSTYLE1
 73
     1
 44
1.0
  0
MTEXT
  5
38A
330
37D
100
AcDbEntity
  8
DIMS
100
AcDbMText
 10
11.7150450547
 20
8.0917077301
 30
0.0
 40
0.5
 41
0.0
 71
     1
 72
     1
  1
"
  7
SLDTEXTSTYLE1
 73
     1
 44
1.0
  0
ENDBLK
  5
37F
330
37D
100
AcDbEntity
  8
0
100
AcDbBlockEnd
  0
BLOCK
  5
3DF
330
3DE
100
AcDbEntity
  8
0
100
AcDbBlockBegin
  2
_D_10
 70
     0
 10
0.0
 20
0.0
 30
0.0
  3
_D_10
  1

  0
INSERT
  5
3E1
330
3DE
100
AcDbEntity
  8
DIMS
100
AcDbBlockReference
  2
_Open90
 10
39.1128291331
 20
8.1775696044
 30
0.2304874237
 41
0.3
 42
0.3
 50
180.0
  0
INSERT
  5
3E2
330
3DE
100
AcDbEntity
  8
DIMS
100
AcDbBlockReference
  2
_Open90
 10
38.7078291331
 20
8.1775696044
 30
0.2304874237
 41
0.3
 42
0.3
 50
0.0
  0
LINE
  5
3E3
330
3DE
100
AcDbEntity
  8
DIMS
100
AcDbLine
 10
36.5356944043
 20
8.2288543028
 30
0.0
 11
37.0516666537
 21
8.2288543028
 31
0.0
  0
LINE
  5
3E4
330
3DE
100
AcDbEntity
  8
DIMS
100
AcDbLine
 10
39.1128291331
 20
8.9404970369
 30
0.0
 11
39.1128291331
 21
7.8025696044
 31
0.0
  0
LINE
  5
3E5
330
3DE
100
AcDbEntity
  8
DIMS
100
AcDbLine
 10
38.7078291331
 20
8.5104970369
 30
0.0
 11
38.7078291331
 21
7.8025696044
 31
0.0
  0
LINE
  5
3E6
330
3DE
100
AcDbEntity
  8
DIMS
100
AcDbLine
 10
39.1128291331
 20
8.1775696044
 30
0.0
 11
39.4128291331
 21
8.1775696044
 31
0.0
  0
LINE
  5
3E7
330
3DE
100
AcDbEntity
  8
DIMS
100
AcDbLine
 10
38.7078291331
 20
8.1775696044
 30
0.0
 11
37.3311805198
 21
8.1775696044
 31
0.0
  0
MTEXT
  5
3E8
330
3DE
100
AcDbEntity
  8
DIMS
100
AcDbMText
 10
36.6089583063
 20
8.8235678623
 30
0.0
 40
0.5
 41
0.0
 71
     1
 72
     1
  1
3
  7
SLDTEXTSTYLE1
 73
     1
 44
1.0
  0
MTEXT
  5
3E9
330
3DE
100
AcDbEntity
  8
DIMS
100
AcDbMText
 10
36.6089583063
 20
8.1623872838
 30
0.0
 40
0.5
 41
0.0
 71
     1
 72
     1
  1
8
  7
SLDTEXTSTYLE1
 73
     1
 44
1.0
  0
MTEXT
  5
3EA
330
3DE
100
AcDbEntity
  8
DIMS
100
AcDbMText
 10
37.1249305557
 20
8.4582553633
 30
0.0
 40
0.5
 41
0.0
 71
     1
 72
     1
  1
"
  7
SLDTEXTSTYLE1
 73
     1
 44
1.0
  0
ENDBLK
  5
3E0
330
3DE
100
AcDbEntity
  8
0
100
AcDbBlockEnd
  0
BLOCK
  5
3ED
330
3EC
100
AcDbEntity
  8
0
100
AcDbBlockBegin
  2
_D_11
 70
     0
 10
0.0
 20
0.0
 30
0.0
  3
_D_11
  1

  0
INSERT
  5
3EF
330
3EC
100
AcDbEntity
  8
DIMS
100
AcDbBlockReference
  2
_Open90
 10
38.9159787394
 20
11.8070016279
 30
0.2304874237
 41
0.3
 42
0.3
 50
0.0
  0
INSERT
  5
3F0
330
3EC
100
AcDbEntity
  8
DIMS
100
AcDbBlockReference
  2
_Open90
 10
39.1128291331
 20
11.8070016279
 30
0.2304874237
 41
0.3
 42
0.3
 50
180.0
  0
LINE
  5
3F1
330
3EC
100
AcDbEntity
  8
DIMS
100
AcDbLine
 10
36.3509721449
 20
11.8582863263
 30
0.0
 11
37.2363888398
 21
11.8582863263
 31
0.0
  0
LINE
  5
3F2
330
3EC
100
AcDbEntity
  8
DIMS
100
AcDbLine
 10
38.9159787394
 20
11.8070016279
 30
0.0
 11
37.5159027792
 21
11.8070016279
 31
0.0
  0
LINE
  5
3F3
330
3EC
100
AcDbEntity
  8
DIMS
100
AcDbLine
 10
39.1128291331
 20
11.8070016279
 30
0.0
 11
39.4128291331
 21
11.8070016279
 31
0.0
  0
MTEXT
  5
3F4
330
3EC
100
AcDbEntity
  8
DIMS
100
AcDbMText
 10
36.6089582696
 20
12.4529998858
 30
0.0
 40
0.5
 41
0.0
 71
     1
 72
     1
  1
3
  7
SLDTEXTSTYLE1
 73
     1
 44
1.0
  0
MTEXT
  5
3F5
330
3EC
100
AcDbEntity
  8
DIMS
100
AcDbMText
 10
36.4242360469
 20
11.7918193073
 30
0.0
 40
0.5
 41
0.0
 71
     1
 72
     1
  1
16
  7
SLDTEXTSTYLE1
 73
     1
 44
1.0
  0
MTEXT
  5
3F6
330
3EC
100
AcDbEntity
  8
DIMS
100
AcDbMText
 10
37.3096527418
 20
12.0876873868
 30
0.0
 40
0.5
 41
0.0
 71
     1
 72
     1
  1
"
  7
SLDTEXTSTYLE1
 73
     1
 44
1.0
  0
ENDBLK
  5
3EE
330
3EC
100
AcDbEntity
  8
0
100
AcDbBlockEnd
  0
BLOCK
  5
596
330
595
100
AcDbEntity
  8
0
100
AcDbBlockBegin
  2
SW_NOTE_0_2
 70
     0
 10
0.0
 20
0.0
 30
0.0
  3
SW_NOTE_0_2
  1

  0
MTEXT
  5
598
330
595
100
AcDbEntity
  8
NOTES
 62
     0
100
AcDbMText
 10
0.0
 20
0.638671875
 30
0.0
 40
0.5
 41
0.0
 71
     1
 72
     1
  1
3d View
  7
SLDTEXTSTYLE1
 73
     1
 44
1.0
  0
MTEXT
  5
599
330
595
100
AcDbEntity
  8
NOTES
 62
     0
100
AcDbMText
 10
0.0
 20
-0.3613281862
 30
0.0
 40
0.5
 41
0.0
 71
     1
 72
     1
  1
code 942
  7
SLDTEXTSTYLE1
 73
     1
 44
1.0
  0
ENDBLK
  5
597
330
595
100
AcDbEntity
  8
0
100
AcDbBlockEnd
  0
ENDSEC
  0
SECTION
  2
ENTITIES
  0
LINE
  5
7A
330
1F
100
AcDbEntity
  8
TITLE
370
    35
100
AcDbLine
 10
72.5182230965
 20
1.4876117645
 30
0.0
 11
89.4999864512
 21
1.4876117645
 31
0.0
  0
LINE
  5
7B
330
1F
100
AcDbEntity
  8
TITLE
370
    35
100
AcDbLine
 10
89.4999317442
 20
5.4753603936
 30
0.0
 11
79.3105350723
 21
5.4753603936
 31
0.0
  0
LINE
  5
7C
330
1F
100
AcDbEntity
  8
TITLE
  6
SLD-Solid
370
    18
100
AcDbLine
 10
0.5
 20
0.5
 30
0.0
 11
0.5
 21
35.5
 31
0.0
  0
LINE
  5
7D
330
1F
100
AcDbEntity
  8
TITLE
  6
SLD-Solid
370
    18
100
AcDbLine
 10
0.5
 20
35.5
 30
0.0
 11
89.5
 21
35.5
 31
0.0
  0
LINE
  5
7E
330
1F
100
AcDbEntity
  8
TITLE
370
    35
100
AcDbLine
 10
72.5182230965
 20
2.5427877231
 30
0.0
 11
65.5059791203
 21
2.5427877231
 31
0.0
  0
LINE
  5
7F
330
1F
100
AcDbEntity
  8
TITLE
370
    35
100
AcDbLine
 10
72.5182230965
 20
1.4876117645
 30
0.0
 11
65.5059791203
 21
1.4876117645
 31
0.0
  0
LINE
  5
80
330
1F
100
AcDbEntity
  8
TITLE
  6
SLD-Solid
370
    18
100
AcDbLine
 10
89.5
 20
35.5
 30
0.0
 11
89.5
 21
0.5
 31
0.0
  0
LINE
  5
81
330
1F
100
AcDbEntity
  8
TITLE
  6
SLD-Solid
370
    18
100
AcDbLine
 10
89.5
 20
0.5
 30
0.0
 11
0.5
 21
0.5
 31
0.0
  0
LINE
  5
82
330
1F
100
AcDbEntity
  8
TITLE
370
    35
100
AcDbLine
 10
72.5182230965
 20
1.4876117645
 30
0.0
 11
72.5182230965
 21
3.5979636817
 31
0.0
  0
LINE
  5
83
330
1F
100
AcDbEntity
  8
TITLE
370
    35
100
AcDbLine
 10
65.5059791203
 20
3.5979636817
 30
0.0
 11
65.5059791203
 21
0.5
 31
0.0
  0
LINE
  5
84
330
1F
100
AcDbEntity
  8
TITLE
370
    35
100
AcDbLine
 10
65.5059791203
 20
0.5
 30
0.0
 11
89.5
 21
0.5
 31
0.0
  0
LINE
  5
85
330
1F
100
AcDbEntity
  8
TITLE
370
    35
100
AcDbLine
 10
89.4999317442
 20
5.4753603936
 30
0.0
 11
89.5
 21
0.5
 31
0.0
  0
LINE
  5
86
330
1F
100
AcDbEntity
  8
TITLE
  6
SLD-Solid
370
    18
100
AcDbLine
 10
0.4999606299
 20
18.0
 30
0.0
 11
0.5000393701
 21
18.0
 31
0.0
  0
LINE
  5
87
330
1F
100
AcDbEntity
  8
TITLE
370
    35
100
AcDbLine
 10
72.5182230965
 20
3.5979636817
 30
0.0
 11
65.5059791203
 21
3.5979636817
 31
0.0
  0
LINE
  5
88
330
1F
100
AcDbEntity
  8
TITLE
370
    35
100
AcDbLine
 10
72.5182230965
 20
3.5979636817
 30
0.0
 11
89.4997615643
 21
3.5979648343
 31
0.0
  0
LINE
  5
89
330
1F
100
AcDbEntity
  8
TITLE
370
    35
100
AcDbLine
 10
79.3105350723
 20
5.4753603936
 30
0.0
 11
79.3105350723
 21
0.4636772425
 31
0.0
  0
LINE
  5
8A
330
1F
100
AcDbEntity
  8
TITLE
  6
SLD-Solid
370
    18
100
AcDbLine
 10
45.0
 20
35.5000393701
 30
0.0
 11
45.0
 21
35.4999606299
 31
0.0
  0
LINE
  5
8B
330
1F
100
AcDbEntity
  8
TITLE
  6
SLD-Solid
370
    18
100
AcDbLine
 10
89.5000393701
 20
18.0
 30
0.0
 11
89.4999606299
 21
18.0
 31
0.0
  0
LINE
  5
8C
330
1F
100
AcDbEntity
  8
TITLE
  6
SLD-Solid
370
    18
100
AcDbLine
 10
45.0
 20
0.4999606299
 30
0.0
 11
45.0
 21
0.5000393701
 31
0.0
  0
LINE
  5
8D
330
1F
100
AcDbEntity
  8
TITLE
  6
SLD-Solid
370
    18
100
AcDbLine
 10
0.5
 20
2.2519685039
 30
0.0
 11
0.1653543307
 21
2.2519685039
 31
0.0
  0
LINE
  5
8E
330
1F
100
AcDbEntity
  8
TITLE
  6
SLD-Solid
370
    18
100
AcDbLine
 10
89.5
 20
2.2519685039
 30
0.0
 11
89.8346456693
 21
2.2519685039
 31
0.0
  0
LINE
  5
8F
330
1F
100
AcDbEntity
  8
TITLE
  6
SLD-Solid
370
    18
100
AcDbLine
 10
0.5
 20
4.2204724409
 30
0.0
 11
0.1653543307
 21
4.2204724409
 31
0.0
  0
LINE
  5
90
330
1F
100
AcDbEntity
  8
TITLE
  6
SLD-Solid
370
    18
100
AcDbLine
 10
89.5
 20
4.2204724409
 30
0.0
 11
89.8346456693
 21
4.2204724409
 31
0.0
  0
LINE
  5
91
330
1F
100
AcDbEntity
  8
TITLE
  6
SLD-Solid
370
    18
100
AcDbLine
 10
0.5
 20
6.188976378
 30
0.0
 11
0.1653543307
 21
6.188976378
 31
0.0
  0
LINE
  5
92
330
1F
100
AcDbEntity
  8
TITLE
  6
SLD-Solid
370
    18
100
AcDbLine
 10
89.5
 20
6.188976378
 30
0.0
 11
89.8346456693
 21
6.188976378
 31
0.0
  0
LINE
  5
93
330
1F
100
AcDbEntity
  8
TITLE
  6
SLD-Solid
370
    18
100
AcDbLine
 10
0.5
 20
8.157480315
 30
0.0
 11
0.1653543307
 21
8.157480315
 31
0.0
  0
LINE
  5
94
330
1F
100
AcDbEntity
  8
TITLE
  6
SLD-Solid
370
    18
100
AcDbLine
 10
89.5
 20
8.157480315
 30
0.0
 11
89.8346456693
 21
8.157480315
 31
0.0
  0
LINE
  5
95
330
1F
100
AcDbEntity
  8
TITLE
  6
SLD-Solid
370
    18
100
AcDbLine
 10
0.5
 20
10.125984252
 30
0.0
 11
0.1653543307
 21
10.125984252
 31
0.0
  0
LINE
  5
96
330
1F
100
AcDbEntity
  8
TITLE
  6
SLD-Solid
370
    18
100
AcDbLine
 10
89.5
 20
10.125984252
 30
0.0
 11
89.8346456693
 21
10.125984252
 31
0.0
  0
LINE
  5
97
330
1F
100
AcDbEntity
  8
TITLE
  6
SLD-Solid
370
    18
100
AcDbLine
 10
0.5
 20
12.094488189
 30
0.0
 11
0.1653543307
 21
12.094488189
 31
0.0
  0
LINE
  5
98
330
1F
100
AcDbEntity
  8
TITLE
  6
SLD-Solid
370
    18
100
AcDbLine
 10
89.5
 20
12.094488189
 30
0.0
 11
89.8346456693
 21
12.094488189
 31
0.0
  0
LINE
  5
99
330
1F
100
AcDbEntity
  8
TITLE
  6
SLD-Solid
370
    18
100
AcDbLine
 10
0.5
 20
14.062992126
 30
0.0
 11
0.1653543307
 21
14.062992126
 31
0.0
  0
LINE
  5
9A
330
1F
100
AcDbEntity
  8
TITLE
  6
SLD-Solid
370
    18
100
AcDbLine
 10
89.5
 20
14.062992126
 30
0.0
 11
89.8346456693
 21
14.062992126
 31
0.0
  0
LINE
  5
9B
330
1F
100
AcDbEntity
  8
TITLE
  6
SLD-Solid
370
    18
100
AcDbLine
 10
0.5
 20
16.031496063
 30
0.0
 11
0.1653543307
 21
16.031496063
 31
0.0
  0
LINE
  5
9C
330
1F
100
AcDbEntity
  8
TITLE
  6
SLD-Solid
370
    18
100
AcDbLine
 10
89.5
 20
16.031496063
 30
0.0
 11
89.8346456693
 21
16.031496063
 31
0.0
  0
LINE
  5
9D
330
1F
100
AcDbEntity
  8
TITLE
  6
SLD-Solid
370
    18
100
AcDbLine
 10
0.5
 20
18.0
 30
0.0
 11
0.1653543307
 21
18.0
 31
0.0
  0
LINE
  5
9E
330
1F
100
AcDbEntity
  8
TITLE
  6
SLD-Solid
370
    18
100
AcDbLine
 10
89.5
 20
18.0
 30
0.0
 11
89.8346456693
 21
18.0
 31
0.0
  0
LINE
  5
9F
330
1F
100
AcDbEntity
  8
TITLE
  6
SLD-Solid
370
    18
100
AcDbLine
 10
0.5
 20
19.968503937
 30
0.0
 11
0.1653543307
 21
19.968503937
 31
0.0
  0
LINE
  5
A0
330
1F
100
AcDbEntity
  8
TITLE
  6
SLD-Solid
370
    18
100
AcDbLine
 10
89.5
 20
19.968503937
 30
0.0
 11
89.8346456693
 21
19.968503937
 31
0.0
  0
LINE
  5
A1
330
1F
100
AcDbEntity
  8
TITLE
  6
SLD-Solid
370
    18
100
AcDbLine
 10
0.5
 20
21.937007874
 30
0.0
 11
0.1653543307
 21
21.937007874
 31
0.0
  0
LINE
  5
A2
330
1F
100
AcDbEntity
  8
TITLE
  6
SLD-Solid
370
    18
100
AcDbLine
 10
89.5
 20
21.937007874
 30
0.0
 11
89.8346456693
 21
21.937007874
 31
0.0
  0
LINE
  5
A3
330
1F
100
AcDbEntity
  8
TITLE
  6
SLD-Solid
370
    18
100
AcDbLine
 10
0.5
 20
23.905511811
 30
0.0
 11
0.1653543307
 21
23.905511811
 31
0.0
  0
LINE
  5
A4
330
1F
100
AcDbEntity
  8
TITLE
  6
SLD-Solid
370
    18
100
AcDbLine
 10
89.5
 20
23.905511811
 30
0.0
 11
89.8346456693
 21
23.905511811
 31
0.0
  0
LINE
  5
A5
330
1F
100
AcDbEntity
  8
TITLE
  6
SLD-Solid
370
    18
100
AcDbLine
 10
0.5
 20
25.874015748
 30
0.0
 11
0.1653543307
 21
25.874015748
 31
0.0
  0
LINE
  5
A6
330
1F
100
AcDbEntity
  8
TITLE
  6
SLD-Solid
370
    18
100
AcDbLine
 10
89.5
 20
25.874015748
 30
0.0
 11
89.8346456693
 21
25.874015748
 31
0.0
  0
LINE
  5
A7
330
1F
100
AcDbEntity
  8
TITLE
  6
SLD-Solid
370
    18
100
AcDbLine
 10
0.5
 20
27.842519685
 30
0.0
 11
0.1653543307
 21
27.842519685
 31
0.0
  0
LINE
  5
A8
330
1F
100
AcDbEntity
  8
TITLE
  6
SLD-Solid
370
    18
100
AcDbLine
 10
89.5
 20
27.842519685
 30
0.0
 11
89.8346456693
 21
27.842519685
 31
0.0
  0
LINE
  5
A9
330
1F
100
AcDbEntity
  8
TITLE
  6
SLD-Solid
370
    18
100
AcDbLine
 10
0.5
 20
29.811023622
 30
0.0
 11
0.1653543307
 21
29.811023622
 31
0.0
  0
LINE
  5
AA
330
1F
100
AcDbEntity
  8
TITLE
  6
SLD-Solid
370
    18
100
AcDbLine
 10
89.5
 20
29.811023622
 30
0.0
 11
89.8346456693
 21
29.811023622
 31
0.0
  0
LINE
  5
AB
330
1F
100
AcDbEntity
  8
TITLE
  6
SLD-Solid
370
    18
100
AcDbLine
 10
0.5
 20
31.7795275591
 30
0.0
 11
0.1653543307
 21
31.7795275591
 31
0.0
  0
LINE
  5
AC
330
1F
100
AcDbEntity
  8
TITLE
  6
SLD-Solid
370
    18
100
AcDbLine
 10
89.5
 20
31.7795275591
 30
0.0
 11
89.8346456693
 21
31.7795275591
 31
0.0
  0
LINE
  5
AD
330
1F
100
AcDbEntity
  8
TITLE
  6
SLD-Solid
370
    18
100
AcDbLine
 10
0.5
 20
33.7480314961
 30
0.0
 11
0.1653543307
 21
33.7480314961
 31
0.0
  0
LINE
  5
AE
330
1F
100
AcDbEntity
  8
TITLE
  6
SLD-Solid
370
    18
100
AcDbLine
 10
89.5
 20
33.7480314961
 30
0.0
 11
89.8346456693
 21
33.7480314961
 31
0.0
  0
LINE
  5
AF
330
1F
100
AcDbEntity
  8
TITLE
  6
SLD-Solid
370
    18
100
AcDbLine
 10
1.6929133858
 20
35.5
 30
0.0
 11
1.6929133858
 21
35.8346456693
 31
0.0
  0
LINE
  5
B0
330
1F
100
AcDbEntity
  8
TITLE
  6
SLD-Solid
370
    18
100
AcDbLine
 10
1.6929133858
 20
0.5
 30
0.0
 11
1.6929133858
 21
0.1653543307
 31
0.0
  0
LINE
  5
B1
330
1F
100
AcDbEntity
  8
TITLE
  6
SLD-Solid
370
    18
100
AcDbLine
 10
3.6614173228
 20
35.5
 30
0.0
 11
3.6614173228
 21
35.8346456693
 31
0.0
  0
LINE
  5
B2
330
1F
100
AcDbEntity
  8
TITLE
  6
SLD-Solid
370
    18
100
AcDbLine
 10
3.6614173228
 20
0.5
 30
0.0
 11
3.6614173228
 21
0.1653543307
 31
0.0
  0
LINE
  5
B3
330
1F
100
AcDbEntity
  8
TITLE
  6
SLD-Solid
370
    18
100
AcDbLine
 10
5.6299212598
 20
35.5
 30
0.0
 11
5.6299212598
 21
35.8346456693
 31
0.0
  0
LINE
  5
B4
330
1F
100
AcDbEntity
  8
TITLE
  6
SLD-Solid
370
    18
100
AcDbLine
 10
5.6299212598
 20
0.5
 30
0.0
 11
5.6299212598
 21
0.1653543307
 31
0.0
  0
LINE
  5
B5
330
1F
100
AcDbEntity
  8
TITLE
  6
SLD-Solid
370
    18
100
AcDbLine
 10
7.5984251969
 20
35.5
 30
0.0
 11
7.5984251969
 21
35.8346456693
 31
0.0
  0
LINE
  5
B6
330
1F
100
AcDbEntity
  8
TITLE
  6
SLD-Solid
370
    18
100
AcDbLine
 10
7.5984251969
 20
0.5
 30
0.0
 11
7.5984251969
 21
0.1653543307
 31
0.0
  0
LINE
  5
B7
330
1F
100
AcDbEntity
  8
TITLE
  6
SLD-Solid
370
    18
100
AcDbLine
 10
9.5669291339
 20
35.5
 30
0.0
 11
9.5669291339
 21
35.8346456693
 31
0.0
  0
LINE
  5
B8
330
1F
100
AcDbEntity
  8
TITLE
  6
SLD-Solid
370
    18
100
AcDbLine
 10
9.5669291339
 20
0.5
 30
0.0
 11
9.5669291339
 21
0.1653543307
 31
0.0
  0
LINE
  5
B9
330
1F
100
AcDbEntity
  8
TITLE
  6
SLD-Solid
370
    18
100
AcDbLine
 10
11.5354330709
 20
35.5
 30
0.0
 11
11.5354330709
 21
35.8346456693
 31
0.0
  0
LINE
  5
BA
330
1F
100
AcDbEntity
  8
TITLE
  6
SLD-Solid
370
    18
100
AcDbLine
 10
11.5354330709
 20
0.5
 30
0.0
 11
11.5354330709
 21
0.1653543307
 31
0.0
  0
LINE
  5
BB
330
1F
100
AcDbEntity
  8
TITLE
  6
SLD-Solid
370
    18
100
AcDbLine
 10
13.5039370079
 20
35.5
 30
0.0
 11
13.5039370079
 21
35.8346456693
 31
0.0
  0
LINE
  5
BC
330
1F
100
AcDbEntity
  8
TITLE
  6
SLD-Solid
370
    18
100
AcDbLine
 10
13.5039370079
 20
0.5
 30
0.0
 11
13.5039370079
 21
0.1653543307
 31
0.0
  0
LINE
  5
BD
330
1F
100
AcDbEntity
  8
TITLE
  6
SLD-Solid
370
    18
100
AcDbLine
 10
15.4724409449
 20
35.5
 30
0.0
 11
15.4724409449
 21
35.8346456693
 31
0.0
  0
LINE
  5
BE
330
1F
100
AcDbEntity
  8
TITLE
  6
SLD-Solid
370
    18
100
AcDbLine
 10
15.4724409449
 20
0.5
 30
0.0
 11
15.4724409449
 21
0.1653543307
 31
0.0
  0
LINE
  5
BF
330
1F
100
AcDbEntity
  8
TITLE
  6
SLD-Solid
370
    18
100
AcDbLine
 10
17.4409448819
 20
35.5
 30
0.0
 11
17.4409448819
 21
35.8346456693
 31
0.0
  0
LINE
  5
C0
330
1F
100
AcDbEntity
  8
TITLE
  6
SLD-Solid
370
    18
100
AcDbLine
 10
17.4409448819
 20
0.5
 30
0.0
 11
17.4409448819
 21
0.1653543307
 31
0.0
  0
LINE
  5
C1
330
1F
100
AcDbEntity
  8
TITLE
  6
SLD-Solid
370
    18
100
AcDbLine
 10
19.4094488189
 20
35.5
 30
0.0
 11
19.4094488189
 21
35.8346456693
 31
0.0
  0
LINE
  5
C2
330
1F
100
AcDbEntity
  8
TITLE
  6
SLD-Solid
370
    18
100
AcDbLine
 10
19.4094488189
 20
0.5
 30
0.0
 11
19.4094488189
 21
0.1653543307
 31
0.0
  0
LINE
  5
C3
330
1F
100
AcDbEntity
  8
TITLE
  6
SLD-Solid
370
    18
100
AcDbLine
 10
21.3779527559
 20
35.5
 30
0.0
 11
21.3779527559
 21
35.8346456693
 31
0.0
  0
LINE
  5
C4
330
1F
100
AcDbEntity
  8
TITLE
  6
SLD-Solid
370
    18
100
AcDbLine
 10
21.3779527559
 20
0.5
 30
0.0
 11
21.3779527559
 21
0.1653543307
 31
0.0
  0
LINE
  5
C5
330
1F
100
AcDbEntity
  8
TITLE
  6
SLD-Solid
370
    18
100
AcDbLine
 10
23.3464566929
 20
35.5
 30
0.0
 11
23.3464566929
 21
35.8346456693
 31
0.0
  0
LINE
  5
C6
330
1F
100
AcDbEntity
  8
TITLE
  6
SLD-Solid
370
    18
100
AcDbLine
 10
23.3464566929
 20
0.5
 30
0.0
 11
23.3464566929
 21
0.1653543307
 31
0.0
  0
LINE
  5
C7
330
1F
100
AcDbEntity
  8
TITLE
  6
SLD-Solid
370
    18
100
AcDbLine
 10
25.3149606299
 20
35.5
 30
0.0
 11
25.3149606299
 21
35.8346456693
 31
0.0
  0
LINE
  5
C8
330
1F
100
AcDbEntity
  8
TITLE
  6
SLD-Solid
370
    18
100
AcDbLine
 10
25.3149606299
 20
0.5
 30
0.0
 11
25.3149606299
 21
0.1653543307
 31
0.0
  0
LINE
  5
C9
330
1F
100
AcDbEntity
  8
TITLE
  6
SLD-Solid
370
    18
100
AcDbLine
 10
27.2834645669
 20
35.5
 30
0.0
 11
27.2834645669
 21
35.8346456693
 31
0.0
  0
LINE
  5
CA
330
1F
100
AcDbEntity
  8
TITLE
  6
SLD-Solid
370
    18
100
AcDbLine
 10
27.2834645669
 20
0.5
 30
0.0
 11
27.2834645669
 21
0.1653543307
 31
0.0
  0
LINE
  5
CB
330
1F
100
AcDbEntity
  8
TITLE
  6
SLD-Solid
370
    18
100
AcDbLine
 10
29.2519685039
 20
35.5
 30
0.0
 11
29.2519685039
 21
35.8346456693
 31
0.0
  0
LINE
  5
CC
330
1F
100
AcDbEntity
  8
TITLE
  6
SLD-Solid
370
    18
100
AcDbLine
 10
29.2519685039
 20
0.5
 30
0.0
 11
29.2519685039
 21
0.1653543307
 31
0.0
  0
LINE
  5
CD
330
1F
100
AcDbEntity
  8
TITLE
  6
SLD-Solid
370
    18
100
AcDbLine
 10
31.2204724409
 20
35.5
 30
0.0
 11
31.2204724409
 21
35.8346456693
 31
0.0
  0
LINE
  5
CE
330
1F
100
AcDbEntity
  8
TITLE
  6
SLD-Solid
370
    18
100
AcDbLine
 10
31.2204724409
 20
0.5
 30
0.0
 11
31.2204724409
 21
0.1653543307
 31
0.0
  0
LINE
  5
CF
330
1F
100
AcDbEntity
  8
TITLE
  6
SLD-Solid
370
    18
100
AcDbLine
 10
33.188976378
 20
35.5
 30
0.0
 11
33.188976378
 21
35.8346456693
 31
0.0
  0
LINE
  5
D0
330
1F
100
AcDbEntity
  8
TITLE
  6
SLD-Solid
370
    18
100
AcDbLine
 10
33.188976378
 20
0.5
 30
0.0
 11
33.188976378
 21
0.1653543307
 31
0.0
  0
LINE
  5
D1
330
1F
100
AcDbEntity
  8
TITLE
  6
SLD-Solid
370
    18
100
AcDbLine
 10
35.157480315
 20
35.5
 30
0.0
 11
35.157480315
 21
35.8346456693
 31
0.0
  0
LINE
  5
D2
330
1F
100
AcDbEntity
  8
TITLE
  6
SLD-Solid
370
    18
100
AcDbLine
 10
35.157480315
 20
0.5
 30
0.0
 11
35.157480315
 21
0.1653543307
 31
0.0
  0
LINE
  5
D3
330
1F
100
AcDbEntity
  8
TITLE
  6
SLD-Solid
370
    18
100
AcDbLine
 10
37.125984252
 20
35.5
 30
0.0
 11
37.125984252
 21
35.8346456693
 31
0.0
  0
LINE
  5
D4
330
1F
100
AcDbEntity
  8
TITLE
  6
SLD-Solid
370
    18
100
AcDbLine
 10
37.125984252
 20
0.5
 30
0.0
 11
37.125984252
 21
0.1653543307
 31
0.0
  0
LINE
  5
D5
330
1F
100
AcDbEntity
  8
TITLE
  6
SLD-Solid
370
    18
100
AcDbLine
 10
39.094488189
 20
35.5
 30
0.0
 11
39.094488189
 21
35.8346456693
 31
0.0
  0
LINE
  5
D6
330
1F
100
AcDbEntity
  8
TITLE
  6
SLD-Solid
370
    18
100
AcDbLine
 10
39.094488189
 20
0.5
 30
0.0
 11
39.094488189
 21
0.1653543307
 31
0.0
  0
LINE
  5
D7
330
1F
100
AcDbEntity
  8
TITLE
  6
SLD-Solid
370
    18
100
AcDbLine
 10
41.062992126
 20
35.5
 30
0.0
 11
41.062992126
 21
35.8346456693
 31
0.0
  0
LINE
  5
D8
330
1F
100
AcDbEntity
  8
TITLE
  6
SLD-Solid
370
    18
100
AcDbLine
 10
41.062992126
 20
0.5
 30
0.0
 11
41.062992126
 21
0.1653543307
 31
0.0
  0
LINE
  5
D9
330
1F
100
AcDbEntity
  8
TITLE
  6
SLD-Solid
370
    18
100
AcDbLine
 10
43.031496063
 20
35.5
 30
0.0
 11
43.031496063
 21
35.8346456693
 31
0.0
  0
LINE
  5
DA
330
1F
100
AcDbEntity
  8
TITLE
  6
SLD-Solid
370
    18
100
AcDbLine
 10
43.031496063
 20
0.5
 30
0.0
 11
43.031496063
 21
0.1653543307
 31
0.0
  0
LINE
  5
DB
330
1F
100
AcDbEntity
  8
TITLE
  6
SLD-Solid
370
    18
100
AcDbLine
 10
45.0
 20
35.5
 30
0.0
 11
45.0
 21
35.8346456693
 31
0.0
  0
LINE
  5
DC
330
1F
100
AcDbEntity
  8
TITLE
  6
SLD-Solid
370
    18
100
AcDbLine
 10
45.0
 20
0.5
 30
0.0
 11
45.0
 21
0.1653543307
 31
0.0
  0
LINE
  5
DD
330
1F
100
AcDbEntity
  8
TITLE
  6
SLD-Solid
370
    18
100
AcDbLine
 10
46.968503937
 20
35.5
 30
0.0
 11
46.968503937
 21
35.8346456693
 31
0.0
  0
LINE
  5
DE
330
1F
100
AcDbEntity
  8
TITLE
  6
SLD-Solid
370
    18
100
AcDbLine
 10
46.968503937
 20
0.5
 30
0.0
 11
46.968503937
 21
0.1653543307
 31
0.0
  0
LINE
  5
DF
330
1F
100
AcDbEntity
  8
TITLE
  6
SLD-Solid
370
    18
100
AcDbLine
 10
48.937007874
 20
35.5
 30
0.0
 11
48.937007874
 21
35.8346456693
 31
0.0
  0
LINE
  5
E0
330
1F
100
AcDbEntity
  8
TITLE
  6
SLD-Solid
370
    18
100
AcDbLine
 10
48.937007874
 20
0.5
 30
0.0
 11
48.937007874
 21
0.1653543307
 31
0.0
  0
LINE
  5
E1
330
1F
100
AcDbEntity
  8
TITLE
  6
SLD-Solid
370
    18
100
AcDbLine
 10
50.905511811
 20
35.5
 30
0.0
 11
50.905511811
 21
35.8346456693
 31
0.0
  0
LINE
  5
E2
330
1F
100
AcDbEntity
  8
TITLE
  6
SLD-Solid
370
    18
100
AcDbLine
 10
50.905511811
 20
0.5
 30
0.0
 11
50.905511811
 21
0.1653543307
 31
0.0
  0
LINE
  5
E3
330
1F
100
AcDbEntity
  8
TITLE
  6
SLD-Solid
370
    18
100
AcDbLine
 10
52.874015748
 20
35.5
 30
0.0
 11
52.874015748
 21
35.8346456693
 31
0.0
  0
LINE
  5
E4
330
1F
100
AcDbEntity
  8
TITLE
  6
SLD-Solid
370
    18
100
AcDbLine
 10
52.874015748
 20
0.5
 30
0.0
 11
52.874015748
 21
0.1653543307
 31
0.0
  0
LINE
  5
E5
330
1F
100
AcDbEntity
  8
TITLE
  6
SLD-Solid
370
    18
100
AcDbLine
 10
54.842519685
 20
35.5
 30
0.0
 11
54.842519685
 21
35.8346456693
 31
0.0
  0
LINE
  5
E6
330
1F
100
AcDbEntity
  8
TITLE
  6
SLD-Solid
370
    18
100
AcDbLine
 10
54.842519685
 20
0.5
 30
0.0
 11
54.842519685
 21
0.1653543307
 31
0.0
  0
LINE
  5
E7
330
1F
100
AcDbEntity
  8
TITLE
  6
SLD-Solid
370
    18
100
AcDbLine
 10
56.811023622
 20
35.5
 30
0.0
 11
56.811023622
 21
35.8346456693
 31
0.0
  0
LINE
  5
E8
330
1F
100
AcDbEntity
  8
TITLE
  6
SLD-Solid
370
    18
100
AcDbLine
 10
56.811023622
 20
0.5
 30
0.0
 11
56.811023622
 21
0.1653543307
 31
0.0
  0
LINE
  5
E9
330
1F
100
AcDbEntity
  8
TITLE
  6
SLD-Solid
370
    18
100
AcDbLine
 10
58.7795275591
 20
35.5
 30
0.0
 11
58.7795275591
 21
35.8346456693
 31
0.0
  0
LINE
  5
EA
330
1F
100
AcDbEntity
  8
TITLE
  6
SLD-Solid
370
    18
100
AcDbLine
 10
58.7795275591
 20
0.5
 30
0.0
 11
58.7795275591
 21
0.1653543307
 31
0.0
  0
LINE
  5
EB
330
1F
100
AcDbEntity
  8
TITLE
  6
SLD-Solid
370
    18
100
AcDbLine
 10
60.7480314961
 20
35.5
 30
0.0
 11
60.7480314961
 21
35.8346456693
 31
0.0
  0
LINE
  5
EC
330
1F
100
AcDbEntity
  8
TITLE
  6
SLD-Solid
370
    18
100
AcDbLine
 10
60.7480314961
 20
0.5
 30
0.0
 11
60.7480314961
 21
0.1653543307
 31
0.0
  0
LINE
  5
ED
330
1F
100
AcDbEntity
  8
TITLE
  6
SLD-Solid
370
    18
100
AcDbLine
 10
62.7165354331
 20
35.5
 30
0.0
 11
62.7165354331
 21
35.8346456693
 31
0.0
  0
LINE
  5
EE
330
1F
100
AcDbEntity
  8
TITLE
  6
SLD-Solid
370
    18
100
AcDbLine
 10
62.7165354331
 20
0.5
 30
0.0
 11
62.7165354331
 21
0.1653543307
 31
0.0
  0
LINE
  5
EF
330
1F
100
AcDbEntity
  8
TITLE
  6
SLD-Solid
370
    18
100
AcDbLine
 10
64.6850393701
 20
35.5
 30
0.0
 11
64.6850393701
 21
35.8346456693
 31
0.0
  0
LINE
  5
F0
330
1F
100
AcDbEntity
  8
TITLE
  6
SLD-Solid
370
    18
100
AcDbLine
 10
64.6850393701
 20
0.5
 30
0.0
 11
64.6850393701
 21
0.1653543307
 31
0.0
  0
LINE
  5
F1
330
1F
100
AcDbEntity
  8
TITLE
  6
SLD-Solid
370
    18
100
AcDbLine
 10
66.6535433071
 20
35.5
 30
0.0
 11
66.6535433071
 21
35.8346456693
 31
0.0
  0
LINE
  5
F2
330
1F
100
AcDbEntity
  8
TITLE
  6
SLD-Solid
370
    18
100
AcDbLine
 10
66.6535433071
 20
0.5
 30
0.0
 11
66.6535433071
 21
0.1653543307
 31
0.0
  0
LINE
  5
F3
330
1F
100
AcDbEntity
  8
TITLE
  6
SLD-Solid
370
    18
100
AcDbLine
 10
68.6220472441
 20
35.5
 30
0.0
 11
68.6220472441
 21
35.8346456693
 31
0.0
  0
LINE
  5
F4
330
1F
100
AcDbEntity
  8
TITLE
  6
SLD-Solid
370
    18
100
AcDbLine
 10
68.6220472441
 20
0.5
 30
0.0
 11
68.6220472441
 21
0.1653543307
 31
0.0
  0
LINE
  5
F5
330
1F
100
AcDbEntity
  8
TITLE
  6
SLD-Solid
370
    18
100
AcDbLine
 10
70.5905511811
 20
35.5
 30
0.0
 11
70.5905511811
 21
35.8346456693
 31
0.0
  0
LINE
  5
F6
330
1F
100
AcDbEntity
  8
TITLE
  6
SLD-Solid
370
    18
100
AcDbLine
 10
70.5905511811
 20
0.5
 30
0.0
 11
70.5905511811
 21
0.1653543307
 31
0.0
  0
LINE
  5
F7
330
1F
100
AcDbEntity
  8
TITLE
  6
SLD-Solid
370
    18
100
AcDbLine
 10
72.5590551181
 20
35.5
 30
0.0
 11
72.5590551181
 21
35.8346456693
 31
0.0
  0
LINE
  5
F8
330
1F
100
AcDbEntity
  8
TITLE
  6
SLD-Solid
370
    18
100
AcDbLine
 10
72.5590551181
 20
0.5
 30
0.0
 11
72.5590551181
 21
0.1653543307
 31
0.0
  0
LINE
  5
F9
330
1F
100
AcDbEntity
  8
TITLE
  6
SLD-Solid
370
    18
100
AcDbLine
 10
74.5275590551
 20
35.5
 30
0.0
 11
74.5275590551
 21
35.8346456693
 31
0.0
  0
LINE
  5
FA
330
1F
100
AcDbEntity
  8
TITLE
  6
SLD-Solid
370
    18
100
AcDbLine
 10
74.5275590551
 20
0.5
 30
0.0
 11
74.5275590551
 21
0.1653543307
 31
0.0
  0
LINE
  5
FB
330
1F
100
AcDbEntity
  8
TITLE
  6
SLD-Solid
370
    18
100
AcDbLine
 10
76.4960629921
 20
35.5
 30
0.0
 11
76.4960629921
 21
35.8346456693
 31
0.0
  0
LINE
  5
FC
330
1F
100
AcDbEntity
  8
TITLE
  6
SLD-Solid
370
    18
100
AcDbLine
 10
76.4960629921
 20
0.5
 30
0.0
 11
76.4960629921
 21
0.1653543307
 31
0.0
  0
LINE
  5
FD
330
1F
100
AcDbEntity
  8
TITLE
  6
SLD-Solid
370
    18
100
AcDbLine
 10
78.4645669291
 20
35.5
 30
0.0
 11
78.4645669291
 21
35.8346456693
 31
0.0
  0
LINE
  5
FE
330
1F
100
AcDbEntity
  8
TITLE
  6
SLD-Solid
370
    18
100
AcDbLine
 10
78.4645669291
 20
0.5
 30
0.0
 11
78.4645669291
 21
0.1653543307
 31
0.0
  0
LINE
  5
FF
330
1F
100
AcDbEntity
  8
TITLE
  6
SLD-Solid
370
    18
100
AcDbLine
 10
80.4330708661
 20
35.5
 30
0.0
 11
80.4330708661
 21
35.8346456693
 31
0.0
  0
LINE
  5
100
330
1F
100
AcDbEntity
  8
TITLE
  6
SLD-Solid
370
    18
100
AcDbLine
 10
80.4330708661
 20
0.5
 30
0.0
 11
80.4330708661
 21
0.1653543307
 31
0.0
  0
LINE
  5
101
330
1F
100
AcDbEntity
  8
TITLE
  6
SLD-Solid
370
    18
100
AcDbLine
 10
82.4015748031
 20
35.5
 30
0.0
 11
82.4015748031
 21
35.8346456693
 31
0.0
  0
LINE
  5
102
330
1F
100
AcDbEntity
  8
TITLE
  6
SLD-Solid
370
    18
100
AcDbLine
 10
82.4015748031
 20
0.5
 30
0.0
 11
82.4015748031
 21
0.1653543307
 31
0.0
  0
LINE
  5
103
330
1F
100
AcDbEntity
  8
TITLE
  6
SLD-Solid
370
    18
100
AcDbLine
 10
84.3700787402
 20
35.5
 30
0.0
 11
84.3700787402
 21
35.8346456693
 31
0.0
  0
LINE
  5
104
330
1F
100
AcDbEntity
  8
TITLE
  6
SLD-Solid
370
    18
100
AcDbLine
 10
84.3700787402
 20
0.5
 30
0.0
 11
84.3700787402
 21
0.1653543307
 31
0.0
  0
LINE
  5
105
330
1F
100
AcDbEntity
  8
TITLE
  6
SLD-Solid
370
    18
100
AcDbLine
 10
86.3385826772
 20
35.5
 30
0.0
 11
86.3385826772
 21
35.8346456693
 31
0.0
  0
LINE
  5
106
330
1F
100
AcDbEntity
  8
TITLE
  6
SLD-Solid
370
    18
100
AcDbLine
 10
86.3385826772
 20
0.5
 30
0.0
 11
86.3385826772
 21
0.1653543307
 31
0.0
  0
LINE
  5
107
330
1F
100
AcDbEntity
  8
TITLE
  6
SLD-Solid
370
    18
100
AcDbLine
 10
88.3070866142
 20
35.5
 30
0.0
 11
88.3070866142
 21
35.8346456693
 31
0.0
  0
LINE
  5
108
330
1F
100
AcDbEntity
  8
TITLE
  6
SLD-Solid
370
    18
100
AcDbLine
 10
88.3070866142
 20
0.5
 30
0.0
 11
88.3070866142
 21
0.1653543307
 31
0.0
  0
MTEXT
  5
10A
330
1F
100
AcDbEntity
  8
NOTES
100
AcDbMText
 10
66.408297803
 20
1.0702903347
 30
0.0
 40
0.25
 41
0.0
 71
     1
 72
     1
  1
UNLESS OTHERWISE SPECIFIED DIMENSIONS ARE IN INCHES.
  7
SLDTEXTSTYLE0
 73
     1
 44
1.0
  0
MTEXT
  5
10B
330
1F
100
AcDbEntity
  8
NOTES
100
AcDbMText
 10
66.4368251132
 20
3.2193045501
 30
0.0
 40
0.25
 41
0.0
 71
     1
 72
     1
  1
DATE:
  7
SLDTEXTSTYLE0
 73
     1
 44
1.0
  0
MTEXT
  5
10C
330
1F
100
AcDbEntity
  8
NOTES
100
AcDbMText
 10
68.7130669976
 20
2.1722148141
 30
0.0
 40
0.25
 41
0.0
 71
     2
 72
     1
  1
DO NOT SCALE DRAWING
  7
SLDTEXTSTYLE0
 73
     1
 44
1.0
  0
MTEXT
  5
10E
330
1F
100
AcDbEntity
  8
NOTES
100
AcDbMText
 10
72.8307373075
 20
3.2682755553
 30
0.0
 40
0.25
 41
0.0
 71
     1
 72
     1
  1
TITLE:
  7
SLDTEXTSTYLE1
 73
     1
 44
1.0
  0
MTEXT
  5
10F
330
1F
100
AcDbEntity
  8
NOTES
100
AcDbMText
 10
80.1561831052
 20
3.2682755553
 30
0.0
 40
0.25
 41
0.0
 71
     1
 72
     1
  1
DWG NO.
  7
SLDTEXTSTYLE1
 73
     1
 44
1.0
  0
MTEXT
  5
110
330
1F
100
AcDbEntity
  8
NOTES
100
AcDbMText
 10
80.1831753203
 20
1.0645815577
 30
0.0
 40
0.25
 41
0.0
 71
     1
 72
     1
  1
SCALE:     1:1
  7
SLDTEXTSTYLE1
 73
     1
 44
1.0
  0
MTEXT
  5
111
330
1F
100
AcDbEntity
  8
NOTES
100
AcDbMText
 10
84.17446308
 20
2.6510344295
 30
0.0
 40
0.25
 41
0.0
 71
     2
 72
     1
  1
942 CAD
  7
SLDTEXTSTYLE1
 73
     1
 44
1.0
  0
MTEXT
  5
112
330
1F
100
AcDbEntity
  8
NOTES
100
AcDbMText
 10
75.9596986767
 20
2.6388861441
 30
0.0
 40
0.25
 41
0.0
 71
     2
 72
     1
  1
942 Frameless mirror
  7
SLDTEXTSTYLE1
 73
     1
 44
1.0
  0
INSERT
  5
118
330
1F
100
AcDbEntity
  8
NOTES
100
AcDbBlockReference
  2
SW_NOTE_0
 10
80.266131557
 20
4.6105227838
 30
0.0
  0
INSERT
  5
122
330
1F
100
AcDbEntity
  8
NOTES
100
AcDbBlockReference
  2
SW_NOTE_0_1
 10
66.6159726246
 20
5.1481526848
 30
0.0
  0
MTEXT
  5
123
330
1F
100
AcDbEntity
  8
NOTES
100
AcDbMText
 10
69.5208728215
 20
3.2135957731
 30
0.0
 40
0.25
 41
0.0
 71
     2
 72
     1
  1
September 9, 2021
  7
SLDTEXTSTYLE1
 73
     1
 44
1.0
  0
MTEXT
  5
124
330
1F
100
AcDbEntity
  8
TITLE
100
AcDbMText
 10
0.3276279776
 20
1.4558621965
 30
0.0
 40
0.125
 41
0.0
 71
     2
 72
     1
  1
A
  7
SLDTEXTSTYLE1
 73
     1
 44
1.0
  0
MTEXT
  5
125
330
1F
100
AcDbEntity
  8
TITLE
100
AcDbMText
 10
89.6622736469
 20
1.4558621965
 30
0.0
 40
0.125
 41
0.0
 71
     2
 72
     1
  1
A
  7
SLDTEXTSTYLE1
 73
     1
 44
1.0
  0
MTEXT
  5
126
330
1F
100
AcDbEntity
  8
TITLE
100
AcDbMText
 10
0.3317512413
 20
3.316098417
 30
0.0
 40
0.125
 41
0.0
 71
     2
 72
     1
  1
B
  7
SLDTEXTSTYLE1
 73
     1
 44
1.0
  0
MTEXT
  5
127
330
1F
100
AcDbEntity
  8
TITLE
100
AcDbMText
 10
89.6663969106
 20
3.316098417
 30
0.0
 40
0.125
 41
0.0
 71
     2
 72
     1
  1
B
  7
SLDTEXTSTYLE1
 73
     1
 44
1.0
  0
MTEXT
  5
128
330
1F
100
AcDbEntity
  8
TITLE
100
AcDbMText
 10
0.3313750817
 20
5.284602354
 30
0.0
 40
0.125
 41
0.0
 71
     2
 72
     1
  1
C
  7
SLDTEXTSTYLE1
 73
     1
 44
1.0
  0
MTEXT
  5
129
330
1F
100
AcDbEntity
  8
TITLE
100
AcDbMText
 10
89.666020751
 20
5.284602354
 30
0.0
 40
0.125
 41
0.0
 71
     2
 72
     1
  1
C
  7
SLDTEXTSTYLE1
 73
     1
 44
1.0
  0
MTEXT
  5
12A
330
1F
100
AcDbEntity
  8
TITLE
100
AcDbMText
 10
0.3311870028
 20
7.253106291
 30
0.0
 40
0.125
 41
0.0
 71
     2
 72
     1
  1
D
  7
SLDTEXTSTYLE1
 73
     1
 44
1.0
  0
MTEXT
  5
12B
330
1F
100
AcDbEntity
  8
TITLE
100
AcDbMText
 10
89.6658326721
 20
7.253106291
 30
0.0
 40
0.125
 41
0.0
 71
     2
 72
     1
  1
D
  7
SLDTEXTSTYLE1
 73
     1
 44
1.0
  0
MTEXT
  5
12C
330
1F
100
AcDbEntity
  8
TITLE
100
AcDbMText
 10
0.332923116
 20
9.221610228
 30
0.0
 40
0.125
 41
0.0
 71
     2
 72
     1
  1
E
  7
SLDTEXTSTYLE1
 73
     1
 44
1.0
  0
MTEXT
  5
12D
330
1F
100
AcDbEntity
  8
TITLE
100
AcDbMText
 10
89.6675687853
 20
9.221610228
 30
0.0
 40
0.125
 41
0.0
 71
     2
 72
     1
  1
E
  7
SLDTEXTSTYLE1
 73
     1
 44
1.0
  0
MTEXT
  5
12E
330
1F
100
AcDbEntity
  8
TITLE
100
AcDbMText
 10
0.3313461474
 20
11.190114165
 30
0.0
 40
0.125
 41
0.0
 71
     2
 72
     1
  1
F
  7
SLDTEXTSTYLE1
 73
     1
 44
1.0
  0
MTEXT
  5
12F
330
1F
100
AcDbEntity
  8
TITLE
100
AcDbMText
 10
89.6659918167
 20
11.190114165
 30
0.0
 40
0.125
 41
0.0
 71
     2
 72
     1
  1
F
  7
SLDTEXTSTYLE1
 73
     1
 44
1.0
  0
MTEXT
  5
130
330
1F
100
AcDbEntity
  8
TITLE
100
AcDbMText
 10
0.3322576054
 20
13.158618102
 30
0.0
 40
0.125
 41
0.0
 71
     2
 72
     1
  1
G
  7
SLDTEXTSTYLE1
 73
     1
 44
1.0
  0
MTEXT
  5
131
330
1F
100
AcDbEntity
  8
TITLE
100
AcDbMText
 10
89.6669032747
 20
13.158618102
 30
0.0
 40
0.125
 41
0.0
 71
     2
 72
     1
  1
G
  7
SLDTEXTSTYLE1
 73
     1
 44
1.0
  0
MTEXT
  5
132
330
1F
100
AcDbEntity
  8
TITLE
100
AcDbMText
 10
0.3323733457
 20
15.127122039
 30
0.0
 40
0.125
 41
0.0
 71
     2
 72
     1
  1
H
  7
SLDTEXTSTYLE1
 73
     1
 44
1.0
  0
MTEXT
  5
133
330
1F
100
AcDbEntity
  8
TITLE
100
AcDbMText
 10
89.667019015
 20
15.127122039
 30
0.0
 40
0.125
 41
0.0
 71
     2
 72
     1
  1
H
  7
SLDTEXTSTYLE1
 73
     1
 44
1.0
  0
MTEXT
  5
134
330
1F
100
AcDbEntity
  8
TITLE
100
AcDbMText
 10
0.3315776306
 20
17.095625976
 30
0.0
 40
0.125
 41
0.0
 71
     2
 72
     1
  1
J
  7
SLDTEXTSTYLE1
 73
     1
 44
1.0
  0
MTEXT
  5
135
330
1F
100
AcDbEntity
  8
TITLE
100
AcDbMText
 10
89.6662232999
 20
17.095625976
 30
0.0
 40
0.125
 41
0.0
 71
     2
 72
     1
  1
J
  7
SLDTEXTSTYLE1
 73
     1
 44
1.0
  0
MTEXT
  5
136
330
1F
100
AcDbEntity
  8
TITLE
100
AcDbMText
 10
0.3323154765
 20
19.064129913
 30
0.0
 40
0.125
 41
0.0
 71
     2
 72
     1
  1
K
  7
SLDTEXTSTYLE1
 73
     1
 44
1.0
  0
MTEXT
  5
137
330
1F
100
AcDbEntity
  8
TITLE
100
AcDbMText
 10
89.6669611458
 20
19.064129913
 30
0.0
 40
0.125
 41
0.0
 71
     2
 72
     1
  1
K
  7
SLDTEXTSTYLE1
 73
     1
 44
1.0
  0
MTEXT
  5
138
330
1F
100
AcDbEntity
  8
TITLE
100
AcDbMText
 10
0.3312448739
 20
21.03263385
 30
0.0
 40
0.125
 41
0.0
 71
     2
 72
     1
  1
L
  7
SLDTEXTSTYLE1
 73
     1
 44
1.0
  0
MTEXT
  5
139
330
1F
100
AcDbEntity
  8
TITLE
100
AcDbMText
 10
89.6658905432
 20
21.03263385
 30
0.0
 40
0.125
 41
0.0
 71
     2
 72
     1
  1
L
  7
SLDTEXTSTYLE1
 73
     1
 44
1.0
  0
MTEXT
  5
13A
330
1F
100
AcDbEntity
  8
TITLE
100
AcDbMText
 10
0.3283224192
 20
23.001137787
 30
0.0
 40
0.125
 41
0.0
 71
     2
 72
     1
  1
M
  7
SLDTEXTSTYLE1
 73
     1
 44
1.0
  0
MTEXT
  5
13B
330
1F
100
AcDbEntity
  8
TITLE
100
AcDbMText
 10
89.6629680885
 20
23.001137787
 30
0.0
 40
0.125
 41
0.0
 71
     2
 72
     1
  1
M
  7
SLDTEXTSTYLE1
 73
     1
 44
1.0
  0
MTEXT
  5
13C
330
1F
100
AcDbEntity
  8
TITLE
100
AcDbMText
 10
0.3315342276
 20
24.969641724
 30
0.0
 40
0.125
 41
0.0
 71
     2
 72
     1
  1
N
  7
SLDTEXTSTYLE1
 73
     1
 44
1.0
  0
MTEXT
  5
13D
330
1F
100
AcDbEntity
  8
TITLE
100
AcDbMText
 10
89.6661798969
 20
24.969641724
 30
0.0
 40
0.125
 41
0.0
 71
     2
 72
     1
  1
N
  7
SLDTEXTSTYLE1
 73
     1
 44
1.0
  0
MTEXT
  5
13E
330
1F
100
AcDbEntity
  8
TITLE
100
AcDbMText
 10
0.3321997349
 20
26.9381456611
 30
0.0
 40
0.125
 41
0.0
 71
     2
 72
     1
  1
P
  7
SLDTEXTSTYLE1
 73
     1
 44
1.0
  0
MTEXT
  5
13F
330
1F
100
AcDbEntity
  8
TITLE
100
AcDbMText
 10
89.6668454042
 20
26.9381456611
 30
0.0
 40
0.125
 41
0.0
 71
     2
 72
     1
  1
P
  7
SLDTEXTSTYLE1
 73
     1
 44
1.0
  0
MTEXT
  5
140
330
1F
100
AcDbEntity
  8
TITLE
100
AcDbMText
 10
0.3309265867
 20
28.9066495981
 30
0.0
 40
0.125
 41
0.0
 71
     2
 72
     1
  1
R
  7
SLDTEXTSTYLE1
 73
     1
 44
1.0
  0
MTEXT
  5
141
330
1F
100
AcDbEntity
  8
TITLE
100
AcDbMText
 10
89.665572256
 20
28.9066495981
 30
0.0
 40
0.125
 41
0.0
 71
     2
 72
     1
  1
R
  7
SLDTEXTSTYLE1
 73
     1
 44
1.0
  0
MTEXT
  5
142
330
1F
100
AcDbEntity
  8
TITLE
100
AcDbMText
 10
0.3323010071
 20
30.8751535351
 30
0.0
 40
0.125
 41
0.0
 71
     2
 72
     1
  1
T
  7
SLDTEXTSTYLE1
 73
     1
 44
1.0
  0
MTEXT
  5
143
330
1F
100
AcDbEntity
  8
TITLE
100
AcDbMText
 10
89.6669466764
 20
30.8751535351
 30
0.0
 40
0.125
 41
0.0
 71
     2
 72
     1
  1
T
  7
SLDTEXTSTYLE1
 73
     1
 44
1.0
  0
MTEXT
  5
144
330
1F
100
AcDbEntity
  8
TITLE
100
AcDbMText
 10
0.3328507755
 20
32.8436574721
 30
0.0
 40
0.125
 41
0.0
 71
     2
 72
     1
  1
U
  7
SLDTEXTSTYLE1
 73
     1
 44
1.0
  0
MTEXT
  5
145
330
1F
100
AcDbEntity
  8
TITLE
100
AcDbMText
 10
89.6674964448
 20
32.8436574721
 30
0.0
 40
0.125
 41
0.0
 71
     2
 72
     1
  1
U
  7
SLDTEXTSTYLE1
 73
     1
 44
1.0
  0
MTEXT
  5
146
330
1F
100
AcDbEntity
  8
TITLE
100
AcDbMText
 10
0.3307529773
 20
34.7038936925
 30
0.0
 40
0.125
 41
0.0
 71
     2
 72
     1
  1
V
  7
SLDTEXTSTYLE1
 73
     1
 44
1.0
  0
MTEXT
  5
147
330
1F
100
AcDbEntity
  8
TITLE
100
AcDbMText
 10
89.6653986466
 20
34.7038936925
 30
0.0
 40
0.125
 41
0.0
 71
     2
 72
     1
  1
V
  7
SLDTEXTSTYLE1
 73
     1
 44
1.0
  0
MTEXT
  5
148
330
1F
100
AcDbEntity
  8
TITLE
100
AcDbMText
 10
1.0939393315
 20
0.4125551099
 30
0.0
 40
0.125
 41
0.0
 71
     2
 72
     1
  1
46
  7
SLDTEXTSTYLE1
 73
     1
 44
1.0
  0
MTEXT
  5
149
330
1F
100
AcDbEntity
  8
TITLE
100
AcDbMText
 10
1.0939393315
 20
35.7472007792
 30
0.0
 40
0.125
 41
0.0
 71
     2
 72
     1
  1
46
  7
SLDTEXTSTYLE1
 73
     1
 44
1.0
  0
MTEXT
  5
14A
330
1F
100
AcDbEntity
  8
TITLE
100
AcDbMText
 10
2.674647993
 20
0.4125551099
 30
0.0
 40
0.125
 41
0.0
 71
     2
 72
     1
  1
45
  7
SLDTEXTSTYLE1
 73
     1
 44
1.0
  0
MTEXT
  5
14B
330
1F
100
AcDbEntity
  8
TITLE
100
AcDbMText
 10
2.674647993
 20
35.7472007792
 30
0.0
 40
0.125
 41
0.0
 71
     2
 72
     1
  1
45
  7
SLDTEXTSTYLE1
 73
     1
 44
1.0
  0
MTEXT
  5
14C
330
1F
100
AcDbEntity
  8
TITLE
100
AcDbMText
 10
4.64315193
 20
0.4125551099
 30
0.0
 40
0.125
 41
0.0
 71
     2
 72
     1
  1
44
  7
SLDTEXTSTYLE1
 73
     1
 44
1.0
  0
MTEXT
  5
14D
330
1F
100
AcDbEntity
  8
TITLE
100
AcDbMText
 10
4.64315193
 20
35.7472007792
 30
0.0
 40
0.125
 41
0.0
 71
     2
 72
     1
  1
44
  7
SLDTEXTSTYLE1
 73
     1
 44
1.0
  0
MTEXT
  5
14E
330
1F
100
AcDbEntity
  8
TITLE
100
AcDbMText
 10
6.611655867
 20
0.4125551099
 30
0.0
 40
0.125
 41
0.0
 71
     2
 72
     1
  1
43
  7
SLDTEXTSTYLE1
 73
     1
 44
1.0
  0
MTEXT
  5
14F
330
1F
100
AcDbEntity
  8
TITLE
100
AcDbMText
 10
6.611655867
 20
35.7472007792
 30
0.0
 40
0.125
 41
0.0
 71
     2
 72
     1
  1
43
  7
SLDTEXTSTYLE1
 73
     1
 44
1.0
  0
MTEXT
  5
150
330
1F
100
AcDbEntity
  8
TITLE
100
AcDbMText
 10
8.580159804
 20
0.4125551099
 30
0.0
 40
0.125
 41
0.0
 71
     2
 72
     1
  1
42
  7
SLDTEXTSTYLE1
 73
     1
 44
1.0
  0
MTEXT
  5
151
330
1F
100
AcDbEntity
  8
TITLE
100
AcDbMText
 10
8.580159804
 20
35.7472007792
 30
0.0
 40
0.125
 41
0.0
 71
     2
 72
     1
  1
42
  7
SLDTEXTSTYLE1
 73
     1
 44
1.0
  0
MTEXT
  5
152
330
1F
100
AcDbEntity
  8
TITLE
100
AcDbMText
 10
10.548663741
 20
0.4125551099
 30
0.0
 40
0.125
 41
0.0
 71
     2
 72
     1
  1
41
  7
SLDTEXTSTYLE1
 73
     1
 44
1.0
  0
MTEXT
  5
153
330
1F
100
AcDbEntity
  8
TITLE
100
AcDbMText
 10
10.548663741
 20
35.7472007792
 30
0.0
 40
0.125
 41
0.0
 71
     2
 72
     1
  1
41
  7
SLDTEXTSTYLE1
 73
     1
 44
1.0
  0
MTEXT
  5
154
330
1F
100
AcDbEntity
  8
TITLE
100
AcDbMText
 10
12.517167678
 20
0.4125551099
 30
0.0
 40
0.125
 41
0.0
 71
     2
 72
     1
  1
40
  7
SLDTEXTSTYLE1
 73
     1
 44
1.0
  0
MTEXT
  5
155
330
1F
100
AcDbEntity
  8
TITLE
100
AcDbMText
 10
12.517167678
 20
35.7472007792
 30
0.0
 40
0.125
 41
0.0
 71
     2
 72
     1
  1
40
  7
SLDTEXTSTYLE1
 73
     1
 44
1.0
  0
MTEXT
  5
156
330
1F
100
AcDbEntity
  8
TITLE
100
AcDbMText
 10
14.485671615
 20
0.4125551099
 30
0.0
 40
0.125
 41
0.0
 71
     2
 72
     1
  1
39
  7
SLDTEXTSTYLE1
 73
     1
 44
1.0
  0
MTEXT
  5
157
330
1F
100
AcDbEntity
  8
TITLE
100
AcDbMText
 10
14.485671615
 20
35.7472007792
 30
0.0
 40
0.125
 41
0.0
 71
     2
 72
     1
  1
39
  7
SLDTEXTSTYLE1
 73
     1
 44
1.0
  0
MTEXT
  5
158
330
1F
100
AcDbEntity
  8
TITLE
100
AcDbMText
 10
16.454175552
 20
0.4125551099
 30
0.0
 40
0.125
 41
0.0
 71
     2
 72
     1
  1
38
  7
SLDTEXTSTYLE1
 73
     1
 44
1.0
  0
MTEXT
  5
159
330
1F
100
AcDbEntity
  8
TITLE
100
AcDbMText
 10
16.454175552
 20
35.7472007792
 30
0.0
 40
0.125
 41
0.0
 71
     2
 72
     1
  1
38
  7
SLDTEXTSTYLE1
 73
     1
 44
1.0
  0
MTEXT
  5
15A
330
1F
100
AcDbEntity
  8
TITLE
100
AcDbMText
 10
18.422679489
 20
0.4125551099
 30
0.0
 40
0.125
 41
0.0
 71
     2
 72
     1
  1
37
  7
SLDTEXTSTYLE1
 73
     1
 44
1.0
  0
MTEXT
  5
15B
330
1F
100
AcDbEntity
  8
TITLE
100
AcDbMText
 10
18.422679489
 20
35.7472007792
 30
0.0
 40
0.125
 41
0.0
 71
     2
 72
     1
  1
37
  7
SLDTEXTSTYLE1
 73
     1
 44
1.0
  0
MTEXT
  5
15C
330
1F
100
AcDbEntity
  8
TITLE
100
AcDbMText
 10
20.391183426
 20
0.4125551099
 30
0.0
 40
0.125
 41
0.0
 71
     2
 72
     1
  1
36
  7
SLDTEXTSTYLE1
 73
     1
 44
1.0
  0
MTEXT
  5
15D
330
1F
100
AcDbEntity
  8
TITLE
100
AcDbMText
 10
20.391183426
 20
35.7472007792
 30
0.0
 40
0.125
 41
0.0
 71
     2
 72
     1
  1
36
  7
SLDTEXTSTYLE1
 73
     1
 44
1.0
  0
MTEXT
  5
15E
330
1F
100
AcDbEntity
  8
TITLE
100
AcDbMText
 10
22.359687363
 20
0.4125551099
 30
0.0
 40
0.125
 41
0.0
 71
     2
 72
     1
  1
35
  7
SLDTEXTSTYLE1
 73
     1
 44
1.0
  0
MTEXT
  5
15F
330
1F
100
AcDbEntity
  8
TITLE
100
AcDbMText
 10
22.359687363
 20
35.7472007792
 30
0.0
 40
0.125
 41
0.0
 71
     2
 72
     1
  1
35
  7
SLDTEXTSTYLE1
 73
     1
 44
1.0
  0
MTEXT
  5
160
330
1F
100
AcDbEntity
  8
TITLE
100
AcDbMText
 10
24.3281913
 20
0.4125551099
 30
0.0
 40
0.125
 41
0.0
 71
     2
 72
     1
  1
34
  7
SLDTEXTSTYLE1
 73
     1
 44
1.0
  0
MTEXT
  5
161
330
1F
100
AcDbEntity
  8
TITLE
100
AcDbMText
 10
24.3281913
 20
35.7472007792
 30
0.0
 40
0.125
 41
0.0
 71
     2
 72
     1
  1
34
  7
SLDTEXTSTYLE1
 73
     1
 44
1.0
  0
MTEXT
  5
162
330
1F
100
AcDbEntity
  8
TITLE
100
AcDbMText
 10
26.2966952371
 20
0.4125551099
 30
0.0
 40
0.125
 41
0.0
 71
     2
 72
     1
  1
33
  7
SLDTEXTSTYLE1
 73
     1
 44
1.0
  0
MTEXT
  5
163
330
1F
100
AcDbEntity
  8
TITLE
100
AcDbMText
 10
26.2966952371
 20
35.7472007792
 30
0.0
 40
0.125
 41
0.0
 71
     2
 72
     1
  1
33
  7
SLDTEXTSTYLE1
 73
     1
 44
1.0
  0
MTEXT
  5
164
330
1F
100
AcDbEntity
  8
TITLE
100
AcDbMText
 10
28.2651991741
 20
0.4125551099
 30
0.0
 40
0.125
 41
0.0
 71
     2
 72
     1
  1
32
  7
SLDTEXTSTYLE1
 73
     1
 44
1.0
  0
MTEXT
  5
165
330
1F
100
AcDbEntity
  8
TITLE
100
AcDbMText
 10
28.2651991741
 20
35.7472007792
 30
0.0
 40
0.125
 41
0.0
 71
     2
 72
     1
  1
32
  7
SLDTEXTSTYLE1
 73
     1
 44
1.0
  0
MTEXT
  5
166
330
1F
100
AcDbEntity
  8
TITLE
100
AcDbMText
 10
30.2337031111
 20
0.4125551099
 30
0.0
 40
0.125
 41
0.0
 71
     2
 72
     1
  1
31
  7
SLDTEXTSTYLE1
 73
     1
 44
1.0
  0
MTEXT
  5
167
330
1F
100
AcDbEntity
  8
TITLE
100
AcDbMText
 10
30.2337031111
 20
35.7472007792
 30
0.0
 40
0.125
 41
0.0
 71
     2
 72
     1
  1
31
  7
SLDTEXTSTYLE1
 73
     1
 44
1.0
  0
MTEXT
  5
168
330
1F
100
AcDbEntity
  8
TITLE
100
AcDbMText
 10
32.2022070481
 20
0.4125551099
 30
0.0
 40
0.125
 41
0.0
 71
     2
 72
     1
  1
30
  7
SLDTEXTSTYLE1
 73
     1
 44
1.0
  0
MTEXT
  5
169
330
1F
100
AcDbEntity
  8
TITLE
100
AcDbMText
 10
32.2022070481
 20
35.7472007792
 30
0.0
 40
0.125
 41
0.0
 71
     2
 72
     1
  1
30
  7
SLDTEXTSTYLE1
 73
     1
 44
1.0
  0
MTEXT
  5
16A
330
1F
100
AcDbEntity
  8
TITLE
100
AcDbMText
 10
34.1707109851
 20
0.4125551099
 30
0.0
 40
0.125
 41
0.0
 71
     2
 72
     1
  1
29
  7
SLDTEXTSTYLE1
 73
     1
 44
1.0
  0
MTEXT
  5
16B
330
1F
100
AcDbEntity
  8
TITLE
100
AcDbMText
 10
34.1707109851
 20
35.7472007792
 30
0.0
 40
0.125
 41
0.0
 71
     2
 72
     1
  1
29
  7
SLDTEXTSTYLE1
 73
     1
 44
1.0
  0
MTEXT
  5
16C
330
1F
100
AcDbEntity
  8
TITLE
100
AcDbMText
 10
36.1392149221
 20
0.4125551099
 30
0.0
 40
0.125
 41
0.0
 71
     2
 72
     1
  1
28
  7
SLDTEXTSTYLE1
 73
     1
 44
1.0
  0
MTEXT
  5
16D
330
1F
100
AcDbEntity
  8
TITLE
100
AcDbMText
 10
36.1392149221
 20
35.7472007792
 30
0.0
 40
0.125
 41
0.0
 71
     2
 72
     1
  1
28
  7
SLDTEXTSTYLE1
 73
     1
 44
1.0
  0
MTEXT
  5
16E
330
1F
100
AcDbEntity
  8
TITLE
100
AcDbMText
 10
38.1077188591
 20
0.4125551099
 30
0.0
 40
0.125
 41
0.0
 71
     2
 72
     1
  1
27
  7
SLDTEXTSTYLE1
 73
     1
 44
1.0
  0
MTEXT
  5
16F
330
1F
100
AcDbEntity
  8
TITLE
100
AcDbMText
 10
38.1077188591
 20
35.7472007792
 30
0.0
 40
0.125
 41
0.0
 71
     2
 72
     1
  1
27
  7
SLDTEXTSTYLE1
 73
     1
 44
1.0
  0
MTEXT
  5
170
330
1F
100
AcDbEntity
  8
TITLE
100
AcDbMText
 10
40.0762227961
 20
0.4125551099
 30
0.0
 40
0.125
 41
0.0
 71
     2
 72
     1
  1
26
  7
SLDTEXTSTYLE1
 73
     1
 44
1.0
  0
MTEXT
  5
171
330
1F
100
AcDbEntity
  8
TITLE
100
AcDbMText
 10
40.0762227961
 20
35.7472007792
 30
0.0
 40
0.125
 41
0.0
 71
     2
 72
     1
  1
26
  7
SLDTEXTSTYLE1
 73
     1
 44
1.0
  0
MTEXT
  5
172
330
1F
100
AcDbEntity
  8
TITLE
100
AcDbMText
 10
42.0447267331
 20
0.4125551099
 30
0.0
 40
0.125
 41
0.0
 71
     2
 72
     1
  1
25
  7
SLDTEXTSTYLE1
 73
     1
 44
1.0
  0
MTEXT
  5
173
330
1F
100
AcDbEntity
  8
TITLE
100
AcDbMText
 10
42.0447267331
 20
35.7472007792
 30
0.0
 40
0.125
 41
0.0
 71
     2
 72
     1
  1
25
  7
SLDTEXTSTYLE1
 73
     1
 44
1.0
  0
MTEXT
  5
174
330
1F
100
AcDbEntity
  8
TITLE
100
AcDbMText
 10
44.0132306701
 20
0.4125551099
 30
0.0
 40
0.125
 41
0.0
 71
     2
 72
     1
  1
24
  7
SLDTEXTSTYLE1
 73
     1
 44
1.0
  0
MTEXT
  5
175
330
1F
100
AcDbEntity
  8
TITLE
100
AcDbMText
 10
44.0132306701
 20
35.7472007792
 30
0.0
 40
0.125
 41
0.0
 71
     2
 72
     1
  1
24
  7
SLDTEXTSTYLE1
 73
     1
 44
1.0
  0
MTEXT
  5
176
330
1F
100
AcDbEntity
  8
TITLE
100
AcDbMText
 10
45.9817346071
 20
0.4125551099
 30
0.0
 40
0.125
 41
0.0
 71
     2
 72
     1
  1
23
  7
SLDTEXTSTYLE1
 73
     1
 44
1.0
  0
MTEXT
  5
177
330
1F
100
AcDbEntity
  8
TITLE
100
AcDbMText
 10
45.9817346071
 20
35.7472007792
 30
0.0
 40
0.125
 41
0.0
 71
     2
 72
     1
  1
23
  7
SLDTEXTSTYLE1
 73
     1
 44
1.0
  0
MTEXT
  5
178
330
1F
100
AcDbEntity
  8
TITLE
100
AcDbMText
 10
47.9502385441
 20
0.4125551099
 30
0.0
 40
0.125
 41
0.0
 71
     2
 72
     1
  1
22
  7
SLDTEXTSTYLE1
 73
     1
 44
1.0
  0
MTEXT
  5
179
330
1F
100
AcDbEntity
  8
TITLE
100
AcDbMText
 10
47.9502385441
 20
35.7472007792
 30
0.0
 40
0.125
 41
0.0
 71
     2
 72
     1
  1
22
  7
SLDTEXTSTYLE1
 73
     1
 44
1.0
  0
MTEXT
  5
17A
330
1F
100
AcDbEntity
  8
TITLE
100
AcDbMText
 10
49.9187424811
 20
0.4125551099
 30
0.0
 40
0.125
 41
0.0
 71
     2
 72
     1
  1
21
  7
SLDTEXTSTYLE1
 73
     1
 44
1.0
  0
MTEXT
  5
17B
330
1F
100
AcDbEntity
  8
TITLE
100
AcDbMText
 10
49.9187424811
 20
35.7472007792
 30
0.0
 40
0.125
 41
0.0
 71
     2
 72
     1
  1
21
  7
SLDTEXTSTYLE1
 73
     1
 44
1.0
  0
MTEXT
  5
17C
330
1F
100
AcDbEntity
  8
TITLE
100
AcDbMText
 10
51.8872464182
 20
0.4125551099
 30
0.0
 40
0.125
 41
0.0
 71
     2
 72
     1
  1
20
  7
SLDTEXTSTYLE1
 73
     1
 44
1.0
  0
MTEXT
  5
17D
330
1F
100
AcDbEntity
  8
TITLE
100
AcDbMText
 10
51.8872464182
 20
35.7472007792
 30
0.0
 40
0.125
 41
0.0
 71
     2
 72
     1
  1
20
  7
SLDTEXTSTYLE1
 73
     1
 44
1.0
  0
MTEXT
  5
17E
330
1F
100
AcDbEntity
  8
TITLE
100
AcDbMText
 10
53.8557503552
 20
0.4125551099
 30
0.0
 40
0.125
 41
0.0
 71
     2
 72
     1
  1
19
  7
SLDTEXTSTYLE1
 73
     1
 44
1.0
  0
MTEXT
  5
17F
330
1F
100
AcDbEntity
  8
TITLE
100
AcDbMText
 10
53.8557503552
 20
35.7472007792
 30
0.0
 40
0.125
 41
0.0
 71
     2
 72
     1
  1
19
  7
SLDTEXTSTYLE1
 73
     1
 44
1.0
  0
MTEXT
  5
180
330
1F
100
AcDbEntity
  8
TITLE
100
AcDbMText
 10
55.8242542922
 20
0.4125551099
 30
0.0
 40
0.125
 41
0.0
 71
     2
 72
     1
  1
18
  7
SLDTEXTSTYLE1
 73
     1
 44
1.0
  0
MTEXT
  5
181
330
1F
100
AcDbEntity
  8
TITLE
100
AcDbMText
 10
55.8242542922
 20
35.7472007792
 30
0.0
 40
0.125
 41
0.0
 71
     2
 72
     1
  1
18
  7
SLDTEXTSTYLE1
 73
     1
 44
1.0
  0
MTEXT
  5
182
330
1F
100
AcDbEntity
  8
TITLE
100
AcDbMText
 10
57.7927582292
 20
0.4125551099
 30
0.0
 40
0.125
 41
0.0
 71
     2
 72
     1
  1
17
  7
SLDTEXTSTYLE1
 73
     1
 44
1.0
  0
MTEXT
  5
183
330
1F
100
AcDbEntity
  8
TITLE
100
AcDbMText
 10
57.7927582292
 20
35.7472007792
 30
0.0
 40
0.125
 41
0.0
 71
     2
 72
     1
  1
17
  7
SLDTEXTSTYLE1
 73
     1
 44
1.0
  0
MTEXT
  5
184
330
1F
100
AcDbEntity
  8
TITLE
100
AcDbMText
 10
59.7612621662
 20
0.4125551099
 30
0.0
 40
0.125
 41
0.0
 71
     2
 72
     1
  1
16
  7
SLDTEXTSTYLE1
 73
     1
 44
1.0
  0
MTEXT
  5
185
330
1F
100
AcDbEntity
  8
TITLE
100
AcDbMText
 10
59.7612621662
 20
35.7472007792
 30
0.0
 40
0.125
 41
0.0
 71
     2
 72
     1
  1
16
  7
SLDTEXTSTYLE1
 73
     1
 44
1.0
  0
MTEXT
  5
186
330
1F
100
AcDbEntity
  8
TITLE
100
AcDbMText
 10
61.7297661032
 20
0.4125551099
 30
0.0
 40
0.125
 41
0.0
 71
     2
 72
     1
  1
15
  7
SLDTEXTSTYLE1
 73
     1
 44
1.0
  0
MTEXT
  5
187
330
1F
100
AcDbEntity
  8
TITLE
100
AcDbMText
 10
61.7297661032
 20
35.7472007792
 30
0.0
 40
0.125
 41
0.0
 71
     2
 72
     1
  1
15
  7
SLDTEXTSTYLE1
 73
     1
 44
1.0
  0
MTEXT
  5
188
330
1F
100
AcDbEntity
  8
TITLE
100
AcDbMText
 10
63.6982700402
 20
0.4125551099
 30
0.0
 40
0.125
 41
0.0
 71
     2
 72
     1
  1
14
  7
SLDTEXTSTYLE1
 73
     1
 44
1.0
  0
MTEXT
  5
189
330
1F
100
AcDbEntity
  8
TITLE
100
AcDbMText
 10
63.6982700402
 20
35.7472007792
 30
0.0
 40
0.125
 41
0.0
 71
     2
 72
     1
  1
14
  7
SLDTEXTSTYLE1
 73
     1
 44
1.0
  0
MTEXT
  5
18A
330
1F
100
AcDbEntity
  8
TITLE
100
AcDbMText
 10
65.6667739772
 20
0.4125551099
 30
0.0
 40
0.125
 41
0.0
 71
     2
 72
     1
  1
13
  7
SLDTEXTSTYLE1
 73
     1
 44
1.0
  0
MTEXT
  5
18B
330
1F
100
AcDbEntity
  8
TITLE
100
AcDbMText
 10
65.6667739772
 20
35.7472007792
 30
0.0
 40
0.125
 41
0.0
 71
     2
 72
     1
  1
13
  7
SLDTEXTSTYLE1
 73
     1
 44
1.0
  0
MTEXT
  5
18C
330
1F
100
AcDbEntity
  8
TITLE
100
AcDbMText
 10
67.6352779142
 20
0.4125551099
 30
0.0
 40
0.125
 41
0.0
 71
     2
 72
     1
  1
12
  7
SLDTEXTSTYLE1
 73
     1
 44
1.0
  0
MTEXT
  5
18D
330
1F
100
AcDbEntity
  8
TITLE
100
AcDbMText
 10
67.6352779142
 20
35.7472007792
 30
0.0
 40
0.125
 41
0.0
 71
     2
 72
     1
  1
12
  7
SLDTEXTSTYLE1
 73
     1
 44
1.0
  0
MTEXT
  5
18E
330
1F
100
AcDbEntity
  8
TITLE
100
AcDbMText
 10
69.6037818512
 20
0.4125551099
 30
0.0
 40
0.125
 41
0.0
 71
     2
 72
     1
  1
11
  7
SLDTEXTSTYLE1
 73
     1
 44
1.0
  0
MTEXT
  5
18F
330
1F
100
AcDbEntity
  8
TITLE
100
AcDbMText
 10
69.6037818512
 20
35.7472007792
 30
0.0
 40
0.125
 41
0.0
 71
     2
 72
     1
  1
11
  7
SLDTEXTSTYLE1
 73
     1
 44
1.0
  0
MTEXT
  5
190
330
1F
100
AcDbEntity
  8
TITLE
100
AcDbMText
 10
71.5722857882
 20
0.4125551099
 30
0.0
 40
0.125
 41
0.0
 71
     2
 72
     1
  1
10
  7
SLDTEXTSTYLE1
 73
     1
 44
1.0
  0
MTEXT
  5
191
330
1F
100
AcDbEntity
  8
TITLE
100
AcDbMText
 10
71.5722857882
 20
35.7472007792
 30
0.0
 40
0.125
 41
0.0
 71
     2
 72
     1
  1
10
  7
SLDTEXTSTYLE1
 73
     1
 44
1.0
  0
MTEXT
  5
192
330
1F
100
AcDbEntity
  8
TITLE
100
AcDbMText
 10
73.5420484059
 20
0.4125551099
 30
0.0
 40
0.125
 41
0.0
 71
     2
 72
     1
  1
9
  7
SLDTEXTSTYLE1
 73
     1
 44
1.0
  0
MTEXT
  5
193
330
1F
100
AcDbEntity
  8
TITLE
100
AcDbMText
 10
73.5420484059
 20
35.7472007792
 30
0.0
 40
0.125
 41
0.0
 71
     2
 72
     1
  1
9
  7
SLDTEXTSTYLE1
 73
     1
 44
1.0
  0
MTEXT
  5
194
330
1F
100
AcDbEntity
  8
TITLE
100
AcDbMText
 10
75.5105523429
 20
0.4125551099
 30
0.0
 40
0.125
 41
0.0
 71
     2
 72
     1
  1
8
  7
SLDTEXTSTYLE1
 73
     1
 44
1.0
  0
MTEXT
  5
195
330
1F
100
AcDbEntity
  8
TITLE
100
AcDbMText
 10
75.5105523429
 20
35.7472007792
 30
0.0
 40
0.125
 41
0.0
 71
     2
 72
     1
  1
8
  7
SLDTEXTSTYLE1
 73
     1
 44
1.0
  0
MTEXT
  5
196
330
1F
100
AcDbEntity
  8
TITLE
100
AcDbMText
 10
77.4790562799
 20
0.4125551099
 30
0.0
 40
0.125
 41
0.0
 71
     2
 72
     1
  1
7
  7
SLDTEXTSTYLE1
 73
     1
 44
1.0
  0
MTEXT
  5
197
330
1F
100
AcDbEntity
  8
TITLE
100
AcDbMText
 10
77.4790562799
 20
35.7472007792
 30
0.0
 40
0.125
 41
0.0
 71
     2
 72
     1
  1
7
  7
SLDTEXTSTYLE1
 73
     1
 44
1.0
  0
MTEXT
  5
198
330
1F
100
AcDbEntity
  8
TITLE
100
AcDbMText
 10
79.447560217
 20
0.4125551099
 30
0.0
 40
0.125
 41
0.0
 71
     2
 72
     1
  1
6
  7
SLDTEXTSTYLE1
 73
     1
 44
1.0
  0
MTEXT
  5
199
330
1F
100
AcDbEntity
  8
TITLE
100
AcDbMText
 10
79.447560217
 20
35.7472007792
 30
0.0
 40
0.125
 41
0.0
 71
     2
 72
     1
  1
6
  7
SLDTEXTSTYLE1
 73
     1
 44
1.0
  0
MTEXT
  5
19A
330
1F
100
AcDbEntity
  8
TITLE
100
AcDbMText
 10
81.416064154
 20
0.4125551099
 30
0.0
 40
0.125
 41
0.0
 71
     2
 72
     1
  1
5
  7
SLDTEXTSTYLE1
 73
     1
 44
1.0
  0
MTEXT
  5
19B
330
1F
100
AcDbEntity
  8
TITLE
100
AcDbMText
 10
81.416064154
 20
35.7472007792
 30
0.0
 40
0.125
 41
0.0
 71
     2
 72
     1
  1
5
  7
SLDTEXTSTYLE1
 73
     1
 44
1.0
  0
MTEXT
  5
19C
330
1F
100
AcDbEntity
  8
TITLE
100
AcDbMText
 10
83.384568091
 20
0.4125551099
 30
0.0
 40
0.125
 41
0.0
 71
     2
 72
     1
  1
4
  7
SLDTEXTSTYLE1
 73
     1
 44
1.0
  0
MTEXT
  5
19D
330
1F
100
AcDbEntity
  8
TITLE
100
AcDbMText
 10
83.384568091
 20
35.7472007792
 30
0.0
 40
0.125
 41
0.0
 71
     2
 72
     1
  1
4
  7
SLDTEXTSTYLE1
 73
     1
 44
1.0
  0
MTEXT
  5
19E
330
1F
100
AcDbEntity
  8
TITLE
100
AcDbMText
 10
85.353072028
 20
0.4125551099
 30
0.0
 40
0.125
 41
0.0
 71
     2
 72
     1
  1
3
  7
SLDTEXTSTYLE1
 73
     1
 44
1.0
  0
MTEXT
  5
19F
330
1F
100
AcDbEntity
  8
TITLE
100
AcDbMText
 10
85.353072028
 20
35.7472007792
 30
0.0
 40
0.125
 41
0.0
 71
     2
 72
     1
  1
3
  7
SLDTEXTSTYLE1
 73
     1
 44
1.0
  0
MTEXT
  5
1A0
330
1F
100
AcDbEntity
  8
TITLE
100
AcDbMText
 10
87.321575965
 20
0.4125551099
 30
0.0
 40
0.125
 41
0.0
 71
     2
 72
     1
  1
2
  7
SLDTEXTSTYLE1
 73
     1
 44
1.0
  0
MTEXT
  5
1A1
330
1F
100
AcDbEntity
  8
TITLE
100
AcDbMText
 10
87.321575965
 20
35.7472007792
 30
0.0
 40
0.125
 41
0.0
 71
     2
 72
     1
  1
2
  7
SLDTEXTSTYLE1
 73
     1
 44
1.0
  0
MTEXT
  5
1A2
330
1F
100
AcDbEntity
  8
TITLE
100
AcDbMText
 10
88.9022846264
 20
0.4125551099
 30
0.0
 40
0.125
 41
0.0
 71
     2
 72
     1
  1
1
  7
SLDTEXTSTYLE1
 73
     1
 44
1.0
  0
MTEXT
  5
1A3
330
1F
100
AcDbEntity
  8
TITLE
100
AcDbMText
 10
88.9022846264
 20
35.7472007792
 30
0.0
 40
0.125
 41
0.0
 71
     2
 72
     1
  1
1
  7
SLDTEXTSTYLE1
 73
     1
 44
1.0
  0
ARC
  5
1A4
330
1F
100
AcDbEntity
  8
0
  6
SLD-Solid
 62
     7
370
    25
100
AcDbCircle
 10
26.001947824
 20
33.2421637036
 30
0.0
 40
0.0200000000000138
100
AcDbArc
 50
270.0
 51
0.0
  0
LINE
  5
1A5
330
1F
100
AcDbEntity
  8
0
  6
SLD-Solid
 62
     7
370
    25
100
AcDbLine
 10
26.001947824
 20
33.2221637036
 30
0.0
 11
26.001947824
 21
33.2321637036
 31
0.0
  0
ARC
  5
1A6
330
1F
100
AcDbEntity
  8
0
  6
SLD-Solid
 62
     7
370
    25
100
AcDbCircle
 10
26.001947824
 20
33.2421637036
 30
0.0
 40
0.0100000000000051
100
AcDbArc
 50
270.0000000001
 51
0.0
  0
LINE
  5
1A7
330
1F
100
AcDbEntity
  8
0
  6
SLD-Solid
 62
     7
370
    25
100
AcDbLine
 10
26.021947824
 20
33.2421637036
 30
0.0
 11
26.011947824
 21
33.2421637036
 31
0.0
  0
LINE
  5
1A8
330
1F
100
AcDbEntity
  8
0
  6
SLD-Solid
 62
     7
370
    25
100
AcDbLine
 10
26.001947824
 20
33.2221637036
 30
0.0
 11
25.931947824
 21
33.2221637036
 31
0.0
  0
LINE
  5
1A9
330
1F
100
AcDbEntity
  8
0
  6
SLD-Solid
 62
     7
370
    25
100
AcDbLine
 10
25.931947824
 20
33.2221637036
 30
0.0
 11
25.931947824
 21
33.2321637036
 31
0.0
  0
LINE
  5
1AA
330
1F
100
AcDbEntity
  8
0
  6
SLD-Solid
 62
     7
370
    25
100
AcDbLine
 10
25.931947824
 20
33.2321637036
 30
0.0
 11
26.001947824
 21
33.2321637036
 31
0.0
  0
LINE
  5
1AB
330
1F
100
AcDbEntity
  8
0
  6
SLD-Solid
 62
     7
370
    25
100
AcDbLine
 10
26.011947824
 20
33.2421637036
 30
0.0
 11
26.011947824
 21
33.3121637036
 31
0.0
  0
LINE
  5
1AC
330
1F
100
AcDbEntity
  8
0
  6
SLD-Solid
 62
     7
370
    25
100
AcDbLine
 10
26.011947824
 20
33.3121637036
 30
0.0
 11
26.021947824
 21
33.3121637036
 31
0.0
  0
LINE
  5
1AD
330
1F
100
AcDbEntity
  8
0
  6
SLD-Solid
 62
     7
370
    25
100
AcDbLine
 10
26.021947824
 20
33.3121637036
 30
0.0
 11
26.021947824
 21
33.2421637036
 31
0.0
  0
ARC
  5
1AE
330
1F
100
AcDbEntity
  8
0
  6
SLD-Solid
 62
     7
370
    25
100
AcDbCircle
 10
26.001947824
 20
33.3121637036
 30
0.0
 40
0.0200000000000067
100
AcDbArc
 50
360.0
 51
90.0
  0
LINE
  5
1AF
330
1F
100
AcDbEntity
  8
0
  6
SLD-Solid
 62
     7
370
    25
100
AcDbLine
 10
25.931947824
 20
33.3321637036
 30
0.0
 11
26.001947824
 21
33.3321637036
 31
0.0
  0
ARC
  5
1B0
330
1F
100
AcDbEntity
  8
0
  6
SLD-Solid
 62
     7
370
    25
100
AcDbCircle
 10
25.931947824
 20
33.3121637036
 30
0.0
 40
0.0200000000000031
100
AcDbArc
 50
90.0
 51
180.0
  0
LINE
  5
1B1
330
1F
100
AcDbEntity
  8
0
  6
SLD-Solid
 62
     7
370
    25
100
AcDbLine
 10
25.911947824
 20
33.2421637036
 30
0.0
 11
25.911947824
 21
33.3121637036
 31
0.0
  0
ARC
  5
1B2
330
1F
100
AcDbEntity
  8
0
  6
SLD-Solid
 62
     7
370
    25
100
AcDbCircle
 10
25.931947824
 20
33.2421637036
 30
0.0
 40
0.019999999999996
100
AcDbArc
 50
180.0
 51
270.0
  0
CIRCLE
  5
1B3
330
1F
100
AcDbEntity
  8
0
  6
SLD-Solid
 62
     7
370
    25
100
AcDbCircle
 10
25.966947824
 20
33.2771637036
 30
0.0
 40
0.082499999999996
  0
ARC
  5
1B4
330
1F
100
AcDbEntity
  8
0
  6
SLD-Solid
 62
     7
370
    25
100
AcDbCircle
 10
26.001947824
 20
33.3121637036
 30
0.0
 40
0.0100000000000051
100
AcDbArc
 50
0.0
 51
90.0
  0
LINE
  5
1B5
330
1F
100
AcDbEntity
  8
0
  6
SLD-Solid
 62
     7
370
    25
100
AcDbLine
 10
26.001947824
 20
33.3221637036
 30
0.0
 11
26.001947824
 21
33.3321637036
 31
0.0
  0
LINE
  5
1B6
330
1F
100
AcDbEntity
  8
0
  6
SLD-Solid
 62
     7
370
    25
100
AcDbLine
 10
25.911947824
 20
33.2421637036
 30
0.0
 11
25.921947824
 21
33.2421637036
 31
0.0
  0
ARC
  5
1B7
330
1F
100
AcDbEntity
  8
0
  6
SLD-Solid
 62
     7
370
    25
100
AcDbCircle
 10
25.931947824
 20
33.2421637036
 30
0.0
 40
0.009999999999998
100
AcDbArc
 50
180.0
 51
270.0
  0
LINE
  5
1B8
330
1F
100
AcDbEntity
  8
0
  6
SLD-Solid
 62
     7
370
    25
100
AcDbLine
 10
25.921947824
 20
33.3121637036
 30
0.0
 11
25.921947824
 21
33.2421637036
 31
0.0
  0
LINE
  5
1B9
330
1F
100
AcDbEntity
  8
0
  6
SLD-Solid
 62
     7
370
    25
100
AcDbLine
 10
25.921947824
 20
33.3121637036
 30
0.0
 11
25.911947824
 21
33.3121637036
 31
0.0
  0
LINE
  5
1BA
330
1F
100
AcDbEntity
  8
0
  6
SLD-Solid
 62
     7
370
    25
100
AcDbLine
 10
26.001947824
 20
33.3221637036
 30
0.0
 11
25.931947824
 21
33.3221637036
 31
0.0
  0
LINE
  5
1BB
330
1F
100
AcDbEntity
  8
0
  6
SLD-Solid
 62
     7
370
    25
100
AcDbLine
 10
25.931947824
 20
33.3221637036
 30
0.0
 11
25.931947824
 21
33.3321637036
 31
0.0
  0
ARC
  5
1BC
330
1F
100
AcDbEntity
  8
0
  6
SLD-Solid
 62
     7
370
    25
100
AcDbCircle
 10
25.931947824
 20
33.3121637036
 30
0.0
 40
0.0100000000000016
100
AcDbArc
 50
90.0
 51
180.0
  0
CIRCLE
  5
1BD
330
1F
100
AcDbEntity
  8
0
  6
SLD-Solid
 62
     7
370
    25
100
AcDbCircle
 10
25.966947824
 20
33.2771637036
 30
0.0
 40
0.1324999999999967
  0
LINE
  5
1BE
330
1F
100
AcDbEntity
  8
0
  6
SLD-Solid
 62
     7
370
    25
100
AcDbLine
 10
25.931947824
 20
33.3121637036
 30
0.0
 11
25.931947824
 21
33.3221637036
 31
0.0
  0
LINE
  5
1BF
330
1F
100
AcDbEntity
  8
0
  6
SLD-Solid
 62
     7
370
    25
100
AcDbLine
 10
25.921947824
 20
33.3121637036
 30
0.0
 11
25.931947824
 21
33.3121637036
 31
0.0
  0
LINE
  5
1C0
330
1F
100
AcDbEntity
  8
0
  6
SLD-Solid
 62
     7
370
    25
100
AcDbLine
 10
26.011947824
 20
33.2421637036
 30
0.0
 11
26.001947824
 21
33.2421637036
 31
0.0
  0
LINE
  5
1C1
330
1F
100
AcDbEntity
  8
0
  6
SLD-Solid
 62
     7
370
    25
100
AcDbLine
 10
26.001947824
 20
33.2421637036
 30
0.0
 11
26.001947824
 21
33.3121637036
 31
0.0
  0
LINE
  5
1C2
330
1F
100
AcDbEntity
  8
0
  6
SLD-Solid
 62
     7
370
    25
100
AcDbLine
 10
26.001947824
 20
33.3121637036
 30
0.0
 11
26.011947824
 21
33.3121637036
 31
0.0
  0
LINE
  5
1C3
330
1F
100
AcDbEntity
  8
0
  6
SLD-Solid
 62
     7
370
    25
100
AcDbLine
 10
26.001947824
 20
33.2321637036
 30
0.0
 11
26.001947824
 21
33.2421637036
 31
0.0
  0
LINE
  5
1C4
330
1F
100
AcDbEntity
  8
0
  6
SLD-Solid
 62
     7
370
    25
100
AcDbLine
 10
25.931947824
 20
33.2421637036
 30
0.0
 11
25.921947824
 21
33.2421637036
 31
0.0
  0
LINE
  5
1C5
330
1F
100
AcDbEntity
  8
0
  6
SLD-Solid
 62
     7
370
    25
100
AcDbLine
 10
25.931947824
 20
33.2321637036
 30
0.0
 11
25.931947824
 21
33.2421637036
 31
0.0
  0
LINE
  5
1C6
330
1F
100
AcDbEntity
  8
0
  6
SLD-Solid
 62
     7
370
    25
100
AcDbLine
 10
26.001947824
 20
33.3121637036
 30
0.0
 11
26.001947824
 21
33.3221637036
 31
0.0
  0
LINE
  5
1C7
330
1F
100
AcDbEntity
  8
0
  6
SLD-Solid
 62
     7
370
    25
100
AcDbLine
 10
25.931947824
 20
33.2421637036
 30
0.0
 11
26.001947824
 21
33.2421637036
 31
0.0
  0
LINE
  5
1C8
330
1F
100
AcDbEntity
  8
0
  6
SLD-Solid
 62
     7
370
    25
100
AcDbLine
 10
26.001947824
 20
33.3121637036
 30
0.0
 11
25.931947824
 21
33.3121637036
 31
0.0
  0
LINE
  5
1C9
330
1F
100
AcDbEntity
  8
0
  6
SLD-Solid
 62
     7
370
    25
100
AcDbLine
 10
25.931947824
 20
33.3121637036
 30
0.0
 11
25.931947824
 21
33.2421637036
 31
0.0
  0
LINE
  5
1CA
330
1F
100
AcDbEntity
  8
0
  6
SLD-Solid
 62
     7
370
    25
100
AcDbLine
 10
10.0395812893
 20
21.0343162697
 30
0.0
 11
9.9724425575
 21
21.014507416
 31
0.0
  0
ARC
  5
1CB
330
1F
100
AcDbEntity
  8
0
  6
SLD-Solid
 62
     7
370
    25
100
AcDbCircle
 10
10.0339216168
 20
21.0534987645
 30
0.0
 40
0.0200000000000095
100
AcDbArc
 50
286.438357786
 51
16.438357786
  0
LINE
  5
1CC
330
1F
100
AcDbEntity
  8
0
  6
SLD-Solid
 62
     7
370
    25
100
AcDbLine
 10
10.0332952578
 20
21.1262971689
 30
0.0
 11
10.0531041116
 21
21.059158437
 31
0.0
  0
ARC
  5
1CD
330
1F
100
AcDbEntity
  8
0
  6
SLD-Solid
 62
     7
370
    25
100
AcDbCircle
 10
10.014112763
 20
21.1206374964
 30
0.0
 40
0.0200000000000045
100
AcDbArc
 50
16.438357786
 51
106.438357786
  0
LINE
  5
1CE
330
1F
100
AcDbEntity
  8
0
  6
SLD-Solid
 62
     7
370
    25
100
AcDbLine
 10
9.9413143587
 20
21.1200111374
 30
0.0
 11
10.0084530905
 21
21.1398199912
 31
0.0
  0
ARC
  5
1CF
330
1F
100
AcDbEntity
  8
0
  6
SLD-Solid
 62
     7
370
    25
100
AcDbCircle
 10
9.9469740312
 20
21.1008286426
 30
0.0
 40
0.0199999999999976
100
AcDbArc
 50
106.438357786
 51
196.438357786
  0
LINE
  5
1D0
330
1F
100
AcDbEntity
  8
0
  6
SLD-Solid
 62
     7
370
    25
100
AcDbLine
 10
9.9476003901
 20
21.0280302383
 30
0.0
 11
9.9277915364
 21
21.0951689701
 31
0.0
  0
ARC
  5
1D1
330
1F
100
AcDbEntity
  8
0
  6
SLD-Solid
 62
     7
370
    25
100
AcDbCircle
 10
9.9667828849
 20
21.0336899108
 30
0.0
 40
0.0200000000000007
100
AcDbArc
 50
196.438357786
 51
286.438357786
  0
CIRCLE
  5
1D2
330
1F
100
AcDbEntity
  8
0
  6
SLD-Solid
 62
     7
370
    25
100
AcDbCircle
 10
9.990447824
 20
21.0771637036
 30
0.0
 40
0.0825000000000009
  0
LINE
  5
1D3
330
1F
100
AcDbEntity
  8
0
  6
SLD-Solid
 62
     7
370
    25
100
AcDbLine
 10
10.0435128642
 20
21.0563286008
 30
0.0
 11
10.0237040104
 21
21.1234673326
 31
0.0
  0
LINE
  5
1D4
330
1F
100
AcDbEntity
  8
0
  6
SLD-Solid
 62
     7
370
    25
100
AcDbLine
 10
10.0237040104
 20
21.1234673326
 30
0.0
 11
10.0332952578
 21
21.1262971689
 31
0.0
  0
LINE
  5
1D5
330
1F
100
AcDbEntity
  8
0
  6
SLD-Solid
 62
     7
370
    25
100
AcDbLine
 10
10.0531041116
 20
21.059158437
 30
0.0
 11
10.0435128642
 21
21.0563286008
 31
0.0
  0
ARC
  5
1D6
330
1F
100
AcDbEntity
  8
0
  6
SLD-Solid
 62
     7
370
    25
100
AcDbCircle
 10
10.014112763
 20
21.1206374964
 30
0.0
 40
0.0100000000000035
100
AcDbArc
 50
16.4383577859
 51
106.438357786
  0
LINE
  5
1D7
330
1F
100
AcDbEntity
  8
0
  6
SLD-Solid
 62
     7
370
    25
100
AcDbLine
 10
10.0112829268
 20
21.1302287438
 30
0.0
 11
10.0084530905
 21
21.1398199912
 31
0.0
  0
CIRCLE
  5
1D8
330
1F
100
AcDbEntity
  8
0
  6
SLD-Solid
 62
     7
370
    25
100
AcDbCircle
 10
9.990447824
 20
21.0771637036
 30
0.0
 40
0.132499999999999
  0
LINE
  5
1D9
330
1F
100
AcDbEntity
  8
0
  6
SLD-Solid
 62
     7
370
    25
100
AcDbLine
 10
10.0395812893
 20
21.0343162697
 30
0.0
 11
10.036751453
 21
21.0439075171
 31
0.0
  0
ARC
  5
1DA
330
1F
100
AcDbEntity
  8
0
  6
SLD-Solid
 62
     7
370
    25
100
AcDbCircle
 10
10.0339216168
 20
21.0534987645
 30
0.0
 40
0.0100000000000046
100
AcDbArc
 50
286.438357786
 51
16.438357786
  0
LINE
  5
1DB
330
1F
100
AcDbEntity
  8
0
  6
SLD-Solid
 62
     7
370
    25
100
AcDbLine
 10
9.9724425575
 20
21.014507416
 30
0.0
 11
9.9696127212
 21
21.0240986634
 31
0.0
  0
LINE
  5
1DC
330
1F
100
AcDbEntity
  8
0
  6
SLD-Solid
 62
     7
370
    25
100
AcDbLine
 10
9.9696127212
 20
21.0240986634
 30
0.0
 11
10.036751453
 21
21.0439075171
 31
0.0
  0
ARC
  5
1DD
330
1F
100
AcDbEntity
  8
0
  6
SLD-Solid
 62
     7
370
    25
100
AcDbCircle
 10
9.9469740312
 20
21.1008286426
 30
0.0
 40
0.0100000000000021
100
AcDbArc
 50
106.438357786
 51
196.438357786
  0
LINE
  5
1DE
330
1F
100
AcDbEntity
  8
0
  6
SLD-Solid
 62
     7
370
    25
100
AcDbLine
 10
9.9373827838
 20
21.0979988064
 30
0.0
 11
9.9277915364
 21
21.0951689701
 31
0.0
  0
LINE
  5
1DF
330
1F
100
AcDbEntity
  8
0
  6
SLD-Solid
 62
     7
370
    25
100
AcDbLine
 10
9.9441441949
 20
21.11041989
 30
0.0
 11
9.9413143587
 21
21.1200111374
 31
0.0
  0
LINE
  5
1E0
330
1F
100
AcDbEntity
  8
0
  6
SLD-Solid
 62
     7
370
    25
100
AcDbLine
 10
10.0112829268
 20
21.1302287438
 30
0.0
 11
9.9441441949
 21
21.11041989
 31
0.0
  0
LINE
  5
1E1
330
1F
100
AcDbEntity
  8
0
  6
SLD-Solid
 62
     7
370
    25
100
AcDbLine
 10
9.9373827838
 20
21.0979988064
 30
0.0
 11
9.9571916375
 21
21.0308600745
 31
0.0
  0
LINE
  5
1E2
330
1F
100
AcDbEntity
  8
0
  6
SLD-Solid
 62
     7
370
    25
100
AcDbLine
 10
9.9476003901
 20
21.0280302383
 30
0.0
 11
9.9571916375
 21
21.0308600745
 31
0.0
  0
ARC
  5
1E3
330
1F
100
AcDbEntity
  8
0
  6
SLD-Solid
 62
     7
370
    25
100
AcDbCircle
 10
9.9667828849
 20
21.0336899108
 30
0.0
 40
0.0100000000000004
100
AcDbArc
 50
196.438357786
 51
286.438357786
  0
LINE
  5
1E4
330
1F
100
AcDbEntity
  8
0
  6
SLD-Solid
 62
     7
370
    25
100
AcDbLine
 10
10.014112763
 20
21.1206374964
 30
0.0
 11
10.0237040104
 21
21.1234673326
 31
0.0
  0
LINE
  5
1E5
330
1F
100
AcDbEntity
  8
0
  6
SLD-Solid
 62
     7
370
    25
100
AcDbLine
 10
10.014112763
 20
21.1206374964
 30
0.0
 11
10.0112829268
 21
21.1302287438
 31
0.0
  0
LINE
  5
1E6
330
1F
100
AcDbEntity
  8
0
  6
SLD-Solid
 62
     7
370
    25
100
AcDbLine
 10
10.014112763
 20
21.1206374964
 30
0.0
 11
9.9469740312
 21
21.1008286426
 31
0.0
  0
LINE
  5
1E7
330
1F
100
AcDbEntity
  8
0
  6
SLD-Solid
 62
     7
370
    25
100
AcDbLine
 10
9.9469740312
 20
21.1008286426
 30
0.0
 11
9.9441441949
 21
21.11041989
 31
0.0
  0
LINE
  5
1E8
330
1F
100
AcDbEntity
  8
0
  6
SLD-Solid
 62
     7
370
    25
100
AcDbLine
 10
9.9373827838
 20
21.0979988064
 30
0.0
 11
9.9469740312
 21
21.1008286426
 31
0.0
  0
LINE
  5
1E9
330
1F
100
AcDbEntity
  8
0
  6
SLD-Solid
 62
     7
370
    25
100
AcDbLine
 10
10.0435128642
 20
21.0563286008
 30
0.0
 11
10.0339216168
 21
21.0534987645
 31
0.0
  0
LINE
  5
1EA
330
1F
100
AcDbEntity
  8
0
  6
SLD-Solid
 62
     7
370
    25
100
AcDbLine
 10
10.0339216168
 20
21.0534987645
 30
0.0
 11
10.014112763
 21
21.1206374964
 31
0.0
  0
LINE
  5
1EB
330
1F
100
AcDbEntity
  8
0
  6
SLD-Solid
 62
     7
370
    25
100
AcDbLine
 10
9.9469740312
 20
21.1008286426
 30
0.0
 11
9.9667828849
 21
21.0336899108
 31
0.0
  0
LINE
  5
1EC
330
1F
100
AcDbEntity
  8
0
  6
SLD-Solid
 62
     7
370
    25
100
AcDbLine
 10
9.9667828849
 20
21.0336899108
 30
0.0
 11
9.9571916375
 21
21.0308600745
 31
0.0
  0
LINE
  5
1ED
330
1F
100
AcDbEntity
  8
0
  6
SLD-Solid
 62
     7
370
    25
100
AcDbLine
 10
10.036751453
 20
21.0439075171
 30
0.0
 11
10.0339216168
 21
21.0534987645
 31
0.0
  0
LINE
  5
1EE
330
1F
100
AcDbEntity
  8
0
  6
SLD-Solid
 62
     7
370
    25
100
AcDbLine
 10
9.9696127212
 20
21.0240986634
 30
0.0
 11
9.9667828849
 21
21.0336899108
 31
0.0
  0
LINE
  5
1EF
330
1F
100
AcDbEntity
  8
0
  6
SLD-Solid
 62
     7
370
    25
100
AcDbLine
 10
9.9667828849
 20
21.0336899108
 30
0.0
 11
10.0339216168
 21
21.0534987645
 31
0.0
  0
LINE
  5
1F0
330
1F
100
AcDbEntity
  8
0
  6
SLD-Solid
 62
     7
370
    25
100
AcDbLine
 10
12.4572254932
 20
33.228408772
 30
0.0
 11
12.3881109577
 21
33.2173100793
 31
0.0
  0
ARC
  5
1F1
330
1F
100
AcDbEntity
  8
0
  6
SLD-Solid
 62
     7
370
    25
100
AcDbCircle
 10
12.4540544381
 20
33.2481557822
 30
0.0
 40
0.020000000000011
100
AcDbArc
 50
279.1229028265
 51
9.1229028265
  0
LINE
  5
1F2
330
1F
100
AcDbEntity
  8
0
  6
SLD-Solid
 62
     7
370
    25
100
AcDbLine
 10
12.4627027555
 20
33.3204413728
 30
0.0
 11
12.4738014483
 21
33.2513268372
 31
0.0
  0
ARC
  5
1F3
330
1F
100
AcDbEntity
  8
0
  6
SLD-Solid
 62
     7
370
    25
100
AcDbCircle
 10
12.4429557454
 20
33.3172703177
 30
0.0
 40
0.0200000000000052
100
AcDbArc
 50
9.1229028265
 51
99.1229028265
  0
LINE
  5
1F4
330
1F
100
AcDbEntity
  8
0
  6
SLD-Solid
 62
     7
370
    25
100
AcDbLine
 10
12.3706701548
 20
33.3259186351
 30
0.0
 11
12.4397846903
 21
33.3370173278
 31
0.0
  0
ARC
  5
1F5
330
1F
100
AcDbEntity
  8
0
  6
SLD-Solid
 62
     7
370
    25
100
AcDbCircle
 10
12.3738412099
 20
33.306171625
 30
0.0
 40
0.0199999999999982
100
AcDbArc
 50
99.1229028265
 51
189.1229028265
  0
LINE
  5
1F6
330
1F
100
AcDbEntity
  8
0
  6
SLD-Solid
 62
     7
370
    25
100
AcDbLine
 10
12.3651928924
 20
33.2338860344
 30
0.0
 11
12.3540941997
 21
33.3030005699
 31
0.0
  0
ARC
  5
1F7
330
1F
100
AcDbEntity
  8
0
  6
SLD-Solid
 62
     7
370
    25
100
AcDbCircle
 10
12.3849399026
 20
33.2370570895
 30
0.0
 40
0.0199999999999984
100
AcDbArc
 50
189.1229028265
 51
279.1229028265
  0
CIRCLE
  5
1F8
330
1F
100
AcDbEntity
  8
0
  6
SLD-Solid
 62
     7
370
    25
100
AcDbCircle
 10
12.413947824
 20
33.2771637036
 30
0.0
 40
0.0824999999999982
  0
ARC
  5
1F9
330
1F
100
AcDbEntity
  8
0
  6
SLD-Solid
 62
     7
370
    25
100
AcDbCircle
 10
12.4429557454
 20
33.3172703177
 30
0.0
 40
0.0100000000000052
100
AcDbArc
 50
9.1229028265
 51
99.1229028265
  0
LINE
  5
1FA
330
1F
100
AcDbEntity
  8
0
  6
SLD-Solid
 62
     7
370
    25
100
AcDbLine
 10
12.4413702178
 20
33.3271438228
 30
0.0
 11
12.4397846903
 21
33.3370173278
 31
0.0
  0
LINE
  5
1FB
330
1F
100
AcDbEntity
  8
0
  6
SLD-Solid
 62
     7
370
    25
100
AcDbLine
 10
12.4528292505
 20
33.3188558452
 30
0.0
 11
12.4627027555
 21
33.3204413728
 31
0.0
  0
LINE
  5
1FC
330
1F
100
AcDbEntity
  8
0
  6
SLD-Solid
 62
     7
370
    25
100
AcDbLine
 10
12.4639279432
 20
33.2497413097
 30
0.0
 11
12.4528292505
 21
33.3188558452
 31
0.0
  0
LINE
  5
1FD
330
1F
100
AcDbEntity
  8
0
  6
SLD-Solid
 62
     7
370
    25
100
AcDbLine
 10
12.4738014483
 20
33.2513268372
 30
0.0
 11
12.4639279432
 21
33.2497413097
 31
0.0
  0
LINE
  5
1FE
330
1F
100
AcDbEntity
  8
0
  6
SLD-Solid
 62
     7
370
    25
100
AcDbLine
 10
12.3881109577
 20
33.2173100793
 30
0.0
 11
12.3865254301
 21
33.2271835844
 31
0.0
  0
LINE
  5
1FF
330
1F
100
AcDbEntity
  8
0
  6
SLD-Solid
 62
     7
370
    25
100
AcDbLine
 10
12.3865254301
 20
33.2271835844
 30
0.0
 11
12.4556399656
 21
33.2382822771
 31
0.0
  0
LINE
  5
200
330
1F
100
AcDbEntity
  8
0
  6
SLD-Solid
 62
     7
370
    25
100
AcDbLine
 10
12.4572254932
 20
33.228408772
 30
0.0
 11
12.4556399656
 21
33.2382822771
 31
0.0
  0
ARC
  5
201
330
1F
100
AcDbEntity
  8
0
  6
SLD-Solid
 62
     7
370
    25
100
AcDbCircle
 10
12.4540544381
 20
33.2481557822
 30
0.0
 40
0.0100000000000034
100
AcDbArc
 50
279.1229028266
 51
9.1229028265
  0
CIRCLE
  5
202
330
1F
100
AcDbEntity
  8
0
  6
SLD-Solid
 62
     7
370
    25
100
AcDbCircle
 10
12.413947824
 20
33.2771637036
 30
0.0
 40
0.1324999999999997
  0
LINE
  5
203
330
1F
100
AcDbEntity
  8
0
  6
SLD-Solid
 62
     7
370
    25
100
AcDbLine
 10
12.3639677048
 20
33.3045860974
 30
0.0
 11
12.3750663975
 21
33.2354715619
 31
0.0
  0
LINE
  5
204
330
1F
100
AcDbEntity
  8
0
  6
SLD-Solid
 62
     7
370
    25
100
AcDbLine
 10
12.3651928924
 20
33.2338860344
 30
0.0
 11
12.3750663975
 21
33.2354715619
 31
0.0
  0
LINE
  5
205
330
1F
100
AcDbEntity
  8
0
  6
SLD-Solid
 62
     7
370
    25
100
AcDbLine
 10
12.3639677048
 20
33.3045860974
 30
0.0
 11
12.3540941997
 21
33.3030005699
 31
0.0
  0
LINE
  5
206
330
1F
100
AcDbEntity
  8
0
  6
SLD-Solid
 62
     7
370
    25
100
AcDbLine
 10
12.4413702178
 20
33.3271438228
 30
0.0
 11
12.3722556823
 21
33.31604513
 31
0.0
  0
LINE
  5
207
330
1F
100
AcDbEntity
  8
0
  6
SLD-Solid
 62
     7
370
    25
100
AcDbLine
 10
12.3722556823
 20
33.31604513
 30
0.0
 11
12.3706701548
 21
33.3259186351
 31
0.0
  0
ARC
  5
208
330
1F
100
AcDbEntity
  8
0
  6
SLD-Solid
 62
     7
370
    25
100
AcDbCircle
 10
12.3738412099
 20
33.306171625
 30
0.0
 40
0.0100000000000006
100
AcDbArc
 50
99.1229028265
 51
189.1229028265
  0
ARC
  5
209
330
1F
100
AcDbEntity
  8
0
  6
SLD-Solid
 62
     7
370
    25
100
AcDbCircle
 10
12.3849399026
 20
33.2370570895
 30
0.0
 40
0.0099999999999988
100
AcDbArc
 50
189.1229028265
 51
279.1229028265
  0
LINE
  5
20A
330
1F
100
AcDbEntity
  8
0
  6
SLD-Solid
 62
     7
370
    25
100
AcDbLine
 10
12.3738412099
 20
33.306171625
 30
0.0
 11
12.3722556823
 21
33.31604513
 31
0.0
  0
LINE
  5
20B
330
1F
100
AcDbEntity
  8
0
  6
SLD-Solid
 62
     7
370
    25
100
AcDbLine
 10
12.3639677048
 20
33.3045860974
 30
0.0
 11
12.3738412099
 21
33.306171625
 31
0.0
  0
LINE
  5
20C
330
1F
100
AcDbEntity
  8
0
  6
SLD-Solid
 62
     7
370
    25
100
AcDbLine
 10
12.3738412099
 20
33.306171625
 30
0.0
 11
12.3849399026
 21
33.2370570895
 31
0.0
  0
LINE
  5
20D
330
1F
100
AcDbEntity
  8
0
  6
SLD-Solid
 62
     7
370
    25
100
AcDbLine
 10
12.3849399026
 20
33.2370570895
 30
0.0
 11
12.3750663975
 21
33.2354715619
 31
0.0
  0
LINE
  5
20E
330
1F
100
AcDbEntity
  8
0
  6
SLD-Solid
 62
     7
370
    25
100
AcDbLine
 10
12.4429557454
 20
33.3172703177
 30
0.0
 11
12.3738412099
 21
33.306171625
 31
0.0
  0
LINE
  5
20F
330
1F
100
AcDbEntity
  8
0
  6
SLD-Solid
 62
     7
370
    25
100
AcDbLine
 10
12.4429557454
 20
33.3172703177
 30
0.0
 11
12.4413702178
 21
33.3271438228
 31
0.0
  0
LINE
  5
210
330
1F
100
AcDbEntity
  8
0
  6
SLD-Solid
 62
     7
370
    25
100
AcDbLine
 10
12.4429557454
 20
33.3172703177
 30
0.0
 11
12.4528292505
 21
33.3188558452
 31
0.0
  0
LINE
  5
211
330
1F
100
AcDbEntity
  8
0
  6
SLD-Solid
 62
     7
370
    25
100
AcDbLine
 10
12.4639279432
 20
33.2497413097
 30
0.0
 11
12.4540544381
 21
33.2481557822
 31
0.0
  0
LINE
  5
212
330
1F
100
AcDbEntity
  8
0
  6
SLD-Solid
 62
     7
370
    25
100
AcDbLine
 10
12.4540544381
 20
33.2481557822
 30
0.0
 11
12.4429557454
 21
33.3172703177
 31
0.0
  0
LINE
  5
213
330
1F
100
AcDbEntity
  8
0
  6
SLD-Solid
 62
     7
370
    25
100
AcDbLine
 10
12.3865254301
 20
33.2271835844
 30
0.0
 11
12.3849399026
 21
33.2370570895
 31
0.0
  0
LINE
  5
214
330
1F
100
AcDbEntity
  8
0
  6
SLD-Solid
 62
     7
370
    25
100
AcDbLine
 10
12.3849399026
 20
33.2370570895
 30
0.0
 11
12.4540544381
 21
33.2481557822
 31
0.0
  0
LINE
  5
215
330
1F
100
AcDbEntity
  8
0
  6
SLD-Solid
 62
     7
370
    25
100
AcDbLine
 10
12.4556399656
 20
33.2382822771
 30
0.0
 11
12.4540544381
 21
33.2481557822
 31
0.0
  0
ARC
  5
216
330
1F
100
AcDbEntity
  8
0
  6
SLD-Solid
 62
     7
370
    25
100
AcDbCircle
 10
12.4334574429
 20
8.9226540846
 30
0.0
 40
0.0100000000000043
100
AcDbArc
 50
21.7867892982
 51
111.7867892983
  0
LINE
  5
217
330
1F
100
AcDbEntity
  8
0
  6
SLD-Solid
 62
     7
370
    25
100
AcDbLine
 10
12.4297459055
 20
8.9319397989
 30
0.0
 11
12.426034368
 21
8.9412255132
 31
0.0
  0
ARC
  5
218
330
1F
100
AcDbEntity
  8
0
  6
SLD-Solid
 62
     7
370
    25
100
AcDbCircle
 10
12.4334574429
 20
8.9226540846
 30
0.0
 40
0.0200000000000044
100
AcDbArc
 50
21.7867892982
 51
111.7867892983
  0
LINE
  5
219
330
1F
100
AcDbEntity
  8
0
  6
SLD-Solid
 62
     7
370
    25
100
AcDbLine
 10
12.4427431572
 20
8.9263656221
 30
0.0
 11
12.4520288715
 21
8.9300771595
 31
0.0
  0
LINE
  5
21A
330
1F
100
AcDbEntity
  8
0
  6
SLD-Solid
 62
     7
370
    25
100
AcDbLine
 10
12.4668612799
 20
8.8390826561
 30
0.0
 11
12.4018612799
 21
8.8131018939
 31
0.0
  0
ARC
  5
21B
330
1F
100
AcDbEntity
  8
0
  6
SLD-Solid
 62
     7
370
    25
100
AcDbCircle
 10
12.459438205
 20
8.8576540846
 30
0.0
 40
0.0200000000000113
100
AcDbArc
 50
291.7867892983
 51
21.7867892983
  0
LINE
  5
21C
330
1F
100
AcDbEntity
  8
0
  6
SLD-Solid
 62
     7
370
    25
100
AcDbLine
 10
12.4520288715
 20
8.9300771595
 30
0.0
 11
12.4780096336
 21
8.8650771595
 31
0.0
  0
LINE
  5
21D
330
1F
100
AcDbEntity
  8
0
  6
SLD-Solid
 62
     7
370
    25
100
AcDbLine
 10
12.361034368
 20
8.9152447511
 30
0.0
 11
12.426034368
 21
8.9412255132
 31
0.0
  0
ARC
  5
21E
330
1F
100
AcDbEntity
  8
0
  6
SLD-Solid
 62
     7
370
    25
100
AcDbCircle
 10
12.3684574429
 20
8.8966733225
 30
0.0
 40
0.0200000000000004
100
AcDbArc
 50
111.7867892983
 51
201.7867892983
  0
LINE
  5
21F
330
1F
100
AcDbEntity
  8
0
  6
SLD-Solid
 62
     7
370
    25
100
AcDbLine
 10
12.3758667765
 20
8.8242502476
 30
0.0
 11
12.3498860144
 21
8.8892502476
 31
0.0
  0
ARC
  5
220
330
1F
100
AcDbEntity
  8
0
  6
SLD-Solid
 62
     7
370
    25
100
AcDbCircle
 10
12.394438205
 20
8.8316733225
 30
0.0
 40
0.0199999999999965
100
AcDbArc
 50
201.7867892983
 51
291.7867892983
  0
CIRCLE
  5
221
330
1F
100
AcDbEntity
  8
0
  6
SLD-Solid
 62
     7
370
    25
100
AcDbCircle
 10
12.413947824
 20
8.8771637036
 30
0.0
 40
0.0825000000000007
  0
LINE
  5
222
330
1F
100
AcDbEntity
  8
0
  6
SLD-Solid
 62
     7
370
    25
100
AcDbLine
 10
12.4018612799
 20
8.8131018939
 30
0.0
 11
12.3981497425
 21
8.8223876082
 31
0.0
  0
LINE
  5
223
330
1F
100
AcDbEntity
  8
0
  6
SLD-Solid
 62
     7
370
    25
100
AcDbLine
 10
12.3981497425
 20
8.8223876082
 30
0.0
 11
12.4631497425
 21
8.8483683703
 31
0.0
  0
LINE
  5
224
330
1F
100
AcDbEntity
  8
0
  6
SLD-Solid
 62
     7
370
    25
100
AcDbLine
 10
12.4668612799
 20
8.8390826561
 30
0.0
 11
12.4631497425
 21
8.8483683703
 31
0.0
  0
LINE
  5
225
330
1F
100
AcDbEntity
  8
0
  6
SLD-Solid
 62
     7
370
    25
100
AcDbLine
 10
12.4687239193
 20
8.8613656221
 30
0.0
 11
12.4427431572
 21
8.9263656221
 31
0.0
  0
LINE
  5
226
330
1F
100
AcDbEntity
  8
0
  6
SLD-Solid
 62
     7
370
    25
100
AcDbLine
 10
12.4780096336
 20
8.8650771595
 30
0.0
 11
12.4687239193
 21
8.8613656221
 31
0.0
  0
ARC
  5
227
330
1F
100
AcDbEntity
  8
0
  6
SLD-Solid
 62
     7
370
    25
100
AcDbCircle
 10
12.459438205
 20
8.8576540846
 30
0.0
 40
0.0100000000000047
100
AcDbArc
 50
291.7867892983
 51
21.7867892983
  0
ARC
  5
228
330
1F
100
AcDbEntity
  8
0
  6
SLD-Solid
 62
     7
370
    25
100
AcDbCircle
 10
12.3684574429
 20
8.8966733225
 30
0.0
 40
0.010000000000003
100
AcDbArc
 50
111.7867892983
 51
201.7867892983
  0
LINE
  5
229
330
1F
100
AcDbEntity
  8
0
  6
SLD-Solid
 62
     7
370
    25
100
AcDbLine
 10
12.3591717286
 20
8.8929617851
 30
0.0
 11
12.3498860144
 21
8.8892502476
 31
0.0
  0
LINE
  5
22A
330
1F
100
AcDbEntity
  8
0
  6
SLD-Solid
 62
     7
370
    25
100
AcDbLine
 10
12.3647459055
 20
8.9059590368
 30
0.0
 11
12.361034368
 21
8.9152447511
 31
0.0
  0
LINE
  5
22B
330
1F
100
AcDbEntity
  8
0
  6
SLD-Solid
 62
     7
370
    25
100
AcDbLine
 10
12.4297459055
 20
8.9319397989
 30
0.0
 11
12.3647459055
 21
8.9059590368
 31
0.0
  0
LINE
  5
22C
330
1F
100
AcDbEntity
  8
0
  6
SLD-Solid
 62
     7
370
    25
100
AcDbLine
 10
12.3591717286
 20
8.8929617851
 30
0.0
 11
12.3851524908
 21
8.8279617851
 31
0.0
  0
LINE
  5
22D
330
1F
100
AcDbEntity
  8
0
  6
SLD-Solid
 62
     7
370
    25
100
AcDbLine
 10
12.3758667765
 20
8.8242502476
 30
0.0
 11
12.3851524908
 21
8.8279617851
 31
0.0
  0
ARC
  5
22E
330
1F
100
AcDbEntity
  8
0
  6
SLD-Solid
 62
     7
370
    25
100
AcDbCircle
 10
12.394438205
 20
8.8316733225
 30
0.0
 40
0.0099999999999991
100
AcDbArc
 50
201.7867892983
 51
291.7867892983
  0
CIRCLE
  5
22F
330
1F
100
AcDbEntity
  8
0
  6
SLD-Solid
 62
     7
370
    25
100
AcDbCircle
 10
12.413947824
 20
8.8771637036
 30
0.0
 40
0.1325000000000007
  0
LINE
  5
230
330
1F
100
AcDbEntity
  8
0
  6
SLD-Solid
 62
     7
370
    25
100
AcDbLine
 10
12.3591717286
 20
8.8929617851
 30
0.0
 11
12.3684574429
 21
8.8966733225
 31
0.0
  0
LINE
  5
231
330
1F
100
AcDbEntity
  8
0
  6
SLD-Solid
 62
     7
370
    25
100
AcDbLine
 10
12.3684574429
 20
8.8966733225
 30
0.0
 11
12.394438205
 21
8.8316733225
 31
0.0
  0
LINE
  5
232
330
1F
100
AcDbEntity
  8
0
  6
SLD-Solid
 62
     7
370
    25
100
AcDbLine
 10
12.394438205
 20
8.8316733225
 30
0.0
 11
12.3851524908
 21
8.8279617851
 31
0.0
  0
LINE
  5
233
330
1F
100
AcDbEntity
  8
0
  6
SLD-Solid
 62
     7
370
    25
100
AcDbLine
 10
12.3684574429
 20
8.8966733225
 30
0.0
 11
12.3647459055
 21
8.9059590368
 31
0.0
  0
LINE
  5
234
330
1F
100
AcDbEntity
  8
0
  6
SLD-Solid
 62
     7
370
    25
100
AcDbLine
 10
12.4687239193
 20
8.8613656221
 30
0.0
 11
12.459438205
 21
8.8576540846
 31
0.0
  0
LINE
  5
235
330
1F
100
AcDbEntity
  8
0
  6
SLD-Solid
 62
     7
370
    25
100
AcDbLine
 10
12.459438205
 20
8.8576540846
 30
0.0
 11
12.4334574429
 21
8.9226540846
 31
0.0
  0
LINE
  5
236
330
1F
100
AcDbEntity
  8
0
  6
SLD-Solid
 62
     7
370
    25
100
AcDbLine
 10
12.4334574429
 20
8.9226540846
 30
0.0
 11
12.4427431572
 21
8.9263656221
 31
0.0
  0
LINE
  5
237
330
1F
100
AcDbEntity
  8
0
  6
SLD-Solid
 62
     7
370
    25
100
AcDbLine
 10
12.4334574429
 20
8.9226540846
 30
0.0
 11
12.3684574429
 21
8.8966733225
 31
0.0
  0
LINE
  5
238
330
1F
100
AcDbEntity
  8
0
  6
SLD-Solid
 62
     7
370
    25
100
AcDbLine
 10
12.4334574429
 20
8.9226540846
 30
0.0
 11
12.4297459055
 21
8.9319397989
 31
0.0
  0
LINE
  5
239
330
1F
100
AcDbEntity
  8
0
  6
SLD-Solid
 62
     7
370
    25
100
AcDbLine
 10
12.3981497425
 20
8.8223876082
 30
0.0
 11
12.394438205
 21
8.8316733225
 31
0.0
  0
LINE
  5
23A
330
1F
100
AcDbEntity
  8
0
  6
SLD-Solid
 62
     7
370
    25
100
AcDbLine
 10
12.394438205
 20
8.8316733225
 30
0.0
 11
12.459438205
 21
8.8576540846
 31
0.0
  0
LINE
  5
23B
330
1F
100
AcDbEntity
  8
0
  6
SLD-Solid
 62
     7
370
    25
100
AcDbLine
 10
12.4631497425
 20
8.8483683703
 30
0.0
 11
12.459438205
 21
8.8576540846
 31
0.0
  0
LINE
  5
23C
330
1F
100
AcDbEntity
  8
0
  6
SLD-Solid
 62
     7
370
    25
100
AcDbLine
 10
28.4456951766
 20
21.0425554672
 30
0.0
 11
28.3824957121
 21
21.0124584958
 31
0.0
  0
ARC
  5
23D
330
1F
100
AcDbEntity
  8
0
  6
SLD-Solid
 62
     7
370
    25
100
AcDbCircle
 10
28.4370960419
 20
21.060612457
 30
0.0
 40
0.0200000000000089
100
AcDbArc
 50
295.4648144192
 51
25.4648144192
  0
LINE
  5
23E
330
1F
100
AcDbEntity
  8
0
  6
SLD-Solid
 62
     7
370
    25
100
AcDbLine
 10
28.4250560604
 20
21.1324110562
 30
0.0
 11
28.4551530318
 21
21.0692115917
 31
0.0
  0
ARC
  5
23F
330
1F
100
AcDbEntity
  8
0
  6
SLD-Solid
 62
     7
370
    25
100
AcDbCircle
 10
28.4069990705
 20
21.1238119215
 30
0.0
 40
0.020000000000006
100
AcDbArc
 50
25.4648144192
 51
115.4648144192
  0
LINE
  5
240
330
1F
100
AcDbEntity
  8
0
  6
SLD-Solid
 62
     7
370
    25
100
AcDbLine
 10
28.3352004714
 20
21.11177194
 30
0.0
 11
28.3983999359
 21
21.1418689114
 31
0.0
  0
ARC
  5
241
330
1F
100
AcDbEntity
  8
0
  6
SLD-Solid
 62
     7
370
    25
100
AcDbCircle
 10
28.343799606
 20
21.0937149501
 30
0.0
 40
0.0199999999999994
100
AcDbArc
 50
115.4648144192
 51
205.4648144193
  0
LINE
  5
242
330
1F
100
AcDbEntity
  8
0
  6
SLD-Solid
 62
     7
370
    25
100
AcDbLine
 10
28.3558395876
 20
21.0219163509
 30
0.0
 11
28.3257426162
 21
21.0851158154
 31
0.0
  0
ARC
  5
243
330
1F
100
AcDbEntity
  8
0
  6
SLD-Solid
 62
     7
370
    25
100
AcDbCircle
 10
28.3738965774
 20
21.0305154856
 30
0.0
 40
0.0199999999999947
100
AcDbArc
 50
205.4648144192
 51
295.4648144192
  0
CIRCLE
  5
244
330
1F
100
AcDbEntity
  8
0
  6
SLD-Solid
 62
     7
370
    25
100
AcDbCircle
 10
28.390447824
 20
21.0771637036
 30
0.0
 40
0.0825000000000021
  0
LINE
  5
245
330
1F
100
AcDbEntity
  8
0
  6
SLD-Solid
 62
     7
370
    25
100
AcDbLine
 10
28.3824957121
 20
21.0124584958
 30
0.0
 11
28.3781961448
 21
21.0214869907
 31
0.0
  0
LINE
  5
246
330
1F
100
AcDbEntity
  8
0
  6
SLD-Solid
 62
     7
370
    25
100
AcDbLine
 10
28.3781961448
 20
21.0214869907
 30
0.0
 11
28.4413956093
 21
21.0515839621
 31
0.0
  0
LINE
  5
247
330
1F
100
AcDbEntity
  8
0
  6
SLD-Solid
 62
     7
370
    25
100
AcDbLine
 10
28.4456951766
 20
21.0425554672
 30
0.0
 11
28.4413956093
 21
21.0515839621
 31
0.0
  0
LINE
  5
248
330
1F
100
AcDbEntity
  8
0
  6
SLD-Solid
 62
     7
370
    25
100
AcDbLine
 10
28.4461245369
 20
21.0649120244
 30
0.0
 11
28.4160275655
 21
21.1281114889
 31
0.0
  0
LINE
  5
249
330
1F
100
AcDbEntity
  8
0
  6
SLD-Solid
 62
     7
370
    25
100
AcDbLine
 10
28.4160275655
 20
21.1281114889
 30
0.0
 11
28.4250560604
 21
21.1324110562
 31
0.0
  0
LINE
  5
24A
330
1F
100
AcDbEntity
  8
0
  6
SLD-Solid
 62
     7
370
    25
100
AcDbLine
 10
28.4551530318
 20
21.0692115917
 30
0.0
 11
28.4461245369
 21
21.0649120244
 31
0.0
  0
ARC
  5
24B
330
1F
100
AcDbEntity
  8
0
  6
SLD-Solid
 62
     7
370
    25
100
AcDbCircle
 10
28.4069990705
 20
21.1238119215
 30
0.0
 40
0.0100000000000037
100
AcDbArc
 50
25.4648144192
 51
115.4648144192
  0
LINE
  5
24C
330
1F
100
AcDbEntity
  8
0
  6
SLD-Solid
 62
     7
370
    25
100
AcDbLine
 10
28.4026995032
 20
21.1328404164
 30
0.0
 11
28.3983999359
 21
21.1418689114
 31
0.0
  0
ARC
  5
24D
330
1F
100
AcDbEntity
  8
0
  6
SLD-Solid
 62
     7
370
    25
100
AcDbCircle
 10
28.4370960419
 20
21.060612457
 30
0.0
 40
0.0100000000000051
100
AcDbArc
 50
295.4648144193
 51
25.4648144193
  0
ARC
  5
24E
330
1F
100
AcDbEntity
  8
0
  6
SLD-Solid
 62
     7
370
    25
100
AcDbCircle
 10
28.343799606
 20
21.0937149501
 30
0.0
 40
0.0099999999999989
100
AcDbArc
 50
115.4648144192
 51
205.4648144192
  0
LINE
  5
24F
330
1F
100
AcDbEntity
  8
0
  6
SLD-Solid
 62
     7
370
    25
100
AcDbLine
 10
28.3347711111
 20
21.0894153828
 30
0.0
 11
28.3257426162
 21
21.0851158154
 31
0.0
  0
LINE
  5
250
330
1F
100
AcDbEntity
  8
0
  6
SLD-Solid
 62
     7
370
    25
100
AcDbLine
 10
28.3395000387
 20
21.1027434451
 30
0.0
 11
28.3352004714
 21
21.11177194
 31
0.0
  0
CIRCLE
  5
251
330
1F
100
AcDbEntity
  8
0
  6
SLD-Solid
 62
     7
370
    25
100
AcDbCircle
 10
28.390447824
 20
21.0771637036
 30
0.0
 40
0.1325000000000014
  0
LINE
  5
252
330
1F
100
AcDbEntity
  8
0
  6
SLD-Solid
 62
     7
370
    25
100
AcDbLine
 10
28.3347711111
 20
21.0894153828
 30
0.0
 11
28.3648680825
 21
21.0262159183
 31
0.0
  0
LINE
  5
253
330
1F
100
AcDbEntity
  8
0
  6
SLD-Solid
 62
     7
370
    25
100
AcDbLine
 10
28.3558395876
 20
21.0219163509
 30
0.0
 11
28.3648680825
 21
21.0262159183
 31
0.0
  0
LINE
  5
254
330
1F
100
AcDbEntity
  8
0
  6
SLD-Solid
 62
     7
370
    25
100
AcDbLine
 10
28.4026995032
 20
21.1328404164
 30
0.0
 11
28.3395000387
 21
21.1027434451
 31
0.0
  0
ARC
  5
255
330
1F
100
AcDbEntity
  8
0
  6
SLD-Solid
 62
     7
370
    25
100
AcDbCircle
 10
28.3738965774
 20
21.0305154856
 30
0.0
 40
0.0099999999999957
100
AcDbArc
 50
205.4648144192
 51
295.4648144192
  0
LINE
  5
256
330
1F
100
AcDbEntity
  8
0
  6
SLD-Solid
 62
     7
370
    25
100
AcDbLine
 10
28.343799606
 20
21.0937149501
 30
0.0
 11
28.3395000387
 21
21.1027434451
 31
0.0
  0
LINE
  5
257
330
1F
100
AcDbEntity
  8
0
  6
SLD-Solid
 62
     7
370
    25
100
AcDbLine
 10
28.3347711111
 20
21.0894153828
 30
0.0
 11
28.343799606
 21
21.0937149501
 31
0.0
  0
LINE
  5
258
330
1F
100
AcDbEntity
  8
0
  6
SLD-Solid
 62
     7
370
    25
100
AcDbLine
 10
28.4069990705
 20
21.1238119215
 30
0.0
 11
28.343799606
 21
21.0937149501
 31
0.0
  0
LINE
  5
259
330
1F
100
AcDbEntity
  8
0
  6
SLD-Solid
 62
     7
370
    25
100
AcDbLine
 10
28.4069990705
 20
21.1238119215
 30
0.0
 11
28.4026995032
 21
21.1328404164
 31
0.0
  0
LINE
  5
25A
330
1F
100
AcDbEntity
  8
0
  6
SLD-Solid
 62
     7
370
    25
100
AcDbLine
 10
28.343799606
 20
21.0937149501
 30
0.0
 11
28.3738965774
 21
21.0305154856
 31
0.0
  0
LINE
  5
25B
330
1F
100
AcDbEntity
  8
0
  6
SLD-Solid
 62
     7
370
    25
100
AcDbLine
 10
28.3738965774
 20
21.0305154856
 30
0.0
 11
28.3648680825
 21
21.0262159183
 31
0.0
  0
LINE
  5
25C
330
1F
100
AcDbEntity
  8
0
  6
SLD-Solid
 62
     7
370
    25
100
AcDbLine
 10
28.4069990705
 20
21.1238119215
 30
0.0
 11
28.4160275655
 21
21.1281114889
 31
0.0
  0
LINE
  5
25D
330
1F
100
AcDbEntity
  8
0
  6
SLD-Solid
 62
     7
370
    25
100
AcDbLine
 10
28.3781961448
 20
21.0214869907
 30
0.0
 11
28.3738965774
 21
21.0305154856
 31
0.0
  0
LINE
  5
25E
330
1F
100
AcDbEntity
  8
0
  6
SLD-Solid
 62
     7
370
    25
100
AcDbLine
 10
28.3738965774
 20
21.0305154856
 30
0.0
 11
28.4370960419
 21
21.060612457
 31
0.0
  0
LINE
  5
25F
330
1F
100
AcDbEntity
  8
0
  6
SLD-Solid
 62
     7
370
    25
100
AcDbLine
 10
28.4413956093
 20
21.0515839621
 30
0.0
 11
28.4370960419
 21
21.060612457
 31
0.0
  0
LINE
  5
260
330
1F
100
AcDbEntity
  8
0
  6
SLD-Solid
 62
     7
370
    25
100
AcDbLine
 10
28.4461245369
 20
21.0649120244
 30
0.0
 11
28.4370960419
 21
21.060612457
 31
0.0
  0
LINE
  5
261
330
1F
100
AcDbEntity
  8
0
  6
SLD-Solid
 62
     7
370
    25
100
AcDbLine
 10
28.4370960419
 20
21.060612457
 30
0.0
 11
28.4069990705
 21
21.1238119215
 31
0.0
  0
LINE
  5
262
330
1F
100
AcDbEntity
  8
0
  6
SLD-Solid
 62
     7
370
    25
100
AcDbLine
 10
26.0218558977
 20
8.8420196651
 30
0.0
 11
25.9583666438
 21
8.8125389146
 31
0.0
  0
ARC
  5
263
330
1F
100
AcDbEntity
  8
0
  6
SLD-Solid
 62
     7
370
    25
100
AcDbCircle
 10
26.0134328261
 20
8.8601594519
 30
0.0
 40
0.0200000000000102
100
AcDbArc
 50
294.9074391142
 51
24.9074391142
  0
LINE
  5
264
330
1F
100
AcDbEntity
  8
0
  6
SLD-Solid
 62
     7
370
    25
100
AcDbLine
 10
26.0020918625
 20
8.9320717773
 30
0.0
 11
26.0315726129
 21
8.8685825234
 31
0.0
  0
ARC
  5
265
330
1F
100
AcDbEntity
  8
0
  6
SLD-Solid
 62
     7
370
    25
100
AcDbCircle
 10
25.9839520757
 20
8.9236487057
 30
0.0
 40
0.0200000000000082
100
AcDbArc
 50
24.9074391142
 51
114.9074391142
  0
LINE
  5
266
330
1F
100
AcDbEntity
  8
0
  6
SLD-Solid
 62
     7
370
    25
100
AcDbLine
 10
25.9120397503
 20
8.9123077421
 30
0.0
 11
25.9755290041
 21
8.9417884925
 31
0.0
  0
ARC
  5
267
330
1F
100
AcDbEntity
  8
0
  6
SLD-Solid
 62
     7
370
    25
100
AcDbCircle
 10
25.9204628218
 20
8.8941679553
 30
0.0
 40
0.0199999999999999
100
AcDbArc
 50
114.9074391142
 51
204.9074391142
  0
LINE
  5
268
330
1F
100
AcDbEntity
  8
0
  6
SLD-Solid
 62
     7
370
    25
100
AcDbLine
 10
25.9318037855
 20
8.8222556299
 30
0.0
 11
25.902323035
 21
8.8857448837
 31
0.0
  0
ARC
  5
269
330
1F
100
AcDbEntity
  8
0
  6
SLD-Solid
 62
     7
370
    25
100
AcDbCircle
 10
25.9499435723
 20
8.8306787014
 30
0.0
 40
0.0199999999999983
100
AcDbArc
 50
204.9074391142
 51
294.9074391142
  0
CIRCLE
  5
26A
330
1F
100
AcDbEntity
  8
0
  6
SLD-Solid
 62
     7
370
    25
100
AcDbCircle
 10
25.966947824
 20
8.8771637036
 30
0.0
 40
0.0824999999999998
  0
CIRCLE
  5
26B
330
1F
100
AcDbEntity
  8
0
  6
SLD-Solid
 62
     7
370
    25
100
AcDbCircle
 10
25.966947824
 20
8.8771637036
 30
0.0
 40
0.132499999999999
  0
LINE
  5
26C
330
1F
100
AcDbEntity
  8
0
  6
SLD-Solid
 62
     7
370
    25
100
AcDbLine
 10
26.0225027195
 20
8.8643709876
 30
0.0
 11
25.9930219691
 21
8.9278602415
 31
0.0
  0
LINE
  5
26D
330
1F
100
AcDbEntity
  8
0
  6
SLD-Solid
 62
     7
370
    25
100
AcDbLine
 10
25.9930219691
 20
8.9278602415
 30
0.0
 11
26.0020918625
 21
8.9320717773
 31
0.0
  0
LINE
  5
26E
330
1F
100
AcDbEntity
  8
0
  6
SLD-Solid
 62
     7
370
    25
100
AcDbLine
 10
26.0315726129
 20
8.8685825234
 30
0.0
 11
26.0225027195
 21
8.8643709876
 31
0.0
  0
ARC
  5
26F
330
1F
100
AcDbEntity
  8
0
  6
SLD-Solid
 62
     7
370
    25
100
AcDbCircle
 10
25.9839520757
 20
8.9236487057
 30
0.0
 40
0.0100000000000048
100
AcDbArc
 50
24.9074391142
 51
114.9074391142
  0
LINE
  5
270
330
1F
100
AcDbEntity
  8
0
  6
SLD-Solid
 62
     7
370
    25
100
AcDbLine
 10
25.9797405399
 20
8.9327185991
 30
0.0
 11
25.9755290041
 21
8.9417884925
 31
0.0
  0
LINE
  5
271
330
1F
100
AcDbEntity
  8
0
  6
SLD-Solid
 62
     7
370
    25
100
AcDbLine
 10
25.9583666438
 20
8.8125389146
 30
0.0
 11
25.9541551081
 21
8.821608808
 31
0.0
  0
LINE
  5
272
330
1F
100
AcDbEntity
  8
0
  6
SLD-Solid
 62
     7
370
    25
100
AcDbLine
 10
25.9541551081
 20
8.821608808
 30
0.0
 11
26.0176443619
 21
8.8510895585
 31
0.0
  0
LINE
  5
273
330
1F
100
AcDbEntity
  8
0
  6
SLD-Solid
 62
     7
370
    25
100
AcDbLine
 10
26.0218558977
 20
8.8420196651
 30
0.0
 11
26.0176443619
 21
8.8510895585
 31
0.0
  0
ARC
  5
274
330
1F
100
AcDbEntity
  8
0
  6
SLD-Solid
 62
     7
370
    25
100
AcDbCircle
 10
26.0134328261
 20
8.8601594519
 30
0.0
 40
0.0100000000000039
100
AcDbArc
 50
294.9074391143
 51
24.9074391142
  0
ARC
  5
275
330
1F
100
AcDbEntity
  8
0
  6
SLD-Solid
 62
     7
370
    25
100
AcDbCircle
 10
25.9204628218
 20
8.8941679553
 30
0.0
 40
0.0100000000000024
100
AcDbArc
 50
114.9074391142
 51
204.9074391142
  0
LINE
  5
276
330
1F
100
AcDbEntity
  8
0
  6
SLD-Solid
 62
     7
370
    25
100
AcDbLine
 10
25.9113929284
 20
8.8899564195
 30
0.0
 11
25.902323035
 21
8.8857448837
 31
0.0
  0
LINE
  5
277
330
1F
100
AcDbEntity
  8
0
  6
SLD-Solid
 62
     7
370
    25
100
AcDbLine
 10
25.9162512861
 20
8.9032378487
 30
0.0
 11
25.9120397503
 21
8.9123077421
 31
0.0
  0
LINE
  5
278
330
1F
100
AcDbEntity
  8
0
  6
SLD-Solid
 62
     7
370
    25
100
AcDbLine
 10
25.9797405399
 20
8.9327185991
 30
0.0
 11
25.9162512861
 21
8.9032378487
 31
0.0
  0
LINE
  5
279
330
1F
100
AcDbEntity
  8
0
  6
SLD-Solid
 62
     7
370
    25
100
AcDbLine
 10
25.9113929284
 20
8.8899564195
 30
0.0
 11
25.9408736789
 21
8.8264671657
 31
0.0
  0
LINE
  5
27A
330
1F
100
AcDbEntity
  8
0
  6
SLD-Solid
 62
     7
370
    25
100
AcDbLine
 10
25.9318037855
 20
8.8222556299
 30
0.0
 11
25.9408736789
 21
8.8264671657
 31
0.0
  0
ARC
  5
27B
330
1F
100
AcDbEntity
  8
0
  6
SLD-Solid
 62
     7
370
    25
100
AcDbCircle
 10
25.9499435723
 20
8.8306787014
 30
0.0
 40
0.0100000000000008
100
AcDbArc
 50
204.9074391142
 51
294.9074391142
  0
LINE
  5
27C
330
1F
100
AcDbEntity
  8
0
  6
SLD-Solid
 62
     7
370
    25
100
AcDbLine
 10
25.9204628218
 20
8.8941679553
 30
0.0
 11
25.9162512861
 21
8.9032378487
 31
0.0
  0
LINE
  5
27D
330
1F
100
AcDbEntity
  8
0
  6
SLD-Solid
 62
     7
370
    25
100
AcDbLine
 10
25.9113929284
 20
8.8899564195
 30
0.0
 11
25.9204628218
 21
8.8941679553
 31
0.0
  0
LINE
  5
27E
330
1F
100
AcDbEntity
  8
0
  6
SLD-Solid
 62
     7
370
    25
100
AcDbLine
 10
25.9839520757
 20
8.9236487057
 30
0.0
 11
25.9204628218
 21
8.8941679553
 31
0.0
  0
LINE
  5
27F
330
1F
100
AcDbEntity
  8
0
  6
SLD-Solid
 62
     7
370
    25
100
AcDbLine
 10
25.9839520757
 20
8.9236487057
 30
0.0
 11
25.9797405399
 21
8.9327185991
 31
0.0
  0
LINE
  5
280
330
1F
100
AcDbEntity
  8
0
  6
SLD-Solid
 62
     7
370
    25
100
AcDbLine
 10
25.9204628218
 20
8.8941679553
 30
0.0
 11
25.9499435723
 21
8.8306787014
 31
0.0
  0
LINE
  5
281
330
1F
100
AcDbEntity
  8
0
  6
SLD-Solid
 62
     7
370
    25
100
AcDbLine
 10
25.9499435723
 20
8.8306787014
 30
0.0
 11
25.9408736789
 21
8.8264671657
 31
0.0
  0
LINE
  5
282
330
1F
100
AcDbEntity
  8
0
  6
SLD-Solid
 62
     7
370
    25
100
AcDbLine
 10
25.9839520757
 20
8.9236487057
 30
0.0
 11
25.9930219691
 21
8.9278602415
 31
0.0
  0
LINE
  5
283
330
1F
100
AcDbEntity
  8
0
  6
SLD-Solid
 62
     7
370
    25
100
AcDbLine
 10
25.9541551081
 20
8.821608808
 30
0.0
 11
25.9499435723
 21
8.8306787014
 31
0.0
  0
LINE
  5
284
330
1F
100
AcDbEntity
  8
0
  6
SLD-Solid
 62
     7
370
    25
100
AcDbLine
 10
25.9499435723
 20
8.8306787014
 30
0.0
 11
26.0134328261
 21
8.8601594519
 31
0.0
  0
LINE
  5
285
330
1F
100
AcDbEntity
  8
0
  6
SLD-Solid
 62
     7
370
    25
100
AcDbLine
 10
26.0176443619
 20
8.8510895585
 30
0.0
 11
26.0134328261
 21
8.8601594519
 31
0.0
  0
LINE
  5
286
330
1F
100
AcDbEntity
  8
0
  6
SLD-Solid
 62
     7
370
    25
100
AcDbLine
 10
26.0225027195
 20
8.8643709876
 30
0.0
 11
26.0134328261
 21
8.8601594519
 31
0.0
  0
LINE
  5
287
330
1F
100
AcDbEntity
  8
0
  6
SLD-Solid
 62
     7
370
    25
100
AcDbLine
 10
26.0134328261
 20
8.8601594519
 30
0.0
 11
25.9839520757
 21
8.9236487057
 31
0.0
  0
LINE
  5
288
330
1F
100
AcDbEntity
  8
0
  6
SLD-Solid
 62
     7
370
    25
100
AcDbLine
 10
25.743447824
 20
8.6771637036
 30
0.0
 11
25.743447824
 21
8.9451637036
 31
0.0
  0
LINE
  5
289
330
1F
100
AcDbEntity
  8
0
  6
SLD-Solid
 62
     7
370
    25
100
AcDbLine
 10
25.743447824
 20
8.9451637036
 30
0.0
 11
25.868447824
 21
9.0771637036
 31
0.0
  0
LINE
  5
28A
330
1F
100
AcDbEntity
  8
0
  6
SLD-Solid
 62
     7
370
    25
100
AcDbLine
 10
25.868447824
 20
9.0771637036
 30
0.0
 11
25.868447824
 21
9.4201637036
 31
0.0
  0
LINE
  5
28B
330
1F
100
AcDbEntity
  8
0
  6
SLD-Solid
 62
     7
370
    25
100
AcDbLine
 10
26.065447824
 20
9.4201637036
 30
0.0
 11
25.868447824
 21
9.4201637036
 31
0.0
  0
LINE
  5
28C
330
1F
100
AcDbEntity
  8
0
  6
SLD-Solid
 62
     7
370
    25
100
AcDbLine
 10
26.065447824
 20
9.0771637036
 30
0.0
 11
26.065447824
 21
9.4201637036
 31
0.0
  0
LINE
  5
28D
330
1F
100
AcDbEntity
  8
0
  6
SLD-Solid
 62
     7
370
    25
100
AcDbLine
 10
26.190447824
 20
8.9451637036
 30
0.0
 11
26.065447824
 21
9.0771637036
 31
0.0
  0
LINE
  5
28E
330
1F
100
AcDbEntity
  8
0
  6
SLD-Solid
 62
     7
370
    25
100
AcDbLine
 10
26.190447824
 20
8.6771637036
 30
0.0
 11
26.190447824
 21
8.9451637036
 31
0.0
  0
LINE
  5
28F
330
1F
100
AcDbEntity
  8
0
  6
SLD-Solid
 62
     7
370
    25
100
AcDbLine
 10
25.743447824
 20
8.6771637036
 30
0.0
 11
26.190447824
 21
8.6771637036
 31
0.0
  0
CIRCLE
  5
290
330
1F
100
AcDbEntity
  8
0
  6
SLD-Solid
 62
     7
370
    25
100
AcDbCircle
 10
25.966947824
 20
8.8771637036
 30
0.0
 40
0.1460104235265689
  0
LINE
  5
291
330
1F
100
AcDbEntity
  8
0
  6
SLD-Solid
 62
     7
370
    25
100
AcDbLine
 10
26.190447824
 20
9.5451637036
 30
0.0
 11
26.065447824
 21
9.4201637036
 31
0.0
  0
LINE
  5
292
330
1F
100
AcDbEntity
  8
0
  6
SLD-Solid
 62
     7
370
    25
100
AcDbLine
 10
25.743447824
 20
9.5451637036
 30
0.0
 11
25.868447824
 21
9.4201637036
 31
0.0
  0
LINE
  5
293
330
1F
100
AcDbEntity
  8
0
  6
SLD-Solid
 62
     7
370
    25
100
AcDbLine
 10
25.743447824
 20
9.5451637036
 30
0.0
 11
26.190447824
 21
9.5451637036
 31
0.0
  0
CIRCLE
  5
294
330
1F
100
AcDbEntity
  8
0
  6
SLD-Solid
 62
     7
370
    25
100
AcDbCircle
 10
25.966947824
 20
8.8771637036
 30
0.0
 40
0.1354999999999968
  0
LINE
  5
295
330
1F
100
AcDbEntity
  8
0
  6
SLD-Solid
 62
     7
370
    25
100
AcDbLine
 10
25.743447824
 20
9.5451637036
 30
0.0
 11
25.743447824
 21
8.9451637036
 31
0.0
  0
LINE
  5
296
330
1F
100
AcDbEntity
  8
0
  6
SLD-Solid
 62
     7
370
    25
100
AcDbLine
 10
26.190447824
 20
9.5451637036
 30
0.0
 11
26.190447824
 21
8.9451637036
 31
0.0
  0
LINE
  5
297
330
1F
100
AcDbEntity
  8
0
  6
SLD-Solid
 62
     7
370
    25
100
AcDbLine
 10
9.790447824
 20
21.3006637036
 30
0.0
 11
10.058447824
 21
21.3006637036
 31
0.0
  0
LINE
  5
298
330
1F
100
AcDbEntity
  8
0
  6
SLD-Solid
 62
     7
370
    25
100
AcDbLine
 10
10.058447824
 20
21.3006637036
 30
0.0
 11
10.190447824
 21
21.1756637036
 31
0.0
  0
LINE
  5
299
330
1F
100
AcDbEntity
  8
0
  6
SLD-Solid
 62
     7
370
    25
100
AcDbLine
 10
10.190447824
 20
21.1756637036
 30
0.0
 11
10.533447824
 21
21.1756637036
 31
0.0
  0
LINE
  5
29A
330
1F
100
AcDbEntity
  8
0
  6
SLD-Solid
 62
     7
370
    25
100
AcDbLine
 10
10.533447824
 20
20.9786637036
 30
0.0
 11
10.533447824
 21
21.1756637036
 31
0.0
  0
LINE
  5
29B
330
1F
100
AcDbEntity
  8
0
  6
SLD-Solid
 62
     7
370
    25
100
AcDbLine
 10
10.190447824
 20
20.9786637036
 30
0.0
 11
10.533447824
 21
20.9786637036
 31
0.0
  0
LINE
  5
29C
330
1F
100
AcDbEntity
  8
0
  6
SLD-Solid
 62
     7
370
    25
100
AcDbLine
 10
10.058447824
 20
20.8536637036
 30
0.0
 11
10.190447824
 21
20.9786637036
 31
0.0
  0
LINE
  5
29D
330
1F
100
AcDbEntity
  8
0
  6
SLD-Solid
 62
     7
370
    25
100
AcDbLine
 10
9.790447824
 20
20.8536637036
 30
0.0
 11
10.058447824
 21
20.8536637036
 31
0.0
  0
LINE
  5
29E
330
1F
100
AcDbEntity
  8
0
  6
SLD-Solid
 62
     7
370
    25
100
AcDbLine
 10
9.790447824
 20
21.3006637036
 30
0.0
 11
9.790447824
 21
20.8536637036
 31
0.0
  0
CIRCLE
  5
29F
330
1F
100
AcDbEntity
  8
0
  6
SLD-Solid
 62
     7
370
    25
100
AcDbCircle
 10
9.990447824
 20
21.0771637036
 30
0.0
 40
0.1460104235265689
  0
LINE
  5
2A0
330
1F
100
AcDbEntity
  8
0
  6
SLD-Solid
 62
     7
370
    25
100
AcDbLine
 10
10.658447824
 20
20.8536637036
 30
0.0
 11
10.533447824
 21
20.9786637036
 31
0.0
  0
LINE
  5
2A1
330
1F
100
AcDbEntity
  8
0
  6
SLD-Solid
 62
     7
370
    25
100
AcDbLine
 10
10.658447824
 20
21.3006637036
 30
0.0
 11
10.533447824
 21
21.1756637036
 31
0.0
  0
LINE
  5
2A2
330
1F
100
AcDbEntity
  8
0
  6
SLD-Solid
 62
     7
370
    25
100
AcDbLine
 10
10.658447824
 20
21.3006637036
 30
0.0
 11
10.658447824
 21
20.8536637036
 31
0.0
  0
LINE
  5
2A3
330
1F
100
AcDbEntity
  8
0
  6
SLD-Solid
 62
     7
370
    25
100
AcDbLine
 10
10.658447824
 20
21.3006637036
 30
0.0
 11
10.058447824
 21
21.3006637036
 31
0.0
  0
CIRCLE
  5
2A4
330
1F
100
AcDbEntity
  8
0
  6
SLD-Solid
 62
     7
370
    25
100
AcDbCircle
 10
9.990447824
 20
21.0771637036
 30
0.0
 40
0.1355000000000004
  0
LINE
  5
2A5
330
1F
100
AcDbEntity
  8
0
  6
SLD-Solid
 62
     7
370
    25
100
AcDbLine
 10
10.658447824
 20
20.8536637036
 30
0.0
 11
10.058447824
 21
20.8536637036
 31
0.0
  0
LINE
  5
2A6
330
1F
100
AcDbEntity
  8
0
  6
SLD-Solid
 62
     7
370
    25
100
AcDbLine
 10
12.190447824
 20
8.9451637036
 30
0.0
 11
12.315447824
 21
9.0771637036
 31
0.0
  0
LINE
  5
2A7
330
1F
100
AcDbEntity
  8
0
  6
SLD-Solid
 62
     7
370
    25
100
AcDbLine
 10
12.315447824
 20
9.0771637036
 30
0.0
 11
12.315447824
 21
9.4201637036
 31
0.0
  0
LINE
  5
2A8
330
1F
100
AcDbEntity
  8
0
  6
SLD-Solid
 62
     7
370
    25
100
AcDbLine
 10
12.512447824
 20
9.4201637036
 30
0.0
 11
12.315447824
 21
9.4201637036
 31
0.0
  0
LINE
  5
2A9
330
1F
100
AcDbEntity
  8
0
  6
SLD-Solid
 62
     7
370
    25
100
AcDbLine
 10
12.512447824
 20
9.0771637036
 30
0.0
 11
12.512447824
 21
9.4201637036
 31
0.0
  0
LINE
  5
2AA
330
1F
100
AcDbEntity
  8
0
  6
SLD-Solid
 62
     7
370
    25
100
AcDbLine
 10
12.637447824
 20
8.9451637036
 30
0.0
 11
12.512447824
 21
9.0771637036
 31
0.0
  0
LINE
  5
2AB
330
1F
100
AcDbEntity
  8
0
  6
SLD-Solid
 62
     7
370
    25
100
AcDbLine
 10
12.637447824
 20
8.6771637036
 30
0.0
 11
12.637447824
 21
8.9451637036
 31
0.0
  0
CIRCLE
  5
2AC
330
1F
100
AcDbEntity
  8
0
  6
SLD-Solid
 62
     7
370
    25
100
AcDbCircle
 10
12.413947824
 20
8.8771637036
 30
0.0
 40
0.1460104235265671
  0
LINE
  5
2AD
330
1F
100
AcDbEntity
  8
0
  6
SLD-Solid
 62
     7
370
    25
100
AcDbLine
 10
12.190447824
 20
8.6771637036
 30
0.0
 11
12.637447824
 21
8.6771637036
 31
0.0
  0
LINE
  5
2AE
330
1F
100
AcDbEntity
  8
0
  6
SLD-Solid
 62
     7
370
    25
100
AcDbLine
 10
12.190447824
 20
8.6771637036
 30
0.0
 11
12.190447824
 21
8.9451637036
 31
0.0
  0
CIRCLE
  5
2AF
330
1F
100
AcDbEntity
  8
0
  6
SLD-Solid
 62
     7
370
    25
100
AcDbCircle
 10
12.413947824
 20
8.8771637036
 30
0.0
 40
0.1355000000000004
  0
LINE
  5
2B0
330
1F
100
AcDbEntity
  8
0
  6
SLD-Solid
 62
     7
370
    25
100
AcDbLine
 10
12.637447824
 20
9.5451637036
 30
0.0
 11
12.512447824
 21
9.4201637036
 31
0.0
  0
LINE
  5
2B1
330
1F
100
AcDbEntity
  8
0
  6
SLD-Solid
 62
     7
370
    25
100
AcDbLine
 10
12.190447824
 20
9.5451637036
 30
0.0
 11
12.315447824
 21
9.4201637036
 31
0.0
  0
LINE
  5
2B2
330
1F
100
AcDbEntity
  8
0
  6
SLD-Solid
 62
     7
370
    25
100
AcDbLine
 10
12.190447824
 20
9.5451637036
 30
0.0
 11
12.637447824
 21
9.5451637036
 31
0.0
  0
LINE
  5
2B3
330
1F
100
AcDbEntity
  8
0
  6
SLD-Solid
 62
     7
370
    25
100
AcDbLine
 10
12.190447824
 20
9.5451637036
 30
0.0
 11
12.190447824
 21
8.9451637036
 31
0.0
  0
LINE
  5
2B4
330
1F
100
AcDbEntity
  8
0
  6
SLD-Solid
 62
     7
370
    25
100
AcDbLine
 10
12.637447824
 20
9.5451637036
 30
0.0
 11
12.637447824
 21
8.9451637036
 31
0.0
  0
LINE
  5
2B5
330
1F
100
AcDbEntity
  8
0
  6
SLD-Solid
 62
     7
370
    25
100
AcDbLine
 10
28.590447824
 20
20.8536637036
 30
0.0
 11
28.322447824
 21
20.8536637036
 31
0.0
  0
LINE
  5
2B6
330
1F
100
AcDbEntity
  8
0
  6
SLD-Solid
 62
     7
370
    25
100
AcDbLine
 10
28.322447824
 20
20.8536637036
 30
0.0
 11
28.190447824
 21
20.9786637036
 31
0.0
  0
LINE
  5
2B7
330
1F
100
AcDbEntity
  8
0
  6
SLD-Solid
 62
     7
370
    25
100
AcDbLine
 10
28.190447824
 20
20.9786637036
 30
0.0
 11
27.847447824
 21
20.9786637036
 31
0.0
  0
LINE
  5
2B8
330
1F
100
AcDbEntity
  8
0
  6
SLD-Solid
 62
     7
370
    25
100
AcDbLine
 10
27.847447824
 20
21.1756637036
 30
0.0
 11
27.847447824
 21
20.9786637036
 31
0.0
  0
LINE
  5
2B9
330
1F
100
AcDbEntity
  8
0
  6
SLD-Solid
 62
     7
370
    25
100
AcDbLine
 10
28.190447824
 20
21.1756637036
 30
0.0
 11
27.847447824
 21
21.1756637036
 31
0.0
  0
LINE
  5
2BA
330
1F
100
AcDbEntity
  8
0
  6
SLD-Solid
 62
     7
370
    25
100
AcDbLine
 10
28.322447824
 20
21.3006637036
 30
0.0
 11
28.190447824
 21
21.1756637036
 31
0.0
  0
LINE
  5
2BB
330
1F
100
AcDbEntity
  8
0
  6
SLD-Solid
 62
     7
370
    25
100
AcDbLine
 10
28.590447824
 20
21.3006637036
 30
0.0
 11
28.322447824
 21
21.3006637036
 31
0.0
  0
CIRCLE
  5
2BC
330
1F
100
AcDbEntity
  8
0
  6
SLD-Solid
 62
     7
370
    25
100
AcDbCircle
 10
28.390447824
 20
21.0771637036
 30
0.0
 40
0.1460104235265653
  0
LINE
  5
2BD
330
1F
100
AcDbEntity
  8
0
  6
SLD-Solid
 62
     7
370
    25
100
AcDbLine
 10
28.590447824
 20
20.8536637036
 30
0.0
 11
28.590447824
 21
21.3006637036
 31
0.0
  0
LINE
  5
2BE
330
1F
100
AcDbEntity
  8
0
  6
SLD-Solid
 62
     7
370
    25
100
AcDbLine
 10
27.722447824
 20
21.3006637036
 30
0.0
 11
27.847447824
 21
21.1756637036
 31
0.0
  0
LINE
  5
2BF
330
1F
100
AcDbEntity
  8
0
  6
SLD-Solid
 62
     7
370
    25
100
AcDbLine
 10
27.722447824
 20
20.8536637036
 30
0.0
 11
27.847447824
 21
20.9786637036
 31
0.0
  0
LINE
  5
2C0
330
1F
100
AcDbEntity
  8
0
  6
SLD-Solid
 62
     7
370
    25
100
AcDbLine
 10
27.722447824
 20
20.8536637036
 30
0.0
 11
27.722447824
 21
21.3006637036
 31
0.0
  0
CIRCLE
  5
2C1
330
1F
100
AcDbEntity
  8
0
  6
SLD-Solid
 62
     7
370
    25
100
AcDbCircle
 10
28.390447824
 20
21.0771637036
 30
0.0
 40
0.1354999999999968
  0
LINE
  5
2C2
330
1F
100
AcDbEntity
  8
0
  6
SLD-Solid
 62
     7
370
    25
100
AcDbLine
 10
27.722447824
 20
21.3006637036
 30
0.0
 11
28.322447824
 21
21.3006637036
 31
0.0
  0
LINE
  5
2C3
330
1F
100
AcDbEntity
  8
0
  6
SLD-Solid
 62
     7
370
    25
100
AcDbLine
 10
27.722447824
 20
20.8536637036
 30
0.0
 11
28.322447824
 21
20.8536637036
 31
0.0
  0
LINE
  5
2C4
330
1F
100
AcDbEntity
  8
0
  6
SLD-Solid
 62
     7
370
    25
100
AcDbLine
 10
26.190447824
 20
33.4771637036
 30
0.0
 11
26.190447824
 21
33.2091637036
 31
0.0
  0
LINE
  5
2C5
330
1F
100
AcDbEntity
  8
0
  6
SLD-Solid
 62
     7
370
    25
100
AcDbLine
 10
26.190447824
 20
33.2091637036
 30
0.0
 11
26.065447824
 21
33.0771637036
 31
0.0
  0
LINE
  5
2C6
330
1F
100
AcDbEntity
  8
0
  6
SLD-Solid
 62
     7
370
    25
100
AcDbLine
 10
26.065447824
 20
33.0771637036
 30
0.0
 11
26.065447824
 21
32.7341637036
 31
0.0
  0
LINE
  5
2C7
330
1F
100
AcDbEntity
  8
0
  6
SLD-Solid
 62
     7
370
    25
100
AcDbLine
 10
25.868447824
 20
32.7341637036
 30
0.0
 11
26.065447824
 21
32.7341637036
 31
0.0
  0
LINE
  5
2C8
330
1F
100
AcDbEntity
  8
0
  6
SLD-Solid
 62
     7
370
    25
100
AcDbLine
 10
25.868447824
 20
33.0771637036
 30
0.0
 11
25.868447824
 21
32.7341637036
 31
0.0
  0
LINE
  5
2C9
330
1F
100
AcDbEntity
  8
0
  6
SLD-Solid
 62
     7
370
    25
100
AcDbLine
 10
25.743447824
 20
33.2091637036
 30
0.0
 11
25.868447824
 21
33.0771637036
 31
0.0
  0
LINE
  5
2CA
330
1F
100
AcDbEntity
  8
0
  6
SLD-Solid
 62
     7
370
    25
100
AcDbLine
 10
25.743447824
 20
33.4771637036
 30
0.0
 11
25.743447824
 21
33.2091637036
 31
0.0
  0
LINE
  5
2CB
330
1F
100
AcDbEntity
  8
0
  6
SLD-Solid
 62
     7
370
    25
100
AcDbLine
 10
26.190447824
 20
33.4771637036
 30
0.0
 11
25.743447824
 21
33.4771637036
 31
0.0
  0
CIRCLE
  5
2CC
330
1F
100
AcDbEntity
  8
0
  6
SLD-Solid
 62
     7
370
    25
100
AcDbCircle
 10
25.966947824
 20
33.2771637036
 30
0.0
 40
0.1460104235265725
  0
CIRCLE
  5
2CD
330
1F
100
AcDbEntity
  8
0
  6
SLD-Solid
 62
     7
370
    25
100
AcDbCircle
 10
25.966947824
 20
33.2771637036
 30
0.0
 40
0.1355000000000004
  0
LINE
  5
2CE
330
1F
100
AcDbEntity
  8
0
  6
SLD-Solid
 62
     7
370
    25
100
AcDbLine
 10
26.190447824
 20
32.6091637036
 30
0.0
 11
26.065447824
 21
32.7341637036
 31
0.0
  0
LINE
  5
2CF
330
1F
100
AcDbEntity
  8
0
  6
SLD-Solid
 62
     7
370
    25
100
AcDbLine
 10
26.190447824
 20
32.6091637036
 30
0.0
 11
26.190447824
 21
33.2091637036
 31
0.0
  0
LINE
  5
2D0
330
1F
100
AcDbEntity
  8
0
  6
SLD-Solid
 62
     7
370
    25
100
AcDbLine
 10
25.743447824
 20
32.6091637036
 30
0.0
 11
25.868447824
 21
32.7341637036
 31
0.0
  0
LINE
  5
2D1
330
1F
100
AcDbEntity
  8
0
  6
SLD-Solid
 62
     7
370
    25
100
AcDbLine
 10
26.190447824
 20
32.6091637036
 30
0.0
 11
25.743447824
 21
32.6091637036
 31
0.0
  0
LINE
  5
2D2
330
1F
100
AcDbEntity
  8
0
  6
SLD-Solid
 62
     7
370
    25
100
AcDbLine
 10
25.743447824
 20
32.6091637036
 30
0.0
 11
25.743447824
 21
33.2091637036
 31
0.0
  0
LINE
  5
2D3
330
1F
100
AcDbEntity
  8
0
  6
SLD-Solid
 62
     7
370
    25
100
AcDbLine
 10
12.637447824
 20
33.4771637036
 30
0.0
 11
12.637447824
 21
33.2091637036
 31
0.0
  0
LINE
  5
2D4
330
1F
100
AcDbEntity
  8
0
  6
SLD-Solid
 62
     7
370
    25
100
AcDbLine
 10
12.637447824
 20
33.2091637036
 30
0.0
 11
12.512447824
 21
33.0771637036
 31
0.0
  0
LINE
  5
2D5
330
1F
100
AcDbEntity
  8
0
  6
SLD-Solid
 62
     7
370
    25
100
AcDbLine
 10
12.512447824
 20
33.0771637036
 30
0.0
 11
12.512447824
 21
32.7341637036
 31
0.0
  0
LINE
  5
2D6
330
1F
100
AcDbEntity
  8
0
  6
SLD-Solid
 62
     7
370
    25
100
AcDbLine
 10
12.315447824
 20
32.7341637036
 30
0.0
 11
12.512447824
 21
32.7341637036
 31
0.0
  0
LINE
  5
2D7
330
1F
100
AcDbEntity
  8
0
  6
SLD-Solid
 62
     7
370
    25
100
AcDbLine
 10
12.315447824
 20
33.0771637036
 30
0.0
 11
12.315447824
 21
32.7341637036
 31
0.0
  0
LINE
  5
2D8
330
1F
100
AcDbEntity
  8
0
  6
SLD-Solid
 62
     7
370
    25
100
AcDbLine
 10
12.190447824
 20
33.2091637036
 30
0.0
 11
12.315447824
 21
33.0771637036
 31
0.0
  0
LINE
  5
2D9
330
1F
100
AcDbEntity
  8
0
  6
SLD-Solid
 62
     7
370
    25
100
AcDbLine
 10
12.190447824
 20
33.4771637036
 30
0.0
 11
12.190447824
 21
33.2091637036
 31
0.0
  0
LINE
  5
2DA
330
1F
100
AcDbEntity
  8
0
  6
SLD-Solid
 62
     7
370
    25
100
AcDbLine
 10
12.637447824
 20
33.4771637036
 30
0.0
 11
12.190447824
 21
33.4771637036
 31
0.0
  0
CIRCLE
  5
2DB
330
1F
100
AcDbEntity
  8
0
  6
SLD-Solid
 62
     7
370
    25
100
AcDbCircle
 10
12.413947824
 20
33.2771637036
 30
0.0
 40
0.1460104235265671
  0
CIRCLE
  5
2DC
330
1F
100
AcDbEntity
  8
0
  6
SLD-Solid
 62
     7
370
    25
100
AcDbCircle
 10
12.413947824
 20
33.2771637036
 30
0.0
 40
0.1354999999999986
  0
LINE
  5
2DD
330
1F
100
AcDbEntity
  8
0
  6
SLD-Solid
 62
     7
370
    25
100
AcDbLine
 10
12.637447824
 20
32.6091637036
 30
0.0
 11
12.512447824
 21
32.7341637036
 31
0.0
  0
LINE
  5
2DE
330
1F
100
AcDbEntity
  8
0
  6
SLD-Solid
 62
     7
370
    25
100
AcDbLine
 10
12.637447824
 20
32.6091637036
 30
0.0
 11
12.637447824
 21
33.2091637036
 31
0.0
  0
LINE
  5
2DF
330
1F
100
AcDbEntity
  8
0
  6
SLD-Solid
 62
     7
370
    25
100
AcDbLine
 10
12.190447824
 20
32.6091637036
 30
0.0
 11
12.315447824
 21
32.7341637036
 31
0.0
  0
LINE
  5
2E0
330
1F
100
AcDbEntity
  8
0
  6
SLD-Solid
 62
     7
370
    25
100
AcDbLine
 10
12.637447824
 20
32.6091637036
 30
0.0
 11
12.190447824
 21
32.6091637036
 31
0.0
  0
LINE
  5
2E1
330
1F
100
AcDbEntity
  8
0
  6
SLD-Solid
 62
     7
370
    25
100
AcDbLine
 10
12.190447824
 20
32.6091637036
 30
0.0
 11
12.190447824
 21
33.2091637036
 31
0.0
  0
LINE
  5
2E2
330
1F
100
AcDbEntity
  8
0
  6
SLD-Solid
 62
     7
370
    25
100
AcDbLine
 10
10.220447824
 20
33.0471637036
 30
0.0
 11
10.220447824
 21
21.3006637036
 31
0.0
  0
LINE
  5
2E3
330
1F
100
AcDbEntity
  8
0
  6
SLD-Solid
 62
     7
370
    25
100
AcDbLine
 10
10.220447824
 20
20.8536637036
 30
0.0
 11
10.220447824
 21
9.1071637036
 31
0.0
  0
LINE
  5
2E4
330
1F
100
AcDbEntity
  8
0
  6
SLD-Solid
 62
     7
370
    25
100
AcDbLine
 10
28.160447824
 20
33.0471637036
 30
0.0
 11
26.190447824
 21
33.0471637036
 31
0.0
  0
LINE
  5
2E5
330
1F
100
AcDbEntity
  8
0
  6
SLD-Solid
 62
     7
370
    25
100
AcDbLine
 10
25.743447824
 20
33.0471637036
 30
0.0
 11
12.637447824
 21
33.0471637036
 31
0.0
  0
LINE
  5
2E6
330
1F
100
AcDbEntity
  8
0
  6
SLD-Solid
 62
     7
370
    25
100
AcDbLine
 10
12.190447824
 20
33.0471637036
 30
0.0
 11
10.220447824
 21
33.0471637036
 31
0.0
  0
LINE
  5
2E7
330
1F
100
AcDbEntity
  8
0
  6
SLD-Solid
 62
     7
370
    25
100
AcDbLine
 10
28.160447824
 20
9.1071637036
 30
0.0
 11
28.160447824
 21
20.8536637036
 31
0.0
  0
LINE
  5
2E8
330
1F
100
AcDbEntity
  8
0
  6
SLD-Solid
 62
     7
370
    25
100
AcDbLine
 10
28.160447824
 20
21.3006637036
 30
0.0
 11
28.160447824
 21
33.0471637036
 31
0.0
  0
LINE
  5
2E9
330
1F
100
AcDbEntity
  8
0
  6
SLD-Solid
 62
     7
370
    25
100
AcDbLine
 10
10.220447824
 20
9.1071637036
 30
0.0
 11
12.190447824
 21
9.1071637036
 31
0.0
  0
LINE
  5
2EA
330
1F
100
AcDbEntity
  8
0
  6
SLD-Solid
 62
     7
370
    25
100
AcDbLine
 10
12.637447824
 20
9.1071637036
 30
0.0
 11
25.743447824
 21
9.1071637036
 31
0.0
  0
LINE
  5
2EB
330
1F
100
AcDbEntity
  8
0
  6
SLD-Solid
 62
     7
370
    25
100
AcDbLine
 10
26.190447824
 20
9.1071637036
 30
0.0
 11
28.160447824
 21
9.1071637036
 31
0.0
  0
LINE
  5
2EC
330
1F
100
AcDbEntity
  8
0
  6
SLD-Solid
 62
     7
370
    25
100
AcDbLine
 10
28.190447824
 20
33.0771637036
 30
0.0
 11
28.160447824
 21
33.0471637036
 31
0.0
  0
LINE
  5
2ED
330
1F
100
AcDbEntity
  8
0
  6
SLD-Solid
 62
     7
370
    25
100
AcDbLine
 10
28.190447824
 20
33.0771637036
 30
0.0
 11
28.190447824
 21
21.3006637036
 31
0.0
  0
LINE
  5
2EE
330
1F
100
AcDbEntity
  8
0
  6
SLD-Solid
 62
     7
370
    25
100
AcDbLine
 10
28.190447824
 20
20.8536637036
 30
0.0
 11
28.190447824
 21
9.0771637036
 31
0.0
  0
LINE
  5
2EF
330
1F
100
AcDbEntity
  8
0
  6
SLD-Solid
 62
     7
370
    25
100
AcDbLine
 10
28.160447824
 20
9.1071637036
 30
0.0
 11
28.190447824
 21
9.0771637036
 31
0.0
  0
LINE
  5
2F0
330
1F
100
AcDbEntity
  8
0
  6
SLD-Solid
 62
     7
370
    25
100
AcDbLine
 10
28.190447824
 20
9.0771637036
 30
0.0
 11
26.190447824
 21
9.0771637036
 31
0.0
  0
LINE
  5
2F1
330
1F
100
AcDbEntity
  8
0
  6
SLD-Solid
 62
     7
370
    25
100
AcDbLine
 10
25.743447824
 20
9.0771637036
 30
0.0
 11
12.637447824
 21
9.0771637036
 31
0.0
  0
LINE
  5
2F2
330
1F
100
AcDbEntity
  8
0
  6
SLD-Solid
 62
     7
370
    25
100
AcDbLine
 10
12.190447824
 20
9.0771637036
 30
0.0
 11
10.190447824
 21
9.0771637036
 31
0.0
  0
LINE
  5
2F3
330
1F
100
AcDbEntity
  8
0
  6
SLD-Solid
 62
     7
370
    25
100
AcDbLine
 10
10.220447824
 20
9.1071637036
 30
0.0
 11
10.190447824
 21
9.0771637036
 31
0.0
  0
LINE
  5
2F4
330
1F
100
AcDbEntity
  8
0
  6
SLD-Solid
 62
     7
370
    25
100
AcDbLine
 10
10.190447824
 20
33.0771637036
 30
0.0
 11
12.190447824
 21
33.0771637036
 31
0.0
  0
LINE
  5
2F5
330
1F
100
AcDbEntity
  8
0
  6
SLD-Solid
 62
     7
370
    25
100
AcDbLine
 10
12.637447824
 20
33.0771637036
 30
0.0
 11
25.743447824
 21
33.0771637036
 31
0.0
  0
LINE
  5
2F6
330
1F
100
AcDbEntity
  8
0
  6
SLD-Solid
 62
     7
370
    25
100
AcDbLine
 10
26.190447824
 20
33.0771637036
 30
0.0
 11
28.190447824
 21
33.0771637036
 31
0.0
  0
LINE
  5
2F7
330
1F
100
AcDbEntity
  8
0
  6
SLD-Solid
 62
     7
370
    25
100
AcDbLine
 10
10.190447824
 20
33.0771637036
 30
0.0
 11
10.220447824
 21
33.0471637036
 31
0.0
  0
LINE
  5
2F8
330
1F
100
AcDbEntity
  8
0
  6
SLD-Solid
 62
     7
370
    25
100
AcDbLine
 10
10.190447824
 20
9.0771637036
 30
0.0
 11
10.190447824
 21
20.8536637036
 31
0.0
  0
LINE
  5
2F9
330
1F
100
AcDbEntity
  8
0
  6
SLD-Solid
 62
     7
370
    25
100
AcDbLine
 10
10.190447824
 20
21.3006637036
 30
0.0
 11
10.190447824
 21
33.0771637036
 31
0.0
  0
LINE
  5
2FA
330
1F
100
AcDbEntity
  8
DIMS
100
AcDbLine
 10
8.512385904
 20
4.0771637036
 30
0.0
 11
42.7346241864
 21
4.0771637036
 31
0.0
  0
LINE
  5
2FB
330
1F
100
AcDbEntity
  8
DIMS
100
AcDbLine
 10
8.9210461241
 20
4.0771637036
 30
0.0
 11
8.9210461241
 21
4.449129696
 31
0.0
  0
LINE
  5
2FC
330
1F
100
AcDbEntity
  8
DIMS
100
AcDbLine
 10
8.9210461241
 20
4.449129696
 30
0.0
 11
9.5142381703
 21
4.6958686898
 31
0.0
  0
LINE
  5
2FD
330
1F
100
AcDbEntity
  8
DIMS
100
AcDbLine
 10
9.5142381703
 20
4.6958686898
 30
0.0
 11
8.3584309875
 21
4.8365224739
 31
0.0
  0
LINE
  5
2FE
330
1F
100
AcDbEntity
  8
DIMS
100
AcDbLine
 10
8.3584309875
 20
4.8365224739
 30
0.0
 11
8.9210461241
 21
5.0705429628
 31
0.0
  0
LINE
  5
2FF
330
1F
100
AcDbEntity
  8
DIMS
100
AcDbLine
 10
8.9210461241
 20
5.0705429628
 30
0.0
 11
8.9210461241
 21
5.3930222286
 31
0.0
  0
DIMENSION
  5
300
330
1F
100
AcDbEntity
  8
DIMS
100
AcDbDimension
  2
_D
 10
8.9243060917
 20
9.0771637036
 30
0.0
 11
8.9243060917
 21
4.976376302
 31
0.0
 70
   160
  1
                                                                                                     48" (1220mm) position may vary depending on installation    \P  \P 
 71
     2
 42
-1.0
  3
SLDDIMSTYLE0
100
AcDbAlignedDimension
 13
8.512385904
 23
4.0771637036
 33
0.0
 14
10.190447824
 24
9.0771637036
 34
0.0
 50
90.0
100
AcDbRotatedDimension
  0
DIMENSION
  5
312
330
1F
100
AcDbEntity
  8
DIMS
100
AcDbDimension
  2
_D_1
 10
30.1652509736
 20
9.0771637036
 30
0.0
 11
30.1652509736
 21
21.0771637036
 31
0.0
 70
   160
  1
<>
 71
     2
 42
-1.0
  3
SLDDIMSTYLE0
100
AcDbAlignedDimension
 13
28.190447824
 23
33.0771637036
 33
0.0
 14
28.190447824
 24
9.0771637036
 34
0.0
 50
90.0
100
AcDbRotatedDimension
  0
DIMENSION
  5
31D
330
1F
100
AcDbEntity
  8
DIMS
100
AcDbDimension
  2
_D_2
 10
10.190447824
 20
6.8661400815
 30
0.0
 11
17.6722786349
 21
6.8661400815
 31
0.0
 70
   160
  1
<>
 71
     2
 42
-1.0
  3
SLDDIMSTYLE0
100
AcDbAlignedDimension
 13
28.190447824
 23
9.0771637036
 33
0.0
 14
10.190447824
 24
9.0771637036
 34
0.0
 50
0.0
100
AcDbRotatedDimension
  0
DIMENSION
  5
328
330
1F
100
AcDbEntity
  8
DIMS
100
AcDbDimension
  2
_D_3
 10
25.966947824
 20
7.8110219713
 30
0.0
 11
22.2391351769
 21
7.8110219713
 31
0.0
 70
   160
  1
<>
 71
     2
 42
-1.0
  3
SLDDIMSTYLE1
100
AcDbAlignedDimension
 13
12.413947824
 23
8.8771637036
 33
0.0
 14
25.966947824
 24
8.8771637036
 34
0.0
 50
0.0
100
AcDbRotatedDimension
  0
DIMENSION
  5
338
330
1F
100
AcDbEntity
  8
DIMS
100
AcDbDimension
  2
_D_4
 10
25.966947824
 20
7.8110219713
 30
0.0
 11
27.1273168348
 21
7.8110219713
 31
0.0
 70
   160
  1
<>
 71
     2
 42
-1.0
  3
SLDDIMSTYLE1
100
AcDbAlignedDimension
 13
28.190447824
 23
9.0771637036
 33
0.0
 14
25.966947824
 24
8.8771637036
 34
0.0
100
AcDbRotatedDimension
  0
DIMENSION
  5
347
330
1F
100
AcDbEntity
  8
DIMS
100
AcDbDimension
  2
_D_5
 10
29.2203690838
 20
21.0771637036
 30
0.0
 11
29.2203690838
 21
15.0771637036
 31
0.0
 70
   160
  1
<>
 71
     2
 42
-1.0
  3
SLDDIMSTYLE0
100
AcDbAlignedDimension
 13
28.190447824
 23
9.0771637036
 33
0.0
 14
28.390447824
 24
21.0771637036
 34
0.0
 50
90.0
100
AcDbRotatedDimension
  0
DIMENSION
  5
352
330
1F
100
AcDbEntity
  8
DIMS
100
AcDbDimension
  2
_D_6
 10
29.2203690838
 20
33.0771637036
 30
0.0
 11
29.2203690838
 21
27.0771637036
 31
0.0
 70
   160
  1
<>
 71
     2
 42
-1.0
  3
SLDDIMSTYLE0
100
AcDbAlignedDimension
 13
28.390447824
 23
21.0771637036
 33
0.0
 14
28.190447824
 24
33.0771637036
 34
0.0
 50
90.0
100
AcDbRotatedDimension
  0
DIMENSION
  5
35D
330
1F
100
AcDbEntity
  8
DIMS
100
AcDbDimension
  2
_D_7
 10
30.1652509736
 20
33.0771637036
 30
0.0
 11
30.1652509736
 21
33.870864491
 31
0.0
 70
   160
  1
<>
 71
     2
 42
-1.0
  3
SLDDIMSTYLE2
100
AcDbAlignedDimension
 13
25.966947824
 23
33.2771637036
 33
0.0
 14
28.190447824
 24
33.0771637036
 34
0.0
 50
90.0
100
AcDbRotatedDimension
  0
DIMENSION
  5
36D
330
1F
100
AcDbEntity
  8
DIMS
100
AcDbDimension
  2
_D_8
 10
29.2203690838
 20
8.8771637036
 30
0.0
 11
29.2203690838
 21
7.9233095503
 31
0.0
 70
   160
  1
<>
 71
     2
 42
-1.0
  3
SLDDIMSTYLE2
100
AcDbAlignedDimension
 13
28.190447824
 23
9.0771637036
 33
0.0
 14
25.966947824
 24
8.8771637036
 34
0.0
 50
90.0
100
AcDbRotatedDimension
  0
DIMENSION
  5
37C
330
1F
100
AcDbEntity
  8
DIMS
100
AcDbDimension
  2
_D_9
 10
12.413947824
 20
7.8110219713
 30
0.0
 11
11.302197824
 21
7.8110219713
 31
0.0
 70
   160
  1
<>
 71
     2
 42
-1.0
  3
SLDDIMSTYLE1
100
AcDbAlignedDimension
 13
10.190447824
 23
9.0771637036
 33
0.0
 14
12.413947824
 24
8.8771637036
 34
0.0
100
AcDbRotatedDimension
  0
MTEXT
  5
38B
330
1F
100
AcDbEntity
  8
NOTES
100
AcDbMText
 10
17.4218333831
 20
8.5713800754
 30
0.0
 40
0.5
 41
0.0
 71
     1
 72
     1
  1
Front view
  7
SLDTEXTSTYLE1
 73
     1
 44
1.0
  0
MTEXT
  5
38C
330
1F
100
AcDbEntity
  8
NOTES
100
AcDbMText
 10
9.5670787404
 20
4.6789243373
 30
0.0
 40
0.5
 41
0.0
 71
     1
 72
     1
  1
Floor
  7
SLDTEXTSTYLE1
 73
     1
 44
1.0
  0
LINE
  5
38D
330
1F
100
AcDbEntity
  8
0
  6
SLD-Solid
 62
     7
370
    25
100
AcDbLine
 10
39.9159787394
 20
33.2071637036
 30
0.0
 11
40.0659787394
 21
33.270834926
 31
0.0
  0
LINE
  5
38E
330
1F
100
AcDbEntity
  8
0
  6
SLD-Solid
 62
     7
370
    25
100
AcDbLine
 10
40.0659787394
 20
33.2834924811
 30
0.0
 11
39.9159787394
 21
33.3471637036
 31
0.0
  0
LINE
  5
38F
330
1F
100
AcDbEntity
  8
0
  6
SLD-Solid
 62
     7
370
    25
100
AcDbLine
 10
39.1209787394
 20
33.2071637036
 30
0.0
 11
39.9159787394
 21
33.2071637036
 31
0.0
  0
LINE
  5
390
330
1F
100
AcDbEntity
  8
0
  6
SLD-Solid
 62
     7
370
    25
100
AcDbLine
 10
39.9159787394
 20
33.3471637036
 30
0.0
 11
39.1209787394
 21
33.3471637036
 31
0.0
  0
LINE
  5
391
330
1F
100
AcDbEntity
  8
0
  6
SLD-Solid
 62
     7
370
    25
100
AcDbLine
 10
39.9159787394
 20
21.0071637036
 30
0.0
 11
40.0659787394
 21
21.070834926
 31
0.0
  0
LINE
  5
392
330
1F
100
AcDbEntity
  8
0
  6
SLD-Solid
 62
     7
370
    25
100
AcDbLine
 10
40.0659787394
 20
21.0834924811
 30
0.0
 11
39.9159787394
 21
21.1471637036
 31
0.0
  0
LINE
  5
393
330
1F
100
AcDbEntity
  8
0
  6
SLD-Solid
 62
     7
370
    25
100
AcDbLine
 10
39.1209787394
 20
21.0071637036
 30
0.0
 11
39.9159787394
 21
21.0071637036
 31
0.0
  0
LINE
  5
394
330
1F
100
AcDbEntity
  8
0
  6
SLD-Solid
 62
     7
370
    25
100
AcDbLine
 10
39.9159787394
 20
21.1471637036
 30
0.0
 11
39.1209787394
 21
21.1471637036
 31
0.0
  0
LINE
  5
395
330
1F
100
AcDbEntity
  8
0
  6
SLD-Solid
 62
     7
370
    25
100
AcDbLine
 10
39.9159787394
 20
8.8071637036
 30
0.0
 11
40.0659787394
 21
8.870834926
 31
0.0
  0
LINE
  5
396
330
1F
100
AcDbEntity
  8
0
  6
SLD-Solid
 62
     7
370
    25
100
AcDbLine
 10
40.0659787394
 20
8.8834924811
 30
0.0
 11
39.9159787394
 21
8.9471637036
 31
0.0
  0
LINE
  5
397
330
1F
100
AcDbEntity
  8
0
  6
SLD-Solid
 62
     7
370
    25
100
AcDbLine
 10
39.1209787394
 20
8.8071637036
 30
0.0
 11
39.9159787394
 21
8.8071637036
 31
0.0
  0
LINE
  5
398
330
1F
100
AcDbEntity
  8
0
  6
SLD-Solid
 62
     7
370
    25
100
AcDbLine
 10
39.9159787394
 20
8.9471637036
 30
0.0
 11
39.1209787394
 21
8.9471637036
 31
0.0
  0
LINE
  5
399
330
1F
100
AcDbEntity
  8
0
  6
SLD-Solid
 62
     7
370
    25
100
AcDbLine
 10
40.0659787394
 20
33.2834924811
 30
0.0
 11
40.0659787394
 21
33.270834926
 31
0.0
  0
LINE
  5
39A
330
1F
100
AcDbEntity
  8
0
  6
SLD-Solid
 62
     7
370
    25
100
AcDbLine
 10
39.9159787394
 20
33.2071637036
 30
0.0
 11
39.9159787394
 21
33.3471637036
 31
0.0
  0
LINE
  5
39B
330
1F
100
AcDbEntity
  8
0
  6
SLD-Solid
 62
     7
370
    25
100
AcDbLine
 10
40.0659787394
 20
21.0834924811
 30
0.0
 11
40.0659787394
 21
21.070834926
 31
0.0
  0
LINE
  5
39C
330
1F
100
AcDbEntity
  8
0
  6
SLD-Solid
 62
     7
370
    25
100
AcDbLine
 10
39.9159787394
 20
21.0071637036
 30
0.0
 11
39.9159787394
 21
21.1471637036
 31
0.0
  0
LINE
  5
39D
330
1F
100
AcDbEntity
  8
0
  6
SLD-Solid
 62
     7
370
    25
100
AcDbLine
 10
40.0659787394
 20
8.8834924811
 30
0.0
 11
40.0659787394
 21
8.870834926
 31
0.0
  0
LINE
  5
39E
330
1F
100
AcDbEntity
  8
0
  6
SLD-Solid
 62
     7
370
    25
100
AcDbLine
 10
39.9159787394
 20
8.8071637036
 30
0.0
 11
39.9159787394
 21
8.9471637036
 31
0.0
  0
LINE
  5
39F
330
1F
100
AcDbEntity
  8
0
  6
SLD-Solid
 62
     7
370
    25
100
AcDbLine
 10
38.7959787394
 20
9.5451637036
 30
0.0
 11
38.9159787394
 21
9.5451637036
 31
0.0
  0
LINE
  5
3A0
330
1F
100
AcDbEntity
  8
0
  6
SLD-Solid
 62
     7
370
    25
100
AcDbLine
 10
38.9159787394
 20
9.0771637036
 30
0.0
 11
38.9159787394
 21
9.1071637036
 31
0.0
  0
LINE
  5
3A1
330
1F
100
AcDbEntity
  8
0
  6
SLD-Solid
 62
     7
370
    25
100
AcDbLine
 10
39.1209787394
 20
9.0771637036
 30
0.0
 11
39.0828291331
 21
9.0771637036
 31
0.0
  0
LINE
  5
3A2
330
1F
100
AcDbEntity
  8
0
  6
SLD-Solid
 62
     7
370
    25
100
AcDbLine
 10
38.9459787394
 20
9.0771637036
 30
0.0
 11
38.9159787394
 21
9.0771637036
 31
0.0
  0
LINE
  5
3A3
330
1F
100
AcDbEntity
  8
0
  6
SLD-Solid
 62
     7
370
    25
100
AcDbLine
 10
39.1209787394
 20
9.0771637036
 30
0.0
 11
39.1209787394
 21
8.6771637036
 31
0.0
  0
LINE
  5
3A4
330
1F
100
AcDbEntity
  8
0
  6
SLD-Solid
 62
     7
370
    25
100
AcDbLine
 10
38.7159787394
 20
8.6771637036
 30
0.0
 11
39.1209787394
 21
8.6771637036
 31
0.0
  0
LINE
  5
3A5
330
1F
100
AcDbEntity
  8
0
  6
SLD-Solid
 62
     7
370
    25
100
AcDbLine
 10
38.7159787394
 20
8.6771637036
 30
0.0
 11
38.7159787394
 21
8.9451637036
 31
0.0
  0
LINE
  5
3A6
330
1F
100
AcDbEntity
  8
0
  6
SLD-Solid
 62
     7
370
    25
100
AcDbLine
 10
38.7959787394
 20
8.9451637036
 30
0.0
 11
38.7159787394
 21
8.9451637036
 31
0.0
  0
LINE
  5
3A7
330
1F
100
AcDbEntity
  8
0
  6
SLD-Solid
 62
     7
370
    25
100
AcDbLine
 10
38.7959787394
 20
9.5451637036
 30
0.0
 11
38.7959787394
 21
8.9451637036
 31
0.0
  0
LINE
  5
3A8
330
1F
100
AcDbEntity
  8
0
  6
SLD-Solid
 62
     7
370
    25
100
AcDbLine
 10
38.7959787394
 20
8.9451637036
 30
0.0
 11
38.7159787394
 21
9.0771637036
 31
0.0
  0
LINE
  5
3A9
330
1F
100
AcDbEntity
  8
0
  6
SLD-Solid
 62
     7
370
    25
100
AcDbLine
 10
38.7159787394
 20
8.9451637036
 30
0.0
 11
38.7159787394
 21
9.0771637036
 31
0.0
  0
LINE
  5
3AA
330
1F
100
AcDbEntity
  8
0
  6
SLD-Solid
 62
     7
370
    25
100
AcDbLine
 10
38.7959787394
 20
9.5451637036
 30
0.0
 11
38.7159787394
 21
9.4201637036
 31
0.0
  0
LINE
  5
3AB
330
1F
100
AcDbEntity
  8
0
  6
SLD-Solid
 62
     7
370
    25
100
AcDbLine
 10
38.7159787394
 20
9.0771637036
 30
0.0
 11
38.7159787394
 21
9.4201637036
 31
0.0
  0
LINE
  5
3AC
330
1F
100
AcDbEntity
  8
0
  6
SLD-Solid
 62
     7
370
    25
100
AcDbLine
 10
38.7878291331
 20
9.5451637036
 30
0.0
 11
38.7959787394
 21
9.5451637036
 31
0.0
  0
LINE
  5
3AD
330
1F
100
AcDbEntity
  8
0
  6
SLD-Solid
 62
     7
370
    25
100
AcDbLine
 10
38.7078291331
 20
8.6771637036
 30
0.0
 11
38.7078291331
 21
8.9451637036
 31
0.0
  0
LINE
  5
3AE
330
1F
100
AcDbEntity
  8
0
  6
SLD-Solid
 62
     7
370
    25
100
AcDbLine
 10
38.7159787394
 20
8.9451637036
 30
0.0
 11
38.7078291331
 21
8.9451637036
 31
0.0
  0
LINE
  5
3AF
330
1F
100
AcDbEntity
  8
0
  6
SLD-Solid
 62
     7
370
    25
100
AcDbLine
 10
38.7878291331
 20
9.5451637036
 30
0.0
 11
38.7878291331
 21
9.5324299437
 31
0.0
  0
LINE
  5
3B0
330
1F
100
AcDbEntity
  8
0
  6
SLD-Solid
 62
     7
370
    25
100
AcDbLine
 10
38.7078291331
 20
8.6771637036
 30
0.0
 11
38.7159787394
 21
8.6771637036
 31
0.0
  0
LINE
  5
3B1
330
1F
100
AcDbEntity
  8
0
  6
SLD-Solid
 62
     7
370
    25
100
AcDbLine
 10
38.7878291331
 20
9.5451637036
 30
0.0
 11
38.7078291331
 21
9.4201637036
 31
0.0
  0
LINE
  5
3B2
330
1F
100
AcDbEntity
  8
0
  6
SLD-Solid
 62
     7
370
    25
100
AcDbLine
 10
38.7159787394
 20
9.0637168532
 30
0.0
 11
38.7078291331
 21
9.0771637036
 31
0.0
  0
LINE
  5
3B3
330
1F
100
AcDbEntity
  8
0
  6
SLD-Solid
 62
     7
370
    25
100
AcDbLine
 10
38.7078291331
 20
9.0771637036
 30
0.0
 11
38.7078291331
 21
9.4201637036
 31
0.0
  0
LINE
  5
3B4
330
1F
100
AcDbEntity
  8
0
  6
SLD-Solid
 62
     7
370
    25
100
AcDbLine
 10
38.7078291331
 20
8.9451637036
 30
0.0
 11
38.7078291331
 21
9.0771637036
 31
0.0
  0
LINE
  5
3B5
330
1F
100
AcDbEntity
  8
0
  6
SLD-Solid
 62
     7
370
    25
100
AcDbLine
 10
38.7159787394
 20
20.8536637036
 30
0.0
 11
38.7159787394
 21
21.3006637036
 31
0.0
  0
LINE
  5
3B6
330
1F
100
AcDbEntity
  8
0
  6
SLD-Solid
 62
     7
370
    25
100
AcDbLine
 10
38.7159787394
 20
20.8536637036
 30
0.0
 11
39.1209787394
 21
20.8536637036
 31
0.0
  0
LINE
  5
3B7
330
1F
100
AcDbEntity
  8
0
  6
SLD-Solid
 62
     7
370
    25
100
AcDbLine
 10
38.7159787394
 20
21.3006637036
 30
0.0
 11
39.1209787394
 21
21.3006637036
 31
0.0
  0
LINE
  5
3B8
330
1F
100
AcDbEntity
  8
0
  6
SLD-Solid
 62
     7
370
    25
100
AcDbLine
 10
39.1209787394
 20
21.3006637036
 30
0.0
 11
39.1209787394
 21
20.8536637036
 31
0.0
  0
LINE
  5
3B9
330
1F
100
AcDbEntity
  8
0
  6
SLD-Solid
 62
     7
370
    25
100
AcDbLine
 10
38.7959787394
 20
33.2091637036
 30
0.0
 11
38.7159787394
 21
33.2091637036
 31
0.0
  0
LINE
  5
3BA
330
1F
100
AcDbEntity
  8
0
  6
SLD-Solid
 62
     7
370
    25
100
AcDbLine
 10
38.7159787394
 20
33.4771637036
 30
0.0
 11
38.7159787394
 21
33.2091637036
 31
0.0
  0
LINE
  5
3BB
330
1F
100
AcDbEntity
  8
0
  6
SLD-Solid
 62
     7
370
    25
100
AcDbLine
 10
39.1209787394
 20
33.0771637036
 30
0.0
 11
39.1209787394
 21
33.4771637036
 31
0.0
  0
LINE
  5
3BC
330
1F
100
AcDbEntity
  8
0
  6
SLD-Solid
 62
     7
370
    25
100
AcDbLine
 10
38.9159787394
 20
33.0771637036
 30
0.0
 11
38.9159787394
 21
33.0471637036
 31
0.0
  0
LINE
  5
3BD
330
1F
100
AcDbEntity
  8
0
  6
SLD-Solid
 62
     7
370
    25
100
AcDbLine
 10
38.7959787394
 20
32.6091637036
 30
0.0
 11
38.9159787394
 21
32.6091637036
 31
0.0
  0
LINE
  5
3BE
330
1F
100
AcDbEntity
  8
0
  6
SLD-Solid
 62
     7
370
    25
100
AcDbLine
 10
38.7959787394
 20
32.6091637036
 30
0.0
 11
38.7959787394
 21
33.2091637036
 31
0.0
  0
LINE
  5
3BF
330
1F
100
AcDbEntity
  8
0
  6
SLD-Solid
 62
     7
370
    25
100
AcDbLine
 10
39.1209787394
 20
33.0771637036
 30
0.0
 11
39.0828291331
 21
33.0771637036
 31
0.0
  0
LINE
  5
3C0
330
1F
100
AcDbEntity
  8
0
  6
SLD-Solid
 62
     7
370
    25
100
AcDbLine
 10
38.9459787394
 20
33.0771637036
 30
0.0
 11
38.9159787394
 21
33.0771637036
 31
0.0
  0
LINE
  5
3C1
330
1F
100
AcDbEntity
  8
0
  6
SLD-Solid
 62
     7
370
    25
100
AcDbLine
 10
38.7159787394
 20
33.4771637036
 30
0.0
 11
39.1209787394
 21
33.4771637036
 31
0.0
  0
LINE
  5
3C2
330
1F
100
AcDbEntity
  8
0
  6
SLD-Solid
 62
     7
370
    25
100
AcDbLine
 10
38.7959787394
 20
33.2091637036
 30
0.0
 11
38.7159787394
 21
33.0771637036
 31
0.0
  0
LINE
  5
3C3
330
1F
100
AcDbEntity
  8
0
  6
SLD-Solid
 62
     7
370
    25
100
AcDbLine
 10
38.7159787394
 20
33.2091637036
 30
0.0
 11
38.7159787394
 21
33.0771637036
 31
0.0
  0
LINE
  5
3C4
330
1F
100
AcDbEntity
  8
0
  6
SLD-Solid
 62
     7
370
    25
100
AcDbLine
 10
38.7159787394
 20
33.0771637036
 30
0.0
 11
38.7159787394
 21
32.7341637036
 31
0.0
  0
LINE
  5
3C5
330
1F
100
AcDbEntity
  8
0
  6
SLD-Solid
 62
     7
370
    25
100
AcDbLine
 10
38.7959787394
 20
32.6091637036
 30
0.0
 11
38.7159787394
 21
32.7341637036
 31
0.0
  0
LINE
  5
3C6
330
1F
100
AcDbEntity
  8
0
  6
SLD-Solid
 62
     7
370
    25
100
AcDbLine
 10
38.7159787394
 20
33.2091637036
 30
0.0
 11
38.7078291331
 21
33.2091637036
 31
0.0
  0
LINE
  5
3C7
330
1F
100
AcDbEntity
  8
0
  6
SLD-Solid
 62
     7
370
    25
100
AcDbLine
 10
38.7078291331
 20
33.4771637036
 30
0.0
 11
38.7078291331
 21
33.2091637036
 31
0.0
  0
LINE
  5
3C8
330
1F
100
AcDbEntity
  8
0
  6
SLD-Solid
 62
     7
370
    25
100
AcDbLine
 10
38.7078291331
 20
33.4771637036
 30
0.0
 11
38.7159787394
 21
33.4771637036
 31
0.0
  0
LINE
  5
3C9
330
1F
100
AcDbEntity
  8
0
  6
SLD-Solid
 62
     7
370
    25
100
AcDbLine
 10
38.7878291331
 20
32.6091637036
 30
0.0
 11
38.7959787394
 21
32.6091637036
 31
0.0
  0
LINE
  5
3CA
330
1F
100
AcDbEntity
  8
0
  6
SLD-Solid
 62
     7
370
    25
100
AcDbLine
 10
38.7878291331
 20
32.6091637036
 30
0.0
 11
38.7878291331
 21
32.6218974634
 31
0.0
  0
LINE
  5
3CB
330
1F
100
AcDbEntity
  8
0
  6
SLD-Solid
 62
     7
370
    25
100
AcDbLine
 10
38.7159787394
 20
33.090610554
 30
0.0
 11
38.7078291331
 21
33.0771637036
 31
0.0
  0
LINE
  5
3CC
330
1F
100
AcDbEntity
  8
0
  6
SLD-Solid
 62
     7
370
    25
100
AcDbLine
 10
38.7078291331
 20
33.2091637036
 30
0.0
 11
38.7078291331
 21
33.0771637036
 31
0.0
  0
LINE
  5
3CD
330
1F
100
AcDbEntity
  8
0
  6
SLD-Solid
 62
     7
370
    25
100
AcDbLine
 10
38.7878291331
 20
32.6091637036
 30
0.0
 11
38.7078291331
 21
32.7341637036
 31
0.0
  0
LINE
  5
3CE
330
1F
100
AcDbEntity
  8
0
  6
SLD-Solid
 62
     7
370
    25
100
AcDbLine
 10
38.7078291331
 20
33.0771637036
 30
0.0
 11
38.7078291331
 21
32.7341637036
 31
0.0
  0
LINE
  5
3CF
330
1F
100
AcDbEntity
  8
0
  6
SLD-Solid
 62
     7
370
    25
100
AcDbLine
 10
39.0828291331
 20
9.0771637036
 30
0.0
 11
39.0828291331
 21
20.8536637036
 31
0.0
  0
LINE
  5
3D0
330
1F
100
AcDbEntity
  8
0
  6
SLD-Solid
 62
     7
370
    25
100
AcDbLine
 10
39.0828291331
 20
21.3006637036
 30
0.0
 11
39.0828291331
 21
33.0771637036
 31
0.0
  0
LINE
  5
3D1
330
1F
100
AcDbEntity
  8
0
  6
SLD-Solid
 62
     7
370
    25
100
AcDbLine
 10
39.1128291331
 20
33.0471637036
 30
0.0
 11
39.0828291331
 21
33.0771637036
 31
0.0
  0
LINE
  5
3D2
330
1F
100
AcDbEntity
  8
0
  6
SLD-Solid
 62
     7
370
    25
100
AcDbLine
 10
39.1128291331
 20
33.0471637036
 30
0.0
 11
39.1128291331
 21
21.3006637036
 31
0.0
  0
LINE
  5
3D3
330
1F
100
AcDbEntity
  8
0
  6
SLD-Solid
 62
     7
370
    25
100
AcDbLine
 10
39.1128291331
 20
20.8536637036
 30
0.0
 11
39.1128291331
 21
9.1071637036
 31
0.0
  0
LINE
  5
3D4
330
1F
100
AcDbEntity
  8
0
  6
SLD-Solid
 62
     7
370
    25
100
AcDbLine
 10
39.0828291331
 20
9.0771637036
 30
0.0
 11
39.1128291331
 21
9.1071637036
 31
0.0
  0
LINE
  5
3D5
330
1F
100
AcDbEntity
  8
0
  6
SLD-Solid
 62
     7
370
    25
100
AcDbLine
 10
38.9459787394
 20
33.0771637036
 30
0.0
 11
38.9459787394
 21
21.3006637036
 31
0.0
  0
LINE
  5
3D6
330
1F
100
AcDbEntity
  8
0
  6
SLD-Solid
 62
     7
370
    25
100
AcDbLine
 10
38.9459787394
 20
20.8536637036
 30
0.0
 11
38.9459787394
 21
9.0771637036
 31
0.0
  0
LINE
  5
3D7
330
1F
100
AcDbEntity
  8
0
  6
SLD-Solid
 62
     7
370
    25
100
AcDbLine
 10
38.9459787394
 20
33.0771637036
 30
0.0
 11
39.0828291331
 21
33.0771637036
 31
0.0
  0
LINE
  5
3D8
330
1F
100
AcDbEntity
  8
0
  6
SLD-Solid
 62
     7
370
    25
100
AcDbLine
 10
38.9459787394
 20
9.0771637036
 30
0.0
 11
39.0828291331
 21
9.0771637036
 31
0.0
  0
LINE
  5
3D9
330
1F
100
AcDbEntity
  8
0
  6
SLD-Solid
 62
     7
370
    25
100
AcDbLine
 10
38.9159787394
 20
9.1071637036
 30
0.0
 11
38.9159787394
 21
20.8536637036
 31
0.0
  0
LINE
  5
3DA
330
1F
100
AcDbEntity
  8
0
  6
SLD-Solid
 62
     7
370
    25
100
AcDbLine
 10
38.9159787394
 20
21.3006637036
 30
0.0
 11
38.9159787394
 21
33.0471637036
 31
0.0
  0
LINE
  5
3DB
330
1F
100
AcDbEntity
  8
0
  6
SLD-Solid
 62
     7
370
    25
100
AcDbLine
 10
38.9459787394
 20
33.0771637036
 30
0.0
 11
38.9159787394
 21
33.0471637036
 31
0.0
  0
LINE
  5
3DC
330
1F
100
AcDbEntity
  8
0
  6
SLD-Solid
 62
     7
370
    25
100
AcDbLine
 10
38.9159787394
 20
9.1071637036
 30
0.0
 11
38.9459787394
 21
9.0771637036
 31
0.0
  0
DIMENSION
  5
3DD
330
1F
100
AcDbEntity
  8
DIMS
100
AcDbDimension
  2
_D_10
 10
38.7078291331
 20
8.1775696044
 30
0.0
 11
36.896805511
 21
8.1775696044
 31
0.0
 70
   160
  1
<>
 71
     2
 42
-1.0
  3
SLDDIMSTYLE2
100
AcDbAlignedDimension
 13
39.1128291331
 23
9.1071637036
 33
0.0
 14
38.7078291331
 24
8.6771637036
 34
0.0
100
AcDbRotatedDimension
  0
DIMENSION
  5
3EB
330
1F
100
AcDbEntity
  8
DIMS
100
AcDbDimension
  2
_D_11
 10
39.1128291331
 20
11.8070016279
 30
0.0
 11
36.896805511
 21
11.8070016279
 31
0.0
 70
   160
  1
<>
 71
     2
 42
-1.0
  3
SLDDIMSTYLE2
100
AcDbAlignedDimension
 13
38.9159787394
 23
9.1071637036
 33
0.0
 14
39.1128291331
 24
9.1071637036
 34
0.0
100
AcDbRotatedDimension
  0
MTEXT
  5
3F7
330
1F
100
AcDbEntity
  8
NOTES
100
AcDbMText
 10
37.7982768134
 20
7.4970068715
 30
0.0
 40
0.5
 41
0.0
 71
     1
 72
     1
  1
Side view
  7
SLDTEXTSTYLE1
 73
     1
 44
1.0
  0
SPLINE
  5
3F8
330
1F
100
AcDbEntity
  8
0
  6
SLD-Solid
 62
     7
370
    25
100
AcDbSpline
210
0.0
220
0.0
230
1.0
 70
     8
 71
     3
 72
    18
 73
    14
 74
     0
 42
0.00000001
 43
0.00000001
 40
0.0
 40
0.0
 40
0.0
 40
0.0
 40
0.0730928865391967
 40
0.1629055973947912
 40
0.2570315350907415
 40
0.3609550208078546
 40
0.4716018924387541
 40
0.5834753515064622
 40
0.6983223041979064
 40
0.8051007544365094
 40
0.9021714505453734
 40
0.9939859854610736
 40
1.0
 40
1.0
 40
1.0
 40
1.0
 10
58.93011375589326
 20
28.37021352160981
 30
0.0
 10
58.92411712364292
 20
28.3649671401004
 30
0.0
 10
58.91075214374745
 20
28.35327427976311
 30
0.0
 10
58.90002738675577
 20
28.32690337357758
 30
0.0
 10
58.89601630284449
 20
28.29566675208634
 30
0.0
 10
58.90083413123072
 20
28.26041465351933
 30
0.0
 10
58.91474034335874
 20
28.2234682472775
 30
0.0
 10
58.9371531754458
 20
28.18861867920191
 30
0.0
 10
58.96529701552006
 20
28.16100281203823
 30
0.0
 10
58.99640337102927
 20
28.14297960100837
 30
0.0
 10
59.02746979358131
 20
28.13694706818484
 30
0.0
 10
59.04985096174185
 20
28.13741900296332
 30
0.0
 10
59.05900276725763
 20
28.14271643772109
 30
0.0
 10
59.05956537491905
 20
28.14304209776439
 30
0.0
  0
SPLINE
  5
3F9
330
1F
100
AcDbEntity
  8
0
  6
SLD-Solid
 62
     7
370
    25
100
AcDbSpline
210
0.0
220
0.0
230
1.0
 70
     8
 71
     3
 72
    13
 73
     9
 74
     0
 42
0.00000001
 43
0.00000001
 40
0.0
 40
0.0
 40
0.0
 40
0.0
 40
0.1607441920552746
 40
0.3245085767934492
 40
0.5036142127999025
 40
0.6912540746545468
 40
0.858110183021934
 40
1.0
 40
1.0
 40
1.0
 40
1.0
 10
58.99727480389287
 20
28.26885970526618
 30
0.0
 10
58.99791254369366
 20
28.2684391981291
 30
0.0
 10
58.99920000566956
 20
28.26759028302467
 30
0.0
 10
59.00157390295535
 20
28.2651144598726
 30
0.0
 10
59.00378250004793
 20
28.26189551413511
 30
0.0
 10
59.00543760000959
 20
28.25833639911163
 30
0.0
 10
59.00630552751821
 20
28.25512736913187
 30
0.0
 10
59.0063815812851
 20
28.25368716746031
 30
0.0
 10
59.00641653317978
 20
28.25302529653404
 30
0.0
  0
LINE
  5
3FA
330
1F
100
AcDbEntity
  8
0
  6
SLD-Solid
 62
     7
370
    25
100
AcDbLine
 10
59.0064165332
 20
28.2530252965
 30
0.0
 11
59.0064165332
 21
28.1958674397
 31
0.0
  0
LINE
  5
3FB
330
1F
100
AcDbEntity
  8
0
  6
SLD-Solid
 62
     7
370
    25
100
AcDbLine
 10
58.9477773292
 20
28.2974339892
 30
0.0
 11
58.9972748039
 21
28.2688597053
 31
0.0
  0
LINE
  5
3FC
330
1F
100
AcDbEntity
  8
0
  6
SLD-Solid
 62
     7
370
    25
100
AcDbLine
 10
59.4078001366
 20
28.4144629109
 30
0.0
 11
59.8469088177
 21
28.6679549568
 31
0.0
  0
LINE
  5
3FD
330
1F
100
AcDbEntity
  8
0
  6
SLD-Solid
 62
     7
370
    25
100
AcDbLine
 10
59.7769145064
 20
28.7892017975
 30
0.0
 11
59.3212004248
 21
28.526123658
 31
0.0
  0
SPLINE
  5
3FE
330
1F
100
AcDbEntity
  8
0
  6
SLD-Solid
 62
     7
370
    25
100
AcDbSpline
210
0.0
220
0.0
230
1.0
 70
     8
 71
     3
 72
     9
 73
     5
 74
     0
 42
0.00000001
 43
0.00000001
 40
0.0
 40
0.0
 40
0.0
 40
0.0
 40
0.6133754907228068
 40
1.0
 40
1.0
 40
1.0
 40
1.0
 10
59.00641653317978
 20
28.19586743970204
 30
0.0
 10
59.00636323452886
 20
28.19531342092114
 30
0.0
 10
59.00627634052719
 20
28.19441019151389
 30
0.0
 10
59.00628119093847
 20
28.1944740332885
 30
0.0
 10
59.00628306622635
 20
28.19449871608328
 30
0.0
  0
SPLINE
  5
3FF
330
1F
100
AcDbEntity
  8
0
  6
SLD-Solid
 62
     7
370
    25
100
AcDbSpline
210
0.0
220
0.0
230
1.0
 70
     8
 71
     3
 72
     9
 73
     5
 74
     0
 42
0.00000001
 43
0.00000001
 40
0.0
 40
0.0
 40
0.0
 40
0.0
 40
0.587526235813086
 40
1.0
 40
1.0
 40
1.0
 40
1.0
 10
58.94643076872475
 20
28.29800977300793
 30
0.0
 10
58.94649995090647
 20
28.29801240075159
 30
0.0
 10
58.94661770255313
 20
28.29801687330703
 30
0.0
 10
58.94743869242642
 20
28.29760420431321
 30
0.0
 10
58.94777732920981
 20
28.29743398917997
 30
0.0
  0
LINE
  5
400
330
1F
100
AcDbEntity
  8
0
  6
SLD-Solid
 62
     7
370
    25
100
AcDbLine
 10
59.8558018347
 20
28.6768161447
 30
0.0
 11
59.9219458383
 21
28.7851291048
 31
0.0
  0
LINE
  5
401
330
1F
100
AcDbEntity
  8
0
  6
SLD-Solid
 62
     7
370
    25
100
AcDbLine
 10
59.9159094052
 20
28.7955856467
 30
0.0
 11
59.7890353356
 21
28.7924716448
 31
0.0
  0
SPLINE
  5
402
330
1F
100
AcDbEntity
  8
0
  6
SLD-Solid
 62
     7
370
    25
100
AcDbSpline
210
0.0
220
0.0
230
1.0
 70
     8
 71
     3
 72
    18
 73
    14
 74
     0
 42
0.00000001
 43
0.00000001
 40
0.0
 40
0.0
 40
0.0
 40
0.0
 40
0.0544054591451001
 40
0.144686963296989
 40
0.237591301417877
 40
0.3398211638227939
 40
0.4501938417126045
 40
0.5620661656832117
 40
0.6764900453144088
 40
0.7964587935747944
 40
0.8944876856241167
 40
0.9867622061336503
 40
1.0
 40
1.0
 40
1.0
 40
1.0
 10
47.63297305932853
 20
24.92941096323758
 30
0.0
 10
47.62827328084101
 20
24.92582480856062
 30
0.0
 10
47.61577459618304
 20
24.91628771727831
 30
0.0
 10
47.60467380878244
 20
24.89229041423722
 30
0.0
 10
47.59899529940635
 20
24.86188751042862
 30
0.0
 10
47.60213798108761
 20
24.82723060713492
 30
0.0
 10
47.61429423973328
 20
24.79035821399768
 30
0.0
 10
47.63522915940221
 20
24.75475100764609
 30
0.0
 10
47.66333682038317
 20
24.72457262013295
 30
0.0
 10
47.69521985438477
 20
24.70432519859794
 30
0.0
 10
47.72761143465103
 20
24.69692287694673
 30
0.0
 10
47.7507797458013
 20
24.69696791165784
 30
0.0
 10
47.76077371305373
 20
24.70244086869371
 30
0.0
 10
47.76202757691954
 20
24.70312751723809
 30
0.0
  0
SPLINE
  5
403
330
1F
100
AcDbEntity
  8
0
  6
SLD-Solid
 62
     7
370
    25
100
AcDbSpline
210
0.0
220
0.0
230
1.0
 70
     8
 71
     3
 72
    13
 73
     9
 74
     0
 42
0.00000001
 43
0.00000001
 40
0.0
 40
0.0
 40
0.0
 40
0.0
 40
0.1519734532139103
 40
0.3016286234929872
 40
0.4607563706379052
 40
0.6357578469213414
 40
0.8216946787396403
 40
1.0
 40
1.0
 40
1.0
 40
1.0
 10
47.69086354739049
 20
24.84085200888029
 30
0.0
 10
47.6911337247844
 20
24.84077201598302
 30
0.0
 10
47.69166995814423
 20
24.8406132504422
 30
0.0
 10
47.69360629409578
 20
24.83939378032515
 30
0.0
 10
47.69583020520489
 20
24.83727714840668
 30
0.0
 10
47.69810273771662
 20
24.83426135371969
 30
0.0
 10
47.70001294832611
 20
24.83065036497136
 30
0.0
 10
47.70065608502809
 20
24.82835233642206
 30
0.0
 10
47.70097091595935
 20
24.82722739600733
 30
0.0
  0
LINE
  5
404
330
1F
100
AcDbEntity
  8
0
  6
SLD-Solid
 62
     7
370
    25
100
AcDbLine
 10
47.700970916
 20
24.827227396
 30
0.0
 11
47.7149778908
 21
24.764319827
 31
0.0
  0
LINE
  5
405
330
1F
100
AcDbEntity
  8
0
  6
SLD-Solid
 62
     7
370
    25
100
AcDbLine
 10
47.6433892948
 20
24.852083574
 30
0.0
 11
47.6908635474
 21
24.8408520089
 31
0.0
  0
SPLINE
  5
406
330
1F
100
AcDbEntity
  8
0
  6
SLD-Solid
 62
     7
370
    25
100
AcDbSpline
210
0.0
220
0.0
230
1.0
 70
     8
 71
     3
 72
    10
 73
     6
 74
     0
 42
0.00000001
 43
0.00000001
 40
0.0
 40
0.0
 40
0.0
 40
0.0
 40
0.3666101572013688
 40
0.704797839826178
 40
0.9999999999999999
 40
0.9999999999999999
 40
0.9999999999999999
 40
0.9999999999999999
 10
47.7149778907796
 20
24.76431982695641
 30
0.0
 10
47.71512875838902
 20
24.76343866501447
 30
0.0
 10
47.71541879717581
 20
24.7617446556669
 30
0.0
 10
47.71520821318243
 20
24.76021800443772
 30
0.0
 10
47.71517449671968
 20
24.7601573400459
 30
0.0
 10
47.71515878258603
 20
24.76012906636941
 30
0.0
  0
LINE
  5
407
330
1F
100
AcDbEntity
  8
0
  6
SLD-Solid
 62
     7
370
    25
100
AcDbLine
 10
47.64343737
 20
24.8520923906
 30
0.0
 11
47.6433892948
 21
24.852083574
 31
0.0
  0
SPLINE
  5
408
330
1F
100
AcDbEntity
  8
0
  6
SLD-Solid
 62
     7
370
    25
100
AcDbSpline
210
0.0
220
0.0
230
1.0
 70
     8
 71
     3
 72
    18
 73
    14
 74
     0
 42
0.00000001
 43
0.00000001
 40
0.0
 40
0.0
 40
0.0
 40
0.0
 40
0.007333828326605
 40
0.1020271128571093
 40
0.195931955488904
 40
0.2978491495621665
 40
0.4096376309757311
 40
0.5247147062832114
 40
0.6415547351578633
 40
0.7628879048355841
 40
0.8682304278599817
 40
0.9650207988946411
 40
1.0
 40
1.0
 40
1.0
 40
1.0
 10
49.34205932886282
 20
33.89934579747919
 30
0.0
 10
49.34140998843148
 20
33.89893867353524
 30
0.0
 10
49.3323764623491
 20
33.89327482667019
 30
0.0
 10
49.32231824832092
 20
33.87391338835121
 30
0.0
 10
49.31348110887043
 20
33.84523876422644
 30
0.0
 10
49.31382197017142
 20
33.81168714715865
 30
0.0
 10
49.32284105059713
 20
33.77535148851182
 30
0.0
 10
49.34097350674995
 20
33.73883195476134
 30
0.0
 10
49.36679287562087
 20
33.70649241664772
 30
0.0
 10
49.39717515087283
 20
33.68291294937011
 30
0.0
 10
49.42902015521739
 20
33.67110923436083
 30
0.0
 10
49.45460498363494
 20
33.66833786554513
 30
0.0
 10
49.46747916497824
 20
33.67338278462272
 30
0.0
 10
49.47089671100924
 20
33.67472199545956
 30
0.0
  0
SPLINE
  5
409
330
1F
100
AcDbEntity
  8
0
  6
SLD-Solid
 62
     7
370
    25
100
AcDbSpline
210
0.0
220
0.0
230
1.0
 70
     8
 71
     3
 72
    13
 73
     9
 74
     0
 42
0.00000001
 43
0.00000001
 40
0.0
 40
0.0
 40
0.0
 40
0.0
 40
0.1535194904107915
 40
0.3070187070926504
 40
0.4754339032984502
 40
0.6579122707854569
 40
0.8459848564366649
 40
1.0
 40
1.0
 40
1.0
 40
1.0
 10
49.40872846989166
 20
33.80830267522923
 30
0.0
 10
49.40918307817196
 20
33.80809126418334
 30
0.0
 10
49.41009223469715
 20
33.80766847001045
 30
0.0
 10
49.41228476112492
 20
33.80590274806805
 30
0.0
 10
49.41457719849313
 20
33.80327215252852
 30
0.0
 10
49.41668985869508
 20
33.79985958165025
 30
0.0
 10
49.41814984186423
 20
33.79629056586987
 30
0.0
 10
49.41850454267814
 20
33.79432939651775
 30
0.0
 10
49.41866423649967
 20
33.79344643652379
 30
0.0
  0
LINE
  5
40A
330
1F
100
AcDbEntity
  8
0
  6
SLD-Solid
 62
     7
370
    25
100
AcDbLine
 10
49.4186642365
 20
33.7934464365
 30
0.0
 11
49.4265121974
 21
33.7324810662
 31
0.0
  0
LINE
  5
40B
330
1F
100
AcDbEntity
  8
0
  6
SLD-Solid
 62
     7
370
    25
100
AcDbLine
 10
49.3598571131
 20
33.8274529734
 30
0.0
 11
49.4087284699
 21
33.8083026752
 31
0.0
  0
LINE
  5
40C
330
1F
100
AcDbEntity
  8
0
  6
SLD-Solid
 62
     7
370
    25
100
AcDbLine
 10
49.8186192893
 20
33.9435257784
 30
0.0
 11
50.2634906122
 21
34.2003445266
 31
0.0
  0
LINE
  5
40D
330
1F
100
AcDbEntity
  8
0
  6
SLD-Solid
 62
     7
370
    25
100
AcDbLine
 10
50.193496301
 20
34.3215913673
 30
0.0
 11
49.7320195775
 21
34.0551865255
 31
0.0
  0
SPLINE
  5
40E
330
1F
100
AcDbEntity
  8
0
  6
SLD-Solid
 62
     7
370
    25
100
AcDbSpline
210
0.0
220
0.0
230
1.0
 70
     8
 71
     3
 72
    10
 73
     6
 74
     0
 42
0.00000001
 43
0.00000001
 40
0.0
 40
0.0
 40
0.0
 40
0.0
 40
0.4360503786459802
 40
0.8974449514311348
 40
1.0
 40
1.0
 40
1.0
 40
1.0
 10
49.42651219739025
 20
33.73248106619265
 30
0.0
 10
49.42657057867929
 20
33.73176066144011
 30
0.0
 10
49.42669073450458
 20
33.73027798044768
 30
0.0
 10
49.42636243176624
 20
33.72947005496584
 30
0.0
 10
49.42645572744892
 20
33.72961707117668
 30
0.0
 10
49.4264726934028
 20
33.72964380628576
 30
0.0
  0
LINE
  5
40F
330
1F
100
AcDbEntity
  8
0
  6
SLD-Solid
 62
     7
370
    25
100
AcDbLine
 10
49.3593649208
 20
33.8276011483
 30
0.0
 11
49.3598571131
 21
33.8274529734
 31
0.0
  0
LINE
  5
410
330
1F
100
AcDbEntity
  8
0
  6
SLD-Solid
 62
     7
370
    25
100
AcDbLine
 10
50.2723836292
 20
34.2092057145
 30
0.0
 11
50.3385276329
 21
34.3175186745
 31
0.0
  0
LINE
  5
411
330
1F
100
AcDbEntity
  8
0
  6
SLD-Solid
 62
     7
370
    25
100
AcDbLine
 10
50.3324911998
 20
34.3279752165
 30
0.0
 11
50.2056171302
 21
34.3248612146
 31
0.0
  0
SPLINE
  5
412
330
1F
100
AcDbEntity
  8
0
  6
SLD-Solid
 62
     7
370
    25
100
AcDbSpline
210
0.0
220
0.0
230
1.0
 70
     8
 71
     3
 72
    17
 73
    13
 74
     0
 42
0.00000001
 43
0.00000001
 40
0.0
 40
0.0
 40
0.0
 40
0.0
 40
0.0640222808335474
 40
0.1574173438848114
 40
0.2559732995952596
 40
0.3648289111503601
 40
0.4800160984665923
 40
0.5964788157228931
 40
0.7162401045459102
 40
0.8265911114159061
 40
0.9267961730090701
 40
1.0
 40
1.0
 40
1.0
 40
1.0
 10
49.34236444132173
 20
13.97484443264977
 30
0.0
 10
49.33748923708763
 20
13.97024874419638
 30
0.0
 10
49.32550213366932
 20
13.95894891138451
 30
0.0
 10
49.31606107776128
 20
13.93332801434862
 30
0.0
 10
49.31263577968422
 20
13.90182332018877
 30
0.0
 10
49.31818118756531
 20
13.86632579819284
 30
0.0
 10
49.33279465314428
 20
13.82938873231385
 30
0.0
 10
49.35578217350909
 20
13.79493954580925
 30
0.0
 10
49.38436986123466
 20
13.76780815376465
 30
0.0
 10
49.41544575997235
 20
13.7512555363779
 30
0.0
 10
49.44494989789623
 20
13.74458253304242
 30
0.0
 10
49.46259392419037
 20
13.74877806243472
 30
0.0
 10
49.47004227507252
 20
13.75054918737692
 30
0.0
  0
SPLINE
  5
413
330
1F
100
AcDbEntity
  8
0
  6
SLD-Solid
 62
     7
370
    25
100
AcDbSpline
210
0.0
220
0.0
230
1.0
 70
     8
 71
     3
 72
    13
 73
     9
 74
     0
 42
0.00000001
 43
0.00000001
 40
0.0
 40
0.0
 40
0.0
 40
0.0
 40
0.1554643528974132
 40
0.3075941382858759
 40
0.4612136184421335
 40
0.6300296252959755
 40
0.8124175435781533
 40
1.0
 40
1.0
 40
1.0
 40
1.0
 10
49.40150436155411
 20
13.89313295205809
 30
0.0
 10
49.40162373142889
 20
13.89311781476717
 30
0.0
 10
49.40185991080433
 20
13.8930878648663
 30
0.0
 10
49.40358039482288
 20
13.89221631821885
 30
0.0
 10
49.40571853151253
 20
13.89042763944248
 30
0.0
 10
49.40802119536046
 20
13.88772694022663
 30
0.0
 10
49.41015598163953
 20
13.88423526113995
 30
0.0
 10
49.41099915228641
 20
13.88181020759364
 30
0.0
 10
49.41142665684336
 20
13.88058065643961
 30
0.0
  0
LINE
  5
414
330
1F
100
AcDbEntity
  8
0
  6
SLD-Solid
 62
     7
370
    25
100
AcDbLine
 10
49.4114266568
 20
13.8805806564
 30
0.0
 11
49.4297978299
 21
13.8169000512
 31
0.0
  0
LINE
  5
415
330
1F
100
AcDbEntity
  8
0
  6
SLD-Solid
 62
     7
370
    25
100
AcDbLine
 10
49.3555424208
 20
13.8984518631
 30
0.0
 11
49.4015043616
 21
13.8931329521
 31
0.0
  0
SPLINE
  5
416
330
1F
100
AcDbEntity
  8
0
  6
SLD-Solid
 62
     7
370
    25
100
AcDbSpline
210
0.0
220
0.0
230
1.0
 70
     8
 71
     3
 72
    11
 73
     7
 74
     0
 42
0.00000001
 43
0.00000001
 40
0.0
 40
0.0
 40
0.0
 40
0.0
 40
0.3327787892503921
 40
0.634886113995221
 40
0.9623661662829445
 40
1.0
 40
1.0
 40
1.0
 40
1.0
 10
49.42979782991423
 20
13.81690005119663
 30
0.0
 10
49.43002533763042
 20
13.81591026705525
 30
0.0
 10
49.4304593841938
 20
13.81402192492674
 30
0.0
 10
49.43044412682581
 20
13.81211328272808
 30
0.0
 10
49.43014586864614
 20
13.81140048056256
 30
0.0
 10
49.43024905843461
 20
13.81155173772812
 30
0.0
 10
49.43025969464291
 20
13.81156732844443
 30
0.0
  0
LINE
  5
417
330
1F
100
AcDbEntity
  8
0
  6
SLD-Solid
 62
     7
370
    25
100
AcDbLine
 10
49.3555429438
 20
13.898451949
 30
0.0
 11
49.3555424208
 21
13.8984518631
 31
0.0
  0
SPLINE
  5
418
330
1F
100
AcDbEntity
  8
0
  6
SLD-Solid
 62
     7
370
    25
100
AcDbSpline
210
0.0
220
0.0
230
1.0
 70
     8
 71
     3
 72
    17
 73
    13
 74
     0
 42
0.00000001
 43
0.00000001
 40
0.0
 40
0.0
 40
0.0
 40
0.0
 40
0.0881672108237839
 40
0.1784032139314335
 40
0.2742712753803757
 40
0.3801322392725717
 40
0.4914486446472956
 40
0.6040337429058671
 40
0.7200249937079506
 40
0.8257857979447688
 40
0.9218356217423257
 40
1.0
 40
1.0
 40
1.0
 40
1.0
 10
60.64333943717801
 20
17.41970409641645
 30
0.0
 10
60.6365041328193
 20
17.41300016607274
 30
0.0
 10
60.62267313766365
 20
17.39943500156187
 30
0.0
 10
60.61248789971746
 20
17.37106127548275
 30
0.0
 10
60.60986838141445
 20
17.33913993840001
 30
0.0
 10
60.61612069431305
 20
17.30343574394441
 30
0.0
 10
60.63148061747088
 20
17.26653676808261
 30
0.0
 10
60.65507267352876
 20
17.23247532854406
 30
0.0
 10
60.68404691356061
 20
17.20608051827806
 30
0.0
 10
60.71530709432371
 20
17.19036744608717
 30
0.0
 10
60.74564402080252
 20
17.18459432278222
 30
0.0
 10
60.76385787074841
 20
17.18963921051951
 30
0.0
 10
60.77202984662581
 20
17.19190269138797
 30
0.0
  0
SPLINE
  5
419
330
1F
100
AcDbEntity
  8
0
  6
SLD-Solid
 62
     7
370
    25
100
AcDbSpline
210
0.0
220
0.0
230
1.0
 70
     8
 71
     3
 72
    13
 73
     9
 74
     0
 42
0.00000001
 43
0.00000001
 40
0.0
 40
0.0
 40
0.0
 40
0.0
 40
0.1241532586204622
 40
0.2887866564542931
 40
0.4465497113992174
 40
0.6186646296247155
 40
0.8060817576017286
 40
1.0
 40
1.0
 40
1.0
 40
1.0
 10
60.69662613902202
 20
17.33538597102635
 30
0.0
 10
60.69664221148368
 20
17.33538973236849
 30
0.0
 10
60.69667959682914
 20
17.33539848143743
 30
0.0
 10
60.69816198447445
 20
17.33477006860511
 30
0.0
 10
60.7002358679757
 20
17.33316300480241
 30
0.0
 10
60.70253619496874
 20
17.33065201662734
 30
0.0
 10
60.70474763765986
 20
17.32730508962267
 30
0.0
 10
60.70569924291967
 20
17.32487642751839
 30
0.0
 10
60.70618315716884
 20
17.32364139420329
 30
0.0
  0
LINE
  5
41A
330
1F
100
AcDbEntity
  8
0
  6
SLD-Solid
 62
     7
370
    25
100
AcDbLine
 10
60.7061831572
 20
17.3236413942
 30
0.0
 11
60.7274649297
 21
17.2597507464
 31
0.0
  0
LINE
  5
41B
330
1F
100
AcDbEntity
  8
0
  6
SLD-Solid
 62
     7
370
    25
100
AcDbLine
 10
60.6518596272
 20
17.3366321295
 30
0.0
 11
60.6965483971
 21
17.3354092572
 31
0.0
  0
SPLINE
  5
41C
330
1F
100
AcDbEntity
  8
0
  6
SLD-Solid
 62
     7
370
    25
100
AcDbSpline
210
0.0
220
0.0
230
1.0
 70
     8
 71
     3
 72
    11
 73
     7
 74
     0
 42
0.00000001
 43
0.00000001
 40
0.0
 40
0.0
 40
0.0
 40
0.0
 40
0.3132602401055365
 40
0.5964112488467637
 40
0.9002098195535451
 40
1.0
 40
1.0
 40
1.0
 40
1.0
 10
60.72746492973574
 20
17.25975074635717
 30
0.0
 10
60.72775370281105
 20
17.25870455298844
 30
0.0
 10
60.72830349333162
 20
17.25671272187268
 30
0.0
 10
60.72838791695514
 20
17.25451819979783
 30
0.0
 10
60.728106669118
 20
17.25353550925905
 30
0.0
 10
60.72818181223055
 20
17.25367127036004
 30
0.0
 10
60.72820039189794
 20
17.25370483825489
 30
0.0
  0
LINE
  5
41D
330
1F
100
AcDbEntity
  8
0
  6
SLD-Solid
 62
     7
370
    25
100
AcDbLine
 10
61.1048564114
 20
17.4537896811
 30
0.0
 11
61.5605821019
 21
17.7168745223
 31
0.0
  0
LINE
  5
41E
330
1F
100
AcDbEntity
  8
0
  6
SLD-Solid
 62
     7
370
    25
100
AcDbLine
 10
61.4905877906
 20
17.838121363
 30
0.0
 11
61.0514934194
 21
17.5846375781
 31
0.0
  0
LINE
  5
41F
330
1F
100
AcDbEntity
  8
0
  6
SLD-Solid
 62
     7
370
    25
100
AcDbLine
 10
61.5694751189
 20
17.7257357102
 30
0.0
 11
61.6356191225
 21
17.8340486703
 31
0.0
  0
LINE
  5
420
330
1F
100
AcDbEntity
  8
0
  6
SLD-Solid
 62
     7
370
    25
100
AcDbLine
 10
61.6295826894
 20
17.8445052122
 30
0.0
 11
61.5027086198
 21
17.8413912103
 31
0.0
  0
SPLINE
  5
421
330
1F
100
AcDbEntity
  8
0
  6
SLD-Solid
 62
     7
370
    25
100
AcDbSpline
210
0.0
220
0.0
230
1.0
 70
     8
 71
     3
 72
    18
 73
    14
 74
     0
 42
0.00000001
 43
0.00000001
 40
0.0
 40
0.0
 40
0.0
 40
0.0
 40
0.0002071255083696
 40
0.0934380989293935
 40
0.1839250849014328
 40
0.2807043926245493
 40
0.3874682199695952
 40
0.4990148287156754
 40
0.6119098153456807
 40
0.7284644906794812
 40
0.8334366801059789
 40
0.9289203392467169
 40
1.0
 40
1.0
 40
1.0
 40
1.0
 10
58.92876403655201
 20
8.446840955257557
 30
0.0
 10
58.92874453668547
 20
8.446830237273684
 30
0.0
 10
58.91994779082177
 20
8.44199515903888
 30
0.0
 10
58.9087442289062
 20
8.424005299888508
 30
0.0
 10
58.89803105809545
 20
8.39622987735404
 30
0.0
 10
58.89645182025985
 20
8.36353833646334
 30
0.0
 10
58.90340409369801
 20
8.32772947719233
 30
0.0
 10
58.91956644506129
 20
8.290869790024121
 30
0.0
 10
58.94378653664548
 20
8.25726016972298
 30
0.0
 10
58.97316198685458
 20
8.231638994996826
 30
0.0
 10
59.00460507024118
 20
8.216933534321026
 30
0.0
 10
59.03418840843154
 20
8.21213917328779
 30
0.0
 10
59.0514182267307
 20
8.217520076356267
 30
0.0
 10
59.05877092383307
 20
8.219816336810831
 30
0.0
  0
SPLINE
  5
422
330
1F
100
AcDbEntity
  8
0
  6
SLD-Solid
 62
     7
370
    25
100
AcDbSpline
210
0.0
220
0.0
230
1.0
 70
     8
 71
     3
 72
    13
 73
     9
 74
     0
 42
0.00000001
 43
0.00000001
 40
0.0
 40
0.0
 40
0.0
 40
0.0
 40
0.1289620030165071
 40
0.2913643044885102
 40
0.4483755864698438
 40
0.619918205953267
 40
0.8065272462156418
 40
1.0
 40
1.0
 40
1.0
 40
1.0
 10
58.98325931748445
 20
8.362553635838118
 30
0.0
 10
58.98328763082311
 20
8.362556015660239
 30
0.0
 10
58.98335159924819
 20
8.362561392400677
 30
0.0
 10
58.9848665714059
 20
8.361899883572988
 30
0.0
 10
58.98694923872018
 20
8.360268715223441
 30
0.0
 10
58.98925063744024
 20
8.357731293269506
 30
0.0
 10
58.99145504763752
 20
8.35435971682836
 30
0.0
 10
58.99239250327837
 20
8.351926573815103
 30
0.0
 10
58.99286969562809
 20
8.350688032831302
 30
0.0
  0
LINE
  5
423
330
1F
100
AcDbEntity
  8
0
  6
SLD-Solid
 62
     7
370
    25
100
AcDbLine
 10
58.9928696956
 20
8.3506880328
 30
0.0
 11
59.0137157342
 21
8.2868123041
 31
0.0
  0
LINE
  5
424
330
1F
100
AcDbEntity
  8
0
  6
SLD-Solid
 62
     7
370
    25
100
AcDbLine
 10
58.9382893124
 20
8.3644204494
 30
0.0
 11
58.9831829943
 21
8.3625761144
 31
0.0
  0
SPLINE
  5
425
330
1F
100
AcDbEntity
  8
0
  6
SLD-Solid
 62
     7
370
    25
100
AcDbSpline
210
0.0
220
0.0
230
1.0
 70
     8
 71
     3
 72
    11
 73
     7
 74
     0
 42
0.00000001
 43
0.00000001
 40
0.0
 40
0.0
 40
0.0
 40
0.0
 40
0.3159925410622519
 40
0.601716460546394
 40
0.9087251075636504
 40
1.0
 40
1.0
 40
1.0
 40
1.0
 10
59.01371573417921
 20
8.286812304051685
 30
0.0
 10
59.01399513208229
 20
8.285774127275198
 30
0.0
 10
59.01452716463207
 20
8.283797219677087
 30
0.0
 10
59.01459476589099
 20
8.281644721280637
 30
0.0
 10
59.01431032648875
 20
8.280705536438482
 30
0.0
 10
59.01439097196114
 20
8.280846108017275
 30
0.0
 10
59.01440945353541
 20
8.28087832289553
 30
0.0
  0
LWPOLYLINE
  5
426
330
1F
100
AcDbEntity
  8
0
  6
SLD-Solid
 62
     7
370
    25
100
AcDbPolyline
 90
       17
 70
   128
 43
0.0
 10
59.0287909019
 20
28.209138716
 10
59.0243503147
 20
28.2374815353
 10
59.0117045924
 20
28.26663641
 10
58.9927789315
 20
28.2921647748
 10
58.9704545924
 20
28.3101801676
 10
58.9481302533
 20
28.3179399081
 10
58.9292045924
 20
28.3142626462
 10
58.9165588701
 20
28.2997082117
 10
58.912118283
 20
28.2764923852
 10
58.9165588701
 20
28.248149566
 10
58.9292045924
 20
28.2189946913
 10
58.9481302533
 20
28.1934663265
 10
58.9704545924
 20
28.1754509337
 10
58.9927789315
 20
28.1676911931
 10
59.0117045924
 20
28.171368455
 10
59.0243503147
 20
28.1859228896
 10
59.0287909019
 20
28.209138716
  0
LINE
  5
427
330
1F
100
AcDbEntity
  8
0
  6
SLD-Solid
 62
     7
370
    25
100
AcDbLine
 10
58.9952033297
 20
28.183618664
 30
0.0
 11
58.9457058551
 21
28.2121929479
 31
0.0
  0
ARC
  5
428
330
1F
100
AcDbEntity
  8
0
  6
SLD-Solid
 62
     7
370
    25
100
AcDbCircle
 10
59.000723978
 20
28.1903868552
 30
0.0
 40
0.008734183948578
100
AcDbArc
 50
230.7967147644
 51
9.2140369904
  0
LINE
  5
429
330
1F
100
AcDbEntity
  8
0
  6
SLD-Solid
 62
     7
370
    25
100
AcDbLine
 10
59.0093454654
 20
28.248943256
 30
0.0
 11
59.0093454654
 21
28.1917853991
 31
0.0
  0
ARC
  5
42A
330
1F
100
AcDbEntity
  8
0
  6
SLD-Solid
 62
     7
370
    25
100
AcDbCircle
 10
58.9786411433
 20
28.2475460389
 30
0.0
 40
0.0307360961514376
100
AcDbArc
 50
2.6054784856
 51
57.39452166
  0
LINE
  5
42B
330
1F
100
AcDbEntity
  8
0
  6
SLD-Solid
 62
     7
370
    25
100
AcDbLine
 10
58.9457058551
 20
28.3020124372
 30
0.0
 11
58.9952033297
 21
28.2734381533
 31
0.0
  0
ARC
  5
42C
330
1F
100
AcDbEntity
  8
0
  6
SLD-Solid
 62
     7
370
    25
100
AcDbCircle
 10
58.9401852068
 20
28.2952442461
 30
0.0
 40
0.0087341839485797
100
AcDbArc
 50
50.7967147643
 51
189.2140369905
  0
LINE
  5
42D
330
1F
100
AcDbEntity
  8
0
  6
SLD-Solid
 62
     7
370
    25
100
AcDbLine
 10
58.9315637194
 20
28.2366878453
 30
0.0
 11
58.9315637194
 21
28.2938457021
 31
0.0
  0
ARC
  5
42E
330
1F
100
AcDbEntity
  8
0
  6
SLD-Solid
 62
     7
370
    25
100
AcDbCircle
 10
58.9622680415
 20
28.2380850623
 30
0.0
 40
0.0307360961514166
100
AcDbArc
 50
182.6054784856
 51
237.39452166
  0
LWPOLYLINE
  5
42F
330
1F
100
AcDbEntity
  8
0
  6
SLD-Solid
 62
     7
370
    25
100
AcDbPolyline
 90
       10
 70
   128
 43
0.0
 10
59.8469088177
 20
28.6679549568
 10
59.846911662
 20
28.6679565991
 10
59.8576413658
 20
28.6803058163
 10
59.8614091367
 20
28.7000040933
 10
59.8576413658
 20
28.7240525459
 10
59.846911662
 20
28.7487900154
 10
59.8308535255
 20
28.7704504462
 10
59.811911662
 20
28.785736234
 10
59.7929697985
 20
28.7923202563
 10
59.7769145064
 20
28.7892017975
  0
ARC
  5
430
330
1F
100
AcDbEntity
  8
0
  6
SLD-Solid
 62
     7
370
    25
100
AcDbCircle
 10
59.0105554908
 20
28.1829200555
 30
0.0
 40
0.0153680480757085
100
AcDbArc
 50
122.60547834
 51
177.3945215143
  0
ARC
  5
431
330
1F
100
AcDbEntity
  8
0
  6
SLD-Solid
 62
     7
370
    25
100
AcDbCircle
 10
58.9386347872
 20
28.307492813
 30
0.0
 40
0.0153702190791344
100
AcDbArc
 50
242.6096722366
 51
297.3903277634
  0
ARC
  5
432
330
1F
100
AcDbEntity
  8
0
  6
SLD-Solid
 62
     7
370
    25
100
AcDbCircle
 10
58.9610580161
 20
28.2114943394
 30
0.0
 40
0.0153680480756466
100
AcDbArc
 50
122.6054783399
 51
177.3945215145
  0
LINE
  5
433
330
1F
100
AcDbEntity
  8
0
  6
SLD-Solid
 62
     7
370
    25
100
AcDbLine
 10
58.9527769229
 20
28.2244403966
 30
0.0
 11
59.0022743976
 21
28.1958661127
 31
0.0
  0
LINE
  5
434
330
1F
100
AcDbEntity
  8
0
  6
SLD-Solid
 62
     7
370
    25
100
AcDbLine
 10
58.9457058551
 20
28.2938457021
 30
0.0
 11
58.9457058551
 21
28.2366878453
 31
0.0
  0
ARC
  5
435
330
1F
100
AcDbEntity
  8
0
  6
SLD-Solid
 62
     7
370
    25
100
AcDbCircle
 10
58.9386347872
 20
28.2503349561
 30
0.0
 40
0.0153702190791092
100
AcDbArc
 50
242.6096722366
 51
297.3903277634
  0
LINE
  5
436
330
1F
100
AcDbEntity
  8
0
  6
SLD-Solid
 62
     7
370
    25
100
AcDbLine
 10
58.9881322619
 20
28.2448505994
 30
0.0
 11
58.9527769229
 21
28.2244403966
 31
0.0
  0
LINE
  5
437
330
1F
100
AcDbEntity
  8
0
  6
SLD-Solid
 62
     7
370
    25
100
AcDbLine
 10
58.9457058551
 20
28.2366878453
 30
0.0
 11
58.9810611941
 21
28.2570980481
 31
0.0
  0
ARC
  5
438
330
1F
100
AcDbEntity
  8
0
  6
SLD-Solid
 62
     7
370
    25
100
AcDbCircle
 10
58.9798511687
 20
28.2577966566
 30
0.0
 40
0.0153680480757336
100
AcDbArc
 50
302.6054783401
 51
357.3945215143
  0
ARC
  5
439
330
1F
100
AcDbEntity
  8
0
  6
SLD-Solid
 62
     7
370
    25
100
AcDbCircle
 10
58.9881322619
 20
28.2434509372
 30
0.0
 40
0.0153702190791375
100
AcDbArc
 50
62.6096722366
 51
117.3903277633
  0
ARC
  5
43A
330
1F
100
AcDbEntity
  8
0
  6
SLD-Solid
 62
     7
370
    25
100
AcDbCircle
 10
58.9610580161
 20
28.2373864538
 30
0.0
 40
0.0153680480756967
100
AcDbArc
 50
182.6054784856
 51
237.39452166
  0
ARC
  5
43B
330
1F
100
AcDbEntity
  8
0
  6
SLD-Solid
 62
     7
370
    25
100
AcDbCircle
 10
58.9964133551
 20
28.2577966566
 30
0.0
 40
0.0153680480756973
100
AcDbArc
 50
182.6054784856
 51
237.39452166
  0
ARC
  5
43C
330
1F
100
AcDbEntity
  8
0
  6
SLD-Solid
 62
     7
370
    25
100
AcDbCircle
 10
59.9144815945
 20
28.7877907388
 30
0.0
 40
0.0079245966565349
100
AcDbArc
 50
340.374550904
 51
79.6200725632
  0
LWPOLYLINE
  5
43D
330
1F
100
AcDbEntity
  8
0
  6
SLD-Solid
 62
     7
370
    25
100
AcDbPolyline
 90
       17
 70
   128
 43
0.0
 10
47.7293149004
 20
24.7894525432
 10
47.718738401
 20
24.8188327218
 10
47.7012539238
 20
24.8457552786
 10
47.6795233219
 20
24.8661214982
 10
47.6568548825
 20
24.8768308084
 10
47.6366996699
 20
24.8762528138
 10
47.6221261327
 20
24.8644755088
 10
47.6153529597
 20
24.8432918813
 10
47.6174113051
 20
24.8159269466
 10
47.6279878045
 20
24.786546768
 10
47.6454722818
 20
24.7596242112
 10
47.6672028837
 20
24.7392579916
 10
47.6898713231
 20
24.7285486814
 10
47.7100265356
 20
24.729126676
 10
47.7246000729
 20
24.740903981
 10
47.7313732459
 20
24.7620876085
 10
47.7293149004
 20
24.7894525432
  0
LINE
  5
43E
330
1F
100
AcDbEntity
  8
0
  6
SLD-Solid
 62
     7
370
    25
100
AcDbLine
 10
47.7081057093
 20
24.7476465867
 30
0.0
 11
47.6606314567
 21
24.7588781518
 31
0.0
  0
LWPOLYLINE
  5
43F
330
1F
100
AcDbEntity
  8
0
  6
SLD-Solid
 62
     7
370
    25
100
AcDbPolyline
 90
        9
 70
   128
 43
0.0
 10
47.7081057093
 20
24.7476465867
 10
47.7106750313
 20
24.7473658957
 10
47.7129918214
 20
24.7477867066
 10
47.7149670466
 20
24.7488928477
 10
47.7165248001
 20
24.7506418108
 10
47.7176052184
 20
24.7529663841
 10
47.7181667815
 20
24.7557772356
 10
47.7181879089
 20
24.7589663459
 10
47.7176677886
 20
24.7624111592
  0
LINE
  5
440
330
1F
100
AcDbEntity
  8
0
  6
SLD-Solid
 62
     7
370
    25
100
AcDbLine
 10
47.7036608138
 20
24.8253187283
 30
0.0
 11
47.7176677886
 21
24.7624111592
 31
0.0
  0
ARC
  5
441
330
1F
100
AcDbEntity
  8
0
  6
SLD-Solid
 62
     7
370
    25
100
AcDbCircle
 10
47.6757556176
 20
24.8200526306
 30
0.0
 40
0.0283977421886273
100
AcDbArc
 50
10.6868282855
 51
68.6488486144
  0
LINE
  5
442
330
1F
100
AcDbEntity
  8
0
  6
SLD-Solid
 62
     7
370
    25
100
AcDbLine
 10
47.6386204963
 20
24.8577329031
 30
0.0
 11
47.6860947488
 21
24.846501338
 31
0.0
  0
LWPOLYLINE
  5
443
330
1F
100
AcDbEntity
  8
0
  6
SLD-Solid
 62
     7
370
    25
100
AcDbPolyline
 90
        9
 70
   128
 43
0.0
 10
47.6386204963
 20
24.8577329031
 10
47.6360511742
 20
24.8580135941
 10
47.6337343842
 20
24.8575927832
 10
47.6317591589
 20
24.8564866421
 10
47.6302014054
 20
24.854737679
 10
47.6291209872
 20
24.8524131057
 10
47.6285594241
 20
24.8496022541
 10
47.6285382967
 20
24.8464131439
 10
47.6290584169
 20
24.8429683306
  0
LINE
  5
444
330
1F
100
AcDbEntity
  8
0
  6
SLD-Solid
 62
     7
370
    25
100
AcDbLine
 10
47.6430653917
 20
24.7800607615
 30
0.0
 11
47.6290584169
 21
24.8429683306
 31
0.0
  0
ARC
  5
445
330
1F
100
AcDbEntity
  8
0
  6
SLD-Solid
 62
     7
370
    25
100
AcDbCircle
 10
47.670970588
 20
24.7853268592
 30
0.0
 40
0.0283977421886091
100
AcDbArc
 50
190.6868282855
 51
248.6488486144
  0
LINE
  5
446
330
1F
100
AcDbEntity
  8
0
  6
SLD-Solid
 62
     7
370
    25
100
AcDbLine
 10
47.6908635474
 20
24.8408520089
 30
0.0
 11
47.6907081963
 21
24.8408913274
 31
0.0
  0
ARC
  5
447
330
1F
100
AcDbEntity
  8
0
  6
SLD-Solid
 62
     7
370
    25
100
AcDbCircle
 10
47.7202961832
 20
24.7504351653
 30
0.0
 40
0.0125053518405098
100
AcDbArc
 50
124.7075891487
 51
192.8847593536
  0
ARC
  5
448
330
1F
100
AcDbEntity
  8
0
  6
SLD-Solid
 62
     7
370
    25
100
AcDbCircle
 10
47.6728219306
 20
24.7616667305
 30
0.0
 40
0.0125053518405151
100
AcDbArc
 50
124.7075891487
 51
192.8847593536
  0
LINE
  5
449
330
1F
100
AcDbEntity
  8
0
  6
SLD-Solid
 62
     7
370
    25
100
AcDbLine
 10
47.6657015281
 20
24.7719469879
 30
0.0
 11
47.7131757807
 21
24.7607154228
 31
0.0
  0
LINE
  5
44A
330
1F
100
AcDbEntity
  8
0
  6
SLD-Solid
 62
     7
370
    25
100
AcDbLine
 10
47.7010568672
 20
24.7923571907
 30
0.0
 11
47.6657015281
 21
24.7719469879
 31
0.0
  0
ARC
  5
44B
330
1F
100
AcDbEntity
  8
0
  6
SLD-Solid
 62
     7
370
    25
100
AcDbCircle
 10
47.6323920582
 20
24.8642968387
 30
0.0
 40
0.0215874598916852
100
AcDbArc
 50
261.1165563436
 51
299.1629484587
  0
LINE
  5
44C
330
1F
100
AcDbEntity
  8
0
  6
SLD-Solid
 62
     7
370
    25
100
AcDbLine
 10
47.6429115208
 20
24.8454458618
 30
0.0
 11
47.6569184956
 21
24.7825382928
 31
0.0
  0
ARC
  5
44D
330
1F
100
AcDbEntity
  8
0
  6
SLD-Solid
 62
     7
370
    25
100
AcDbCircle
 10
47.646399033
 20
24.8013892697
 30
0.0
 40
0.0215874598916062
100
AcDbArc
 50
261.1165563435
 51
299.1629484587
  0
LINE
  5
44E
330
1F
100
AcDbEntity
  8
0
  6
SLD-Solid
 62
     7
370
    25
100
AcDbLine
 10
47.6569184956
 20
24.7825382928
 30
0.0
 11
47.6922738347
 21
24.8029484956
 31
0.0
  0
ARC
  5
44F
330
1F
100
AcDbEntity
  8
0
  6
SLD-Solid
 62
     7
370
    25
100
AcDbCircle
 10
47.6708710937
 20
24.7851713416
 30
0.0
 40
0.0141988710942827
100
AcDbArc
 50
190.6868282855
 51
248.6488486145
  0
ARC
  5
450
330
1F
100
AcDbEntity
  8
0
  6
SLD-Solid
 62
     7
370
    25
100
AcDbCircle
 10
47.7062264328
 20
24.8055815444
 30
0.0
 40
0.0141988710943088
100
AcDbArc
 50
190.6868282855
 51
248.6488486144
  0
LWPOLYLINE
  5
451
330
1F
100
AcDbEntity
  8
0
  6
SLD-Solid
 62
     7
370
    25
100
AcDbPolyline
 90
       17
 70
   128
 43
0.0
 10
49.4446347717
 20
33.7526351262
 10
49.4367107703
 20
33.7818497513
 10
49.4212242943
 20
33.8100527917
 10
49.4005330194
 20
33.83295059
 10
49.3777870045
 20
33.847057164
 10
49.3564491243
 20
33.8502249157
 10
49.3397678775
 20
33.8419715837
 10
49.3302828328
 20
33.8235536628
 10
49.3294380022
 20
33.7977751146
 10
49.3373620037
 20
33.7685604895
 10
49.3528484796
 20
33.7403574491
 10
49.3735397546
 20
33.7174596508
 10
49.3962857695
 20
33.7033530768
 10
49.4176236497
 20
33.7001853251
 10
49.4343048965
 20
33.7084386571
 10
49.4437899412
 20
33.726856578
 10
49.4446347717
 20
33.7526351262
  0
LINE
  5
452
330
1F
100
AcDbEntity
  8
0
  6
SLD-Solid
 62
     7
370
    25
100
AcDbLine
 10
49.4176383203
 20
33.7177286089
 30
0.0
 11
49.3687669636
 21
33.7368789071
 31
0.0
  0
LWPOLYLINE
  5
453
330
1F
100
AcDbEntity
  8
0
  6
SLD-Solid
 62
     7
370
    25
100
AcDbPolyline
 90
        9
 70
   128
 43
0.0
 10
49.4176383203
 20
33.7177286089
 10
49.4203193296
 20
33.7169958645
 10
49.4228111398
 20
33.7169606691
 10
49.4250179921
 20
33.7176243752
 10
49.4268550784
 20
33.7189614769
 10
49.4282518005
 20
33.7209205902
 10
49.4291544832
 20
33.7234264274
 10
49.4295284368
 20
33.7263826907
 10
49.4293592906
 20
33.7296757724
  0
LINE
  5
454
330
1F
100
AcDbEntity
  8
0
  6
SLD-Solid
 62
     7
370
    25
100
AcDbLine
 10
49.4215113297
 20
33.7906411427
 30
0.0
 11
49.4293592906
 21
33.7296757724
 31
0.0
  0
ARC
  5
455
330
1F
100
AcDbEntity
  8
0
  6
SLD-Solid
 62
     7
370
    25
100
AcDbCircle
 10
49.3917699758
 20
33.7867668092
 30
0.0
 40
0.0299926422899985
100
AcDbArc
 50
7.4219868044
 51
63.1725467401
  0
LINE
  5
456
330
1F
100
AcDbEntity
  8
0
  6
SLD-Solid
 62
     7
370
    25
100
AcDbLine
 10
49.3564344536
 20
33.8326816319
 30
0.0
 11
49.4053058104
 21
33.8135313337
 31
0.0
  0
LWPOLYLINE
  5
457
330
1F
100
AcDbEntity
  8
0
  6
SLD-Solid
 62
     7
370
    25
100
AcDbPolyline
 90
        9
 70
   128
 43
0.0
 10
49.3564344536
 20
33.8326816319
 10
49.3537534444
 20
33.8334143763
 10
49.3512616342
 20
33.8334495717
 10
49.3490547819
 20
33.8327858656
 10
49.3472176956
 20
33.8314487639
 10
49.3458209734
 20
33.8294896506
 10
49.3449182908
 20
33.8269838134
 10
49.3445443372
 20
33.8240275501
 10
49.3447134834
 20
33.8207344684
  0
LINE
  5
458
330
1F
100
AcDbEntity
  8
0
  6
SLD-Solid
 62
     7
370
    25
100
AcDbLine
 10
49.3525614443
 20
33.7597690981
 30
0.0
 11
49.3447134834
 21
33.8207344684
 31
0.0
  0
ARC
  5
459
330
1F
100
AcDbEntity
  8
0
  6
SLD-Solid
 62
     7
370
    25
100
AcDbCircle
 10
49.3823027982
 20
33.7636434316
 30
0.0
 40
0.0299926422899481
100
AcDbArc
 50
187.4219868043
 51
243.1725467401
  0
LINE
  5
45A
330
1F
100
AcDbEntity
  8
0
  6
SLD-Solid
 62
     7
370
    25
100
AcDbLine
 10
49.4265121974
 20
33.7324810662
 30
0.0
 11
49.4264989737
 21
33.7326145582
 31
0.0
  0
LWPOLYLINE
  5
45B
330
1F
100
AcDbEntity
  8
0
  6
SLD-Solid
 62
     7
370
    25
100
AcDbPolyline
 90
       10
 70
   128
 43
0.0
 10
50.2634906122
 20
34.2003445266
 10
50.2686000707
 20
34.2043176145
 10
50.2766479874
 20
34.2199449413
 10
50.2773648133
 20
34.2418176488
 10
50.2706414182
 20
34.2666058156
 10
50.257501378
 20
34.290535668
 10
50.2399451447
 20
34.3099641029
 10
50.2206454957
 20
34.3219333173
 10
50.2025406276
 20
34.3246211066
 10
50.193496301
 20
34.3215913673
  0
ARC
  5
45C
330
1F
100
AcDbEntity
  8
0
  6
SLD-Solid
 62
     7
370
    25
100
AcDbCircle
 10
49.4311473177
 20
33.7192243766
 30
0.0
 40
0.0135915536251884
100
AcDbArc
 50
123.7905907206
 51
186.3182708134
  0
ARC
  5
45D
330
1F
100
AcDbEntity
  8
0
  6
SLD-Solid
 62
     7
370
    25
100
AcDbCircle
 10
49.3501538173
 20
33.8379626089
 30
0.0
 40
0.0180667112905539
100
AcDbArc
 50
252.4748294305
 51
298.4699325608
  0
ARC
  5
45E
330
1F
100
AcDbEntity
  8
0
  6
SLD-Solid
 62
     7
370
    25
100
AcDbCircle
 10
49.3822759609
 20
33.7383746747
 30
0.0
 40
0.0135915536252059
100
AcDbArc
 50
123.7905907207
 51
186.3182708133
  0
LINE
  5
45F
330
1F
100
AcDbEntity
  8
0
  6
SLD-Solid
 62
     7
370
    25
100
AcDbLine
 10
49.3747168941
 20
33.7496702862
 30
0.0
 11
49.4235882509
 21
33.7305199881
 31
0.0
  0
LINE
  5
460
330
1F
100
AcDbEntity
  8
0
  6
SLD-Solid
 62
     7
370
    25
100
AcDbLine
 10
49.4100722332
 20
33.770080489
 30
0.0
 11
49.3747168941
 21
33.7496702862
 31
0.0
  0
LINE
  5
461
330
1F
100
AcDbEntity
  8
0
  6
SLD-Solid
 62
     7
370
    25
100
AcDbLine
 10
49.3587661736
 20
33.8220807521
 30
0.0
 11
49.3666141345
 21
33.7611153817
 31
0.0
  0
ARC
  5
462
330
1F
100
AcDbEntity
  8
0
  6
SLD-Solid
 62
     7
370
    25
100
AcDbCircle
 10
49.3580017781
 20
33.7769972385
 30
0.0
 40
0.0180667112905183
100
AcDbArc
 50
252.4748294304
 51
298.4699325608
  0
LINE
  5
463
330
1F
100
AcDbEntity
  8
0
  6
SLD-Solid
 62
     7
370
    25
100
AcDbLine
 10
49.3666141345
 20
33.7611153817
 30
0.0
 11
49.4019694735
 21
33.7815255845
 31
0.0
  0
ARC
  5
464
330
1F
100
AcDbEntity
  8
0
  6
SLD-Solid
 62
     7
370
    25
100
AcDbCircle
 10
49.4025131664
 20
33.7813761005
 30
0.0
 40
0.0135915536252059
100
AcDbArc
 50
303.7905907207
 51
6.3182708133
  0
ARC
  5
465
330
1F
100
AcDbEntity
  8
0
  6
SLD-Solid
 62
     7
370
    25
100
AcDbCircle
 10
49.3814848114
 20
33.7630525485
 30
0.0
 40
0.0149963211449597
100
AcDbArc
 50
187.4219868043
 51
243.1725467401
  0
ARC
  5
466
330
1F
100
AcDbEntity
  8
0
  6
SLD-Solid
 62
     7
370
    25
100
AcDbCircle
 10
49.4105818299
 20
33.7656437277
 30
0.0
 40
0.018066711290563
100
AcDbArc
 50
72.4748294304
 51
118.4699325608
  0
ARC
  5
467
330
1F
100
AcDbEntity
  8
0
  6
SLD-Solid
 62
     7
370
    25
100
AcDbCircle
 10
49.4168401505
 20
33.7834627513
 30
0.0
 40
0.0149963211449891
100
AcDbArc
 50
187.4219868044
 51
243.1725467401
  0
LWPOLYLINE
  5
468
330
1F
100
AcDbEntity
  8
0
  6
SLD-Solid
 62
     7
370
    25
100
AcDbPolyline
 90
        8
 70
   128
 43
0.0
 10
50.3324911998
 20
34.3279752165
 10
50.3338499309
 20
34.327710502
 10
50.3355948336
 20
34.3266283521
 10
50.3371821121
 20
34.3248718058
 10
50.3383701177
 20
34.3227082813
 10
50.3389779873
 20
34.3204671556
 10
50.3389131783
 20
34.3184896199
 10
50.3385276329
 20
34.3175186745
  0
LWPOLYLINE
  5
469
330
1F
100
AcDbEntity
  8
0
  6
SLD-Solid
 62
     7
370
    25
100
AcDbPolyline
 90
       17
 70
   128
 43
0.0
 10
49.4412058172
 20
13.8453405938
 10
49.4287966528
 20
13.8745389827
 10
49.4100298665
 20
13.9002465369
 10
49.3877625313
 20
13.9185495142
 10
49.3653846473
 20
13.9266614523
 10
49.3463030444
 20
13.9233473821
 10
49.3334227236
 20
13.9091118409
 10
49.3287045971
 20
13.8861220606
 10
49.3328669568
 20
13.857878027
 10
49.3452761212
 20
13.8286796381
 10
49.3640429075
 20
13.8029720839
 10
49.3863102426
 20
13.7846691066
 10
49.4086881267
 20
13.7765571685
 10
49.4277697296
 20
13.7798712386
 10
49.4406500504
 20
13.7941067799
 10
49.4453681769
 20
13.8170965602
 10
49.4412058172
 20
13.8453405938
  0
LINE
  5
46A
330
1F
100
AcDbEntity
  8
0
  6
SLD-Solid
 62
     7
370
    25
100
AcDbLine
 10
49.4244518505
 20
13.7989150936
 30
0.0
 11
49.3784899097
 21
13.8042340046
 31
0.0
  0
LWPOLYLINE
  5
46B
330
1F
100
AcDbEntity
  8
0
  6
SLD-Solid
 62
     7
370
    25
100
AcDbPolyline
 90
        9
 70
   128
 43
0.0
 10
49.4244518505
 20
13.7989150936
 10
49.426912917
 20
13.7989682184
 10
49.4290776936
 20
13.7997185045
 10
49.4308629891
 20
13.8011371189
 10
49.4322001956
 20
13.8031695449
 10
49.433037925
 20
13.8057376775
 10
49.4333439839
 20
13.8087428249
 10
49.4331066105
 20
13.812069501
 10
49.432334927
 20
13.8155898634
  0
LINE
  5
46C
330
1F
100
AcDbEntity
  8
0
  6
SLD-Solid
 62
     7
370
    25
100
AcDbLine
 10
49.4139637539
 20
13.8792704686
 30
0.0
 11
49.432334927
 21
13.8155898634
 31
0.0
  0
ARC
  5
46D
330
1F
100
AcDbEntity
  8
0
  6
SLD-Solid
 62
     7
370
    25
100
AcDbCircle
 10
49.3878581171
 20
13.8733563163
 30
0.0
 40
0.0267671715606788
100
AcDbArc
 50
12.7647182404
 51
73.2264193786
  0
LINE
  5
46E
330
1F
100
AcDbEntity
  8
0
  6
SLD-Solid
 62
     7
370
    25
100
AcDbLine
 10
49.3496209235
 20
13.9043035272
 30
0.0
 11
49.3955828642
 21
13.8989846161
 31
0.0
  0
LWPOLYLINE
  5
46F
330
1F
100
AcDbEntity
  8
0
  6
SLD-Solid
 62
     7
370
    25
100
AcDbPolyline
 90
        9
 70
   128
 43
0.0
 10
49.3496209235
 20
13.9043035272
 10
49.3471598569
 20
13.9042504023
 10
49.3449950803
 20
13.9035001162
 10
49.3432097848
 20
13.9020815019
 10
49.3418725783
 20
13.9000490759
 10
49.3410348489
 20
13.8974809433
 10
49.3407287901
 20
13.8944757959
 10
49.3409661635
 20
13.8911491198
 10
49.341737847
 20
13.8876287574
  0
LINE
  5
470
330
1F
100
AcDbEntity
  8
0
  6
SLD-Solid
 62
     7
370
    25
100
AcDbLine
 10
49.36010902
 20
13.8239481522
 30
0.0
 11
49.341737847
 21
13.8876287574
 31
0.0
  0
ARC
  5
471
330
1F
100
AcDbEntity
  8
0
  6
SLD-Solid
 62
     7
370
    25
100
AcDbCircle
 10
49.3862146569
 20
13.8298623045
 30
0.0
 40
0.0267671715606377
100
AcDbArc
 50
192.7647182404
 51
253.2264193785
  0
LINE
  5
472
330
1F
100
AcDbEntity
  8
0
  6
SLD-Solid
 62
     7
370
    25
100
AcDbLine
 10
49.4015043616
 20
13.8931329521
 30
0.0
 11
49.4012901594
 21
13.893161916
 31
0.0
  0
ARC
  5
473
330
1F
100
AcDbEntity
  8
0
  6
SLD-Solid
 62
     7
370
    25
100
AcDbCircle
 10
49.4357283755
 20
13.8024502217
 30
0.0
 40
0.011817662514645
100
AcDbArc
 50
125.3058463787
 51
197.4059191295
  0
ARC
  5
474
330
1F
100
AcDbEntity
  8
0
  6
SLD-Solid
 62
     7
370
    25
100
AcDbCircle
 10
49.3897664347
 20
13.8077691328
 30
0.0
 40
0.0118176625146426
100
AcDbArc
 50
125.3058463786
 51
197.4059191294
  0
LINE
  5
475
330
1F
100
AcDbEntity
  8
0
  6
SLD-Solid
 62
     7
370
    25
100
AcDbLine
 10
49.3829365242
 20
13.8174132745
 30
0.0
 11
49.428898465
 21
13.8120943635
 31
0.0
  0
LINE
  5
476
330
1F
100
AcDbEntity
  8
0
  6
SLD-Solid
 62
     7
370
    25
100
AcDbLine
 10
49.4182918633
 20
13.8378234773
 30
0.0
 11
49.3829365242
 21
13.8174132745
 31
0.0
  0
ARC
  5
477
330
1F
100
AcDbEntity
  8
0
  6
SLD-Solid
 62
     7
370
    25
100
AcDbCircle
 10
49.3427050594
 20
13.9133085339
 30
0.0
 40
0.0256979847997241
100
AcDbArc
 50
267.8430105315
 51
299.5398517664
  0
LINE
  5
478
330
1F
100
AcDbEntity
  8
0
  6
SLD-Solid
 62
     7
370
    25
100
AcDbLine
 10
49.3553749063
 20
13.8909509535
 30
0.0
 11
49.3737460794
 21
13.8272703483
 31
0.0
  0
ARC
  5
479
330
1F
100
AcDbEntity
  8
0
  6
SLD-Solid
 62
     7
370
    25
100
AcDbCircle
 10
49.3610762325
 20
13.8496279287
 30
0.0
 40
0.0256979847997268
100
AcDbArc
 50
267.8430105315
 51
299.5398517664
  0
LINE
  5
47A
330
1F
100
AcDbEntity
  8
0
  6
SLD-Solid
 62
     7
370
    25
100
AcDbLine
 10
49.3737460794
 20
13.8272703483
 30
0.0
 11
49.4091014185
 21
13.8476805511
 31
0.0
  0
ARC
  5
47B
330
1F
100
AcDbEntity
  8
0
  6
SLD-Solid
 62
     7
370
    25
100
AcDbCircle
 10
49.3867988978
 20
13.8302274245
 30
0.0
 40
0.0133835857803144
100
AcDbArc
 50
192.7647182404
 51
253.2264193786
  0
ARC
  5
47C
330
1F
100
AcDbEntity
  8
0
  6
SLD-Solid
 62
     7
370
    25
100
AcDbCircle
 10
49.4221542369
 20
13.8506376273
 30
0.0
 40
0.0133835857803384
100
AcDbArc
 50
192.7647182404
 51
253.2264193785
  0
LWPOLYLINE
  5
47D
330
1F
100
AcDbEntity
  8
0
  6
SLD-Solid
 62
     7
370
    25
100
AcDbPolyline
 90
       17
 70
   128
 43
0.0
 10
60.736796784
 20
17.2902938738
 10
60.7231891022
 20
17.3192195265
 10
60.7036347029
 20
17.3439609268
 10
60.6811105661
 20
17.3607514209
 10
60.6590457875
 20
17.3670348082
 10
60.6407995296
 20
17.3618545
 10
60.6291496197
 20
17.3459991513
 10
60.6258696511
 20
17.321882595
 10
60.6314589692
 20
17.2931763585
 10
60.645066651
 20
17.2642507058
 10
60.6646210503
 20
17.2395093054
 10
60.6871451871
 20
17.2227188113
 10
60.7092099657
 20
17.216435424
 10
60.7274562236
 20
17.2216157322
 10
60.7391061335
 20
17.237471081
 10
60.7423861021
 20
17.2615876372
 10
60.736796784
 20
17.2902938738
  0
LINE
  5
47E
330
1F
100
AcDbEntity
  8
0
  6
SLD-Solid
 62
     7
370
    25
100
AcDbLine
 10
60.7231936543
 20
17.2409238853
 30
0.0
 11
60.6785048844
 21
17.2421467575
 31
0.0
  0
LWPOLYLINE
  5
47F
330
1F
100
AcDbEntity
  8
0
  6
SLD-Solid
 62
     7
370
    25
100
AcDbPolyline
 90
        9
 70
   128
 43
0.0
 10
60.7231936543
 20
17.2409238853
 10
60.7255677752
 20
17.2412064768
 10
60.7276169895
 20
17.2421797175
 10
60.7292625471
 20
17.2438062065
 10
60.7304412101
 20
17.2460234385
 10
60.7311076831
 20
17.2487462066
 10
60.731236354
 20
17.2518698763
 10
60.730822278
 20
17.2552744069
 10
60.7298813678
 20
17.258828964
  0
LINE
  5
480
330
1F
100
AcDbEntity
  8
0
  6
SLD-Solid
 62
     7
370
    25
100
AcDbLine
 10
60.7085995953
 20
17.3227196118
 30
0.0
 11
60.7298813678
 21
17.258828964
 31
0.0
  0
ARC
  5
481
330
1F
100
AcDbEntity
  8
0
  6
SLD-Solid
 62
     7
370
    25
100
AcDbCircle
 10
60.6838919708
 20
17.3165371242
 30
0.0
 40
0.0254693906384814
100
AcDbArc
 50
14.0484247702
 51
76.7007595808
  0
LINE
  5
482
330
1F
100
AcDbEntity
  8
0
  6
SLD-Solid
 62
     7
370
    25
100
AcDbLine
 10
60.6450620989
 20
17.342546347
 30
0.0
 11
60.6897508688
 21
17.3413234747
 31
0.0
  0
LWPOLYLINE
  5
483
330
1F
100
AcDbEntity
  8
0
  6
SLD-Solid
 62
     7
370
    25
100
AcDbPolyline
 90
        9
 70
   128
 43
0.0
 10
60.6450620989
 20
17.342546347
 10
60.642687978
 20
17.3422637555
 10
60.6406387637
 20
17.3412905147
 10
60.6389932061
 20
17.3396640258
 10
60.6378145431
 20
17.3374467938
 10
60.6371480701
 20
17.3347240257
 10
60.6370193992
 20
17.3316003559
 10
60.6374334752
 20
17.3281958254
 10
60.6383743854
 20
17.3246412683
  0
LINE
  5
484
330
1F
100
AcDbEntity
  8
0
  6
SLD-Solid
 62
     7
370
    25
100
AcDbLine
 10
60.659656158
 20
17.2607506204
 30
0.0
 11
60.6383743854
 21
17.3246412683
 31
0.0
  0
ARC
  5
485
330
1F
100
AcDbEntity
  8
0
  6
SLD-Solid
 62
     7
370
    25
100
AcDbCircle
 10
60.6843637824
 20
17.2669331081
 30
0.0
 40
0.0254693906384093
100
AcDbArc
 50
194.0484247701
 51
256.7007595809
  0
ARC
  5
486
330
1F
100
AcDbEntity
  8
0
  6
SLD-Solid
 62
     7
370
    25
100
AcDbCircle
 10
60.7338576173
 20
17.2448894138
 30
0.0
 40
0.0113774128668026
100
AcDbArc
 50
125.6625478319
 51
200.3982832562
  0
LWPOLYLINE
  5
487
330
1F
100
AcDbEntity
  8
0
  6
SLD-Solid
 62
     7
370
    25
100
AcDbPolyline
 90
       10
 70
   128
 43
0.0
 10
61.5605821019
 20
17.7168745223
 10
61.5623483922
 20
17.7180027078
 10
61.5722331642
 20
17.731455731
 10
61.5750161678
 20
17.7519182636
 10
61.5702737161
 20
17.7762750704
 10
61.5587278043
 20
17.8008180484
 10
61.5421361928
 20
17.8218107517
 10
61.523024804
 20
17.8360572316
 10
61.5043031737
 20
17.8413885905
 10
61.4905877906
 20
17.838121363
  0
ARC
  5
488
330
1F
100
AcDbEntity
  8
0
  6
SLD-Solid
 62
     7
370
    25
100
AcDbCircle
 10
60.6891688474
 20
17.2461122861
 30
0.0
 40
0.0113774128668068
100
AcDbArc
 50
125.6625478319
 51
200.3982832561
  0
LINE
  5
489
330
1F
100
AcDbEntity
  8
0
  6
SLD-Solid
 62
     7
370
    25
100
AcDbLine
 10
60.682535699
 20
17.2553560335
 30
0.0
 11
60.7272244689
 21
17.2541331612
 31
0.0
  0
LINE
  5
48A
330
1F
100
AcDbEntity
  8
0
  6
SLD-Solid
 62
     7
370
    25
100
AcDbLine
 10
60.717891038
 20
17.2757662363
 30
0.0
 11
60.682535699
 21
17.2553560335
 31
0.0
  0
ARC
  5
48B
330
1F
100
AcDbEntity
  8
0
  6
SLD-Solid
 62
     7
370
    25
100
AcDbCircle
 10
60.6369875781
 20
17.3545373557
 30
0.0
 40
0.0299282354952027
100
AcDbArc
 50
272.6559088336
 51
299.7303782715
  0
LINE
  5
48C
330
1F
100
AcDbEntity
  8
0
  6
SLD-Solid
 62
     7
370
    25
100
AcDbLine
 10
60.6518295632
 20
17.3285486128
 30
0.0
 11
60.6731113358
 21
17.2646579649
 31
0.0
  0
ARC
  5
48D
330
1F
100
AcDbEntity
  8
0
  6
SLD-Solid
 62
     7
370
    25
100
AcDbCircle
 10
60.6582693507
 20
17.2906467079
 30
0.0
 40
0.0299282354951405
100
AcDbArc
 50
272.6559088335
 51
299.7303782715
  0
LINE
  5
48E
330
1F
100
AcDbEntity
  8
0
  6
SLD-Solid
 62
     7
370
    25
100
AcDbLine
 10
60.6731113358
 20
17.2646579649
 30
0.0
 11
60.7084666748
 21
17.2850681677
 31
0.0
  0
ARC
  5
48F
330
1F
100
AcDbEntity
  8
0
  6
SLD-Solid
 62
     7
370
    25
100
AcDbCircle
 10
60.685465148
 20
17.2677492088
 30
0.0
 40
0.0127346953192339
100
AcDbArc
 50
194.0484247702
 51
256.7007595809
  0
ARC
  5
490
330
1F
100
AcDbEntity
  8
0
  6
SLD-Solid
 62
     7
370
    25
100
AcDbCircle
 10
60.720820487
 20
17.2881594116
 30
0.0
 40
0.0127346953192228
100
AcDbArc
 50
194.0484247701
 51
256.7007595809
  0
ARC
  5
491
330
1F
100
AcDbEntity
  8
0
  6
SLD-Solid
 62
     7
370
    25
100
AcDbCircle
 10
61.6281582976
 20
17.836712278
 30
0.0
 40
0.007922039798096
100
AcDbArc
 50
340.3528001048
 51
79.6418233626
  0
LWPOLYLINE
  5
492
330
1F
100
AcDbEntity
  8
0
  6
SLD-Solid
 62
     7
370
    25
100
AcDbPolyline
 90
       17
 70
   128
 43
0.0
 10
59.0233650032
 20
8.3170460601
 10
59.0099354627
 20
8.3460207375
 10
58.9904953176
 20
8.3709152061
 10
58.9680041538
 20
8.3879395087
 10
58.945886047
 20
8.3945018495
 10
58.9275082785
 20
8.3896031718
 10
58.915668697
 20
8.3739892546
 10
58.9121697715
 20
8.3500371754
 10
58.9175441816
 20
8.3213934212
 10
58.9309737221
 20
8.2924187438
 10
58.9504138672
 20
8.2675242752
 10
58.972905031
 20
8.2504999726
 10
58.9950231378
 20
8.2439376317
 10
59.0134009063
 20
8.2488363095
 10
59.0252404878
 20
8.2644502266
 10
59.0287394133
 20
8.2884023058
 10
59.0233650032
 20
8.3170460601
  0
LINE
  5
493
330
1F
100
AcDbEntity
  8
0
  6
SLD-Solid
 62
     7
370
    25
100
AcDbLine
 10
59.0092804637
 20
8.2681095005
 30
0.0
 11
58.9643867817
 21
8.2699538355
 31
0.0
  0
LWPOLYLINE
  5
494
330
1F
100
AcDbEntity
  8
0
  6
SLD-Solid
 62
     7
370
    25
100
AcDbPolyline
 90
        9
 70
   128
 43
0.0
 10
59.0092804637
 20
8.2681095005
 10
59.0116683985
 20
8.2683573697
 10
59.0137356803
 20
8.2692970587
 10
59.0154028643
 20
8.2708924558
 10
59.0166058818
 20
8.2730822508
 10
59.0172985014
 20
8.275782291
 10
59.0174541062
 20
8.2788888154
 10
59.0170667163
 20
8.2822824421
 10
59.0161512189
 20
8.2858327559
  0
LINE
  5
495
330
1F
100
AcDbEntity
  8
0
  6
SLD-Solid
 62
     7
370
    25
100
AcDbLine
 10
58.9953051804
 20
8.3497084846
 30
0.0
 11
59.0161512189
 21
8.2858327559
 31
0.0
  0
ARC
  5
496
330
1F
100
AcDbEntity
  8
0
  6
SLD-Solid
 62
     7
370
    25
100
AcDbCircle
 10
58.9703791202
 20
8.3435577473
 30
0.0
 40
0.0256737228246426
100
AcDbArc
 50
13.8613548651
 51
76.1557795651
  0
LINE
  5
497
330
1F
100
AcDbEntity
  8
0
  6
SLD-Solid
 62
     7
370
    25
100
AcDbLine
 10
58.9316287212
 20
8.3703299807
 30
0.0
 11
58.9765224031
 21
8.3684856457
 31
0.0
  0
LWPOLYLINE
  5
498
330
1F
100
AcDbEntity
  8
0
  6
SLD-Solid
 62
     7
370
    25
100
AcDbPolyline
 90
        9
 70
   128
 43
0.0
 10
58.9316287212
 20
8.3703299807
 10
58.9292407863
 20
8.3700821115
 10
58.9271735046
 20
8.3691424225
 10
58.9255063205
 20
8.3675470254
 10
58.924303303
 20
8.3653572305
 10
58.9236106834
 20
8.3626571903
 10
58.9234550786
 20
8.3595506658
 10
58.9238424685
 20
8.3561570391
 10
58.9247579659
 20
8.3526067254
  0
LINE
  5
499
330
1F
100
AcDbEntity
  8
0
  6
SLD-Solid
 62
     7
370
    25
100
AcDbLine
 10
58.9456040045
 20
8.2887309966
 30
0.0
 11
58.9247579659
 21
8.3526067254
 31
0.0
  0
ARC
  5
49A
330
1F
100
AcDbEntity
  8
0
  6
SLD-Solid
 62
     7
370
    25
100
AcDbCircle
 10
58.9705300646
 20
8.2948817339
 30
0.0
 40
0.0256737228246267
100
AcDbArc
 50
193.8613548652
 51
256.1557795651
  0
ARC
  5
49B
330
1F
100
AcDbEntity
  8
0
  6
SLD-Solid
 62
     7
370
    25
100
AcDbCircle
 10
59.0200365832
 20
8.2720138605
 30
0.0
 40
0.0114428201914818
100
AcDbArc
 50
125.6118781441
 51
199.9503729736
  0
ARC
  5
49C
330
1F
100
AcDbEntity
  8
0
  6
SLD-Solid
 62
     7
370
    25
100
AcDbCircle
 10
58.9751429012
 20
8.2738581955
 30
0.0
 40
0.011442820191476
100
AcDbArc
 50
125.6118781441
 51
199.9503729736
  0
LINE
  5
49D
330
1F
100
AcDbEntity
  8
0
  6
SLD-Solid
 62
     7
370
    25
100
AcDbLine
 10
58.968479844
 20
8.2831609802
 30
0.0
 11
59.013373526
 21
8.2813166452
 31
0.0
  0
LINE
  5
49E
330
1F
100
AcDbEntity
  8
0
  6
SLD-Solid
 62
     7
370
    25
100
AcDbLine
 10
59.0038351831
 20
8.303571183
 30
0.0
 11
58.968479844
 21
8.2831609802
 31
0.0
  0
ARC
  5
49F
330
1F
100
AcDbEntity
  8
0
  6
SLD-Solid
 62
     7
370
    25
100
AcDbCircle
 10
58.9237816077
 20
8.3817725518
 30
0.0
 40
0.0291821641259486
100
AcDbArc
 50
271.9173233167
 51
299.7050924491
  0
LINE
  5
4A0
330
1F
100
AcDbEntity
  8
0
  6
SLD-Solid
 62
     7
370
    25
100
AcDbLine
 10
58.9382424168
 20
8.3564252895
 30
0.0
 11
58.9590884554
 21
8.2925495607
 31
0.0
  0
ARC
  5
4A1
330
1F
100
AcDbEntity
  8
0
  6
SLD-Solid
 62
     7
370
    25
100
AcDbCircle
 10
58.9446276463
 20
8.317896823
 30
0.0
 40
0.0291821641257719
100
AcDbArc
 50
271.9173233166
 51
299.7050924491
  0
LINE
  5
4A2
330
1F
100
AcDbEntity
  8
0
  6
SLD-Solid
 62
     7
370
    25
100
AcDbLine
 10
58.9590884554
 20
8.2925495607
 30
0.0
 11
58.9944437945
 21
8.3129597635
 31
0.0
  0
ARC
  5
4A3
330
1F
100
AcDbEntity
  8
0
  6
SLD-Solid
 62
     7
370
    25
100
AcDbCircle
 10
58.9715514855
 20
8.2956249294
 30
0.0
 40
0.012836861412323
100
AcDbArc
 50
193.8613548652
 51
256.1557795651
  0
ARC
  5
4A4
330
1F
100
AcDbEntity
  8
0
  6
SLD-Solid
 62
     7
370
    25
100
AcDbCircle
 10
59.0069068245
 20
8.3160351322
 30
0.0
 40
0.012836861412316
100
AcDbArc
 50
193.8613548652
 51
256.1557795651
  0
LINE
  5
4A5
330
1F
100
AcDbEntity
  8
0
  6
SLD-Solid
 62
     7
370
    25
100
AcDbLine
 10
59.1779904327
 20
8.8020096804
 30
0.0
 11
59.2628432464
 21
8.8509941671
 31
0.0
  0
LINE
  5
4A6
330
1F
100
AcDbEntity
  8
0
  6
SLD-Solid
 62
     7
370
    25
100
AcDbLine
 10
59.2628432464
 20
8.4688530671
 30
0.0
 11
59.2628432464
 21
8.8509941671
 31
0.0
  0
LINE
  5
4A7
330
1F
100
AcDbEntity
  8
0
  6
SLD-Solid
 62
     7
370
    25
100
AcDbLine
 10
59.2840564499
 20
8.4810991888
 30
0.0
 11
59.2628432464
 21
8.4688530671
 31
0.0
  0
LINE
  5
4A8
330
1F
100
AcDbEntity
  8
0
  6
SLD-Solid
 62
     7
370
    25
100
AcDbLine
 10
59.4078001366
 20
8.409663479
 30
0.0
 11
59.4078001366
 21
8.2259185738
 31
0.0
  0
LINE
  5
4A9
330
1F
100
AcDbEntity
  8
0
  6
SLD-Solid
 62
     7
370
    25
100
AcDbLine
 10
59.1214218902
 20
8.0605959312
 30
0.0
 11
59.4078001366
 21
8.2259185738
 31
0.0
  0
LINE
  5
4AA
330
1F
100
AcDbEntity
  8
0
  6
SLD-Solid
 62
     7
370
    25
100
AcDbLine
 10
59.1214218902
 20
8.0605959312
 30
0.0
 11
59.1214218902
 21
8.2794288688
 31
0.0
  0
LINE
  5
4AB
330
1F
100
AcDbEntity
  8
0
  6
SLD-Solid
 62
     7
370
    25
100
AcDbLine
 10
59.1779904327
 20
8.3120851932
 30
0.0
 11
59.1214218902
 21
8.2794288688
 31
0.0
  0
LINE
  5
4AC
330
1F
100
AcDbEntity
  8
0
  6
SLD-Solid
 62
     7
370
    25
100
AcDbLine
 10
59.1779904327
 20
8.8020096804
 30
0.0
 11
59.1779904327
 21
8.3120851932
 31
0.0
  0
LINE
  5
4AD
330
1F
100
AcDbEntity
  8
0
  6
SLD-Solid
 62
     7
370
    25
100
AcDbLine
 10
59.0330335425
 20
8.4382377629
 30
0.0
 11
59.0330335425
 21
8.7183112614
 31
0.0
  0
LINE
  5
4AE
330
1F
100
AcDbEntity
  8
0
  6
SLD-Solid
 62
     7
370
    25
100
AcDbLine
 10
59.1779904327
 20
8.8020096804
 30
0.0
 11
59.0330335425
 21
8.7183112614
 31
0.0
  0
LINE
  5
4AF
330
1F
100
AcDbEntity
  8
0
  6
SLD-Solid
 62
     7
370
    25
100
AcDbLine
 10
59.1779904327
 20
8.3120851932
 30
0.0
 11
59.0330335425
 21
8.4382377629
 31
0.0
  0
LINE
  5
4B0
330
1F
100
AcDbEntity
  8
0
  6
SLD-Solid
 62
     7
370
    25
100
AcDbLine
 10
59.0330335425
 20
8.7183112614
 30
0.0
 11
58.8937335066
 21
8.7987274604
 31
0.0
  0
LINE
  5
4B1
330
1F
100
AcDbEntity
  8
0
  6
SLD-Solid
 62
     7
370
    25
100
AcDbLine
 10
58.8619137015
 20
8.9844768934
 30
0.0
 11
58.8937335066
 21
8.7987274604
 31
0.0
  0
LINE
  5
4B2
330
1F
100
AcDbEntity
  8
0
  6
SLD-Solid
 62
     7
370
    25
100
AcDbLine
 10
58.8619137015
 20
8.9844768934
 30
0.0
 11
59.1779904327
 21
8.8020096804
 31
0.0
  0
LINE
  5
4B3
330
1F
100
AcDbEntity
  8
0
  6
SLD-Solid
 62
     7
370
    25
100
AcDbLine
 10
58.8619137015
 20
8.9844768934
 30
0.0
 11
58.9467665152
 21
9.0334613801
 31
0.0
  0
LINE
  5
4B4
330
1F
100
AcDbEntity
  8
0
  6
SLD-Solid
 62
     7
370
    25
100
AcDbLine
 10
59.2628432464
 20
8.8509941671
 30
0.0
 11
58.9467665152
 21
9.0334613801
 31
0.0
  0
LINE
  5
4B5
330
1F
100
AcDbEntity
  8
0
  6
SLD-Solid
 62
     7
370
    25
100
AcDbLine
 10
58.805345159
 20
8.2430631442
 30
0.0
 11
58.805345159
 21
8.4618960818
 31
0.0
  0
LINE
  5
4B6
330
1F
100
AcDbEntity
  8
0
  6
SLD-Solid
 62
     7
370
    25
100
AcDbLine
 10
58.805345159
 20
8.4618960818
 30
0.0
 11
58.8937335066
 21
8.5186539619
 31
0.0
  0
LINE
  5
4B7
330
1F
100
AcDbEntity
  8
0
  6
SLD-Solid
 62
     7
370
    25
100
AcDbLine
 10
58.8937335066
 20
8.5186539619
 30
0.0
 11
58.8937335066
 21
8.7987274604
 31
0.0
  0
LINE
  5
4B8
330
1F
100
AcDbEntity
  8
0
  6
SLD-Solid
 62
     7
370
    25
100
AcDbLine
 10
59.1214218902
 20
8.2794288688
 30
0.0
 11
59.0330335425
 21
8.4382377629
 31
0.0
  0
LINE
  5
4B9
330
1F
100
AcDbEntity
  8
0
  6
SLD-Solid
 62
     7
370
    25
100
AcDbLine
 10
58.805345159
 20
8.2430631442
 30
0.0
 11
59.1214218902
 21
8.0605959312
 31
0.0
  0
LWPOLYLINE
  5
4BA
330
1F
100
AcDbEntity
  8
0
  6
SLD-Solid
 62
     7
370
    25
100
AcDbPolyline
 90
       21
 70
   128
 43
0.0
 10
58.860138564
 20
8.3747397472
 10
58.865191732
 20
8.4086646936
 10
58.8798565969
 20
8.4334345663
 10
58.9026976594
 20
8.4466247175
 10
58.9314790772
 20
8.4469440033
 10
58.9633835246
 20
8.4343611698
 10
58.995287972
 20
8.4101079124
 10
59.0240693898
 20
8.3765583089
 10
59.0469104523
 20
8.3369964283
 10
59.0615753171
 20
8.2952948631
 10
59.0666284852
 20
8.255535653
 10
59.0615753171
 20
8.2216107065
 10
59.0469104523
 20
8.1968408338
 10
59.0240693898
 20
8.1836506826
 10
58.995287972
 20
8.1833313968
 10
58.9633835246
 20
8.1959142303
 10
58.9314790772
 20
8.2201674877
 10
58.9026976594
 20
8.2537170912
 10
58.8798565969
 20
8.2932789718
 10
58.865191732
 20
8.334980537
 10
58.860138564
 20
8.3747397472
  0
LINE
  5
4BB
330
1F
100
AcDbEntity
  8
0
  6
SLD-Solid
 62
     7
370
    25
100
AcDbLine
 10
58.8619137015
 20
8.9844768934
 30
0.0
 11
58.8619137015
 21
8.4982211251
 31
0.0
  0
LINE
  5
4BC
330
1F
100
AcDbEntity
  8
0
  6
SLD-Solid
 62
     7
370
    25
100
AcDbLine
 10
47.7709438386
 20
24.9860030245
 30
0.0
 11
47.7143752961
 21
24.9533467
 31
0.0
  0
LINE
  5
4BD
330
1F
100
AcDbEntity
  8
0
  6
SLD-Solid
 62
     7
370
    25
100
AcDbLine
 10
47.5248706787
 20
25.062745387
 30
0.0
 11
47.7143752961
 21
24.9533467
 31
0.0
  0
LINE
  5
4BE
330
1F
100
AcDbEntity
  8
0
  6
SLD-Solid
 62
     7
370
    25
100
AcDbLine
 10
47.5248706787
 20
25.062745387
 30
0.0
 11
47.8112489251
 21
25.2280680296
 31
0.0
  0
LINE
  5
4BF
330
1F
100
AcDbEntity
  8
0
  6
SLD-Solid
 62
     7
370
    25
100
AcDbLine
 10
47.9703479509
 20
25.136222117
 30
0.0
 11
47.8112489251
 21
25.2280680296
 31
0.0
  0
LINE
  5
4C0
330
1F
100
AcDbEntity
  8
0
  6
SLD-Solid
 62
     7
370
    25
100
AcDbLine
 10
47.9703479509
 20
24.9933506975
 30
0.0
 11
47.9491347474
 21
24.9811045758
 31
0.0
  0
LINE
  5
4C1
330
1F
100
AcDbEntity
  8
0
  6
SLD-Solid
 62
     7
370
    25
100
AcDbLine
 10
47.9491347474
 20
24.9811045758
 30
0.0
 11
48.280060721
 21
24.7900650776
 31
0.0
  0
LINE
  5
4C2
330
1F
100
AcDbEntity
  8
0
  6
SLD-Solid
 62
     7
370
    25
100
AcDbLine
 10
48.1952079073
 20
24.7410805909
 30
0.0
 11
48.280060721
 21
24.7900650776
 31
0.0
  0
LINE
  5
4C3
330
1F
100
AcDbEntity
  8
0
  6
SLD-Solid
 62
     7
370
    25
100
AcDbLine
 10
48.1952079073
 20
24.7410805909
 30
0.0
 11
47.7709438386
 21
24.9860030245
 31
0.0
  0
LINE
  5
4C4
330
1F
100
AcDbEntity
  8
0
  6
SLD-Solid
 62
     7
370
    25
100
AcDbLine
 10
48.1952079073
 20
24.7410805909
 30
0.0
 11
48.0502510171
 21
24.6573821719
 31
0.0
  0
LINE
  5
4C5
330
1F
100
AcDbEntity
  8
0
  6
SLD-Solid
 62
     7
370
    25
100
AcDbLine
 10
47.8077133912
 20
24.7973961631
 30
0.0
 11
48.0502510171
 21
24.6573821719
 31
0.0
  0
LINE
  5
4C6
330
1F
100
AcDbEntity
  8
0
  6
SLD-Solid
 62
     7
370
    25
100
AcDbLine
 10
47.7709438386
 20
24.9860030245
 30
0.0
 11
47.8077133912
 21
24.7973961631
 31
0.0
  0
LINE
  5
4C7
330
1F
100
AcDbEntity
  8
0
  6
SLD-Solid
 62
     7
370
    25
100
AcDbLine
 10
48.1952079073
 20
24.376086848
 30
0.0
 11
48.0502510171
 21
24.496523632
 31
0.0
  0
LINE
  5
4C8
330
1F
100
AcDbEntity
  8
0
  6
SLD-Solid
 62
     7
370
    25
100
AcDbLine
 10
48.0502510171
 20
24.496523632
 30
0.0
 11
48.0502510171
 21
24.6573821719
 31
0.0
  0
LINE
  5
4C9
330
1F
100
AcDbEntity
  8
0
  6
SLD-Solid
 62
     7
370
    25
100
AcDbLine
 10
48.1952079073
 20
24.7410805909
 30
0.0
 11
48.1952079073
 21
24.376086848
 31
0.0
  0
LINE
  5
4CA
330
1F
100
AcDbEntity
  8
0
  6
SLD-Solid
 62
     7
370
    25
100
AcDbLine
 10
48.1952079073
 20
24.376086848
 30
0.0
 11
48.280060721
 21
24.4250713347
 31
0.0
  0
LINE
  5
4CB
330
1F
100
AcDbEntity
  8
0
  6
SLD-Solid
 62
     7
370
    25
100
AcDbLine
 10
48.280060721
 20
24.4250713347
 30
0.0
 11
48.280060721
 21
24.7900650776
 31
0.0
  0
LINE
  5
4CC
330
1F
100
AcDbEntity
  8
0
  6
SLD-Solid
 62
     7
370
    25
100
AcDbLine
 10
47.7143752961
 20
24.9533467
 30
0.0
 11
47.8077133912
 21
24.7973961631
 31
0.0
  0
LINE
  5
4CD
330
1F
100
AcDbEntity
  8
0
  6
SLD-Solid
 62
     7
370
    25
100
AcDbLine
 10
47.8077133912
 20
24.6365376232
 30
0.0
 11
48.0502510171
 21
24.496523632
 31
0.0
  0
LINE
  5
4CE
330
1F
100
AcDbEntity
  8
0
  6
SLD-Solid
 62
     7
370
    25
100
AcDbLine
 10
47.7143752961
 20
24.5883529571
 30
0.0
 11
47.8077133912
 21
24.6365376232
 31
0.0
  0
LINE
  5
4CF
330
1F
100
AcDbEntity
  8
0
  6
SLD-Solid
 62
     7
370
    25
100
AcDbLine
 10
47.5248706787
 20
24.6977516441
 30
0.0
 11
47.7143752961
 21
24.5883529571
 31
0.0
  0
LINE
  5
4D0
330
1F
100
AcDbEntity
  8
0
  6
SLD-Solid
 62
     7
370
    25
100
AcDbLine
 10
47.5248706787
 20
25.062745387
 30
0.0
 11
47.5248706787
 21
24.6977516441
 31
0.0
  0
LWPOLYLINE
  5
4D1
330
1F
100
AcDbEntity
  8
0
  6
SLD-Solid
 62
     7
370
    25
100
AcDbPolyline
 90
       21
 70
   128
 43
0.0
 10
47.666292035
 20
24.9178311741
 10
47.6981964824
 20
24.8935779167
 10
47.7269779002
 20
24.8600283132
 10
47.7498189627
 20
24.8204664326
 10
47.7644838275
 20
24.7787648674
 10
47.7695369956
 20
24.7390056572
 10
47.7644838275
 20
24.7050807108
 10
47.7498189627
 20
24.6803108381
 10
47.7269779002
 20
24.6671206869
 10
47.6981964824
 20
24.6668014011
 10
47.666292035
 20
24.6793842346
 10
47.6343875876
 20
24.703637492
 10
47.6056061697
 20
24.7371870954
 10
47.5827651073
 20
24.7767489761
 10
47.5681002424
 20
24.8184505413
 10
47.5630470744
 20
24.8582097514
 10
47.5681002424
 20
24.8921346979
 10
47.5827651073
 20
24.9169045706
 10
47.6056061697
 20
24.9300947218
 10
47.6343875876
 20
24.9304140076
 10
47.666292035
 20
24.9178311741
  0
LINE
  5
4D2
330
1F
100
AcDbEntity
  8
0
  6
SLD-Solid
 62
     7
370
    25
100
AcDbLine
 10
48.1952079073
 20
24.376086848
 30
0.0
 11
47.7741019689
 21
24.6191861317
 31
0.0
  0
LINE
  5
4D3
330
1F
100
AcDbEntity
  8
0
  6
SLD-Solid
 62
     7
370
    25
100
AcDbLine
 10
49.4438526952
 20
13.9673006304
 30
0.0
 11
49.4438526952
 21
14.2473741288
 31
0.0
  0
LINE
  5
4D4
330
1F
100
AcDbEntity
  8
0
  6
SLD-Solid
 62
     7
370
    25
100
AcDbLine
 10
49.5888095854
 20
14.3310725478
 30
0.0
 11
49.4438526952
 21
14.2473741288
 31
0.0
  0
LINE
  5
4D5
330
1F
100
AcDbEntity
  8
0
  6
SLD-Solid
 62
     7
370
    25
100
AcDbLine
 10
49.5888095854
 20
14.3310725478
 30
0.0
 11
49.5888095854
 21
13.8411480607
 31
0.0
  0
LINE
  5
4D6
330
1F
100
AcDbEntity
  8
0
  6
SLD-Solid
 62
     7
370
    25
100
AcDbLine
 10
49.5888095854
 20
13.8411480607
 30
0.0
 11
49.4438526952
 21
13.9673006304
 31
0.0
  0
LINE
  5
4D7
330
1F
100
AcDbEntity
  8
0
  6
SLD-Solid
 62
     7
370
    25
100
AcDbLine
 10
49.4438526952
 20
14.2473741288
 30
0.0
 11
49.3045526593
 21
14.3277903278
 31
0.0
  0
LINE
  5
4D8
330
1F
100
AcDbEntity
  8
0
  6
SLD-Solid
 62
     7
370
    25
100
AcDbLine
 10
49.2727328542
 20
14.5135397608
 30
0.0
 11
49.3045526593
 21
14.3277903278
 31
0.0
  0
LINE
  5
4D9
330
1F
100
AcDbEntity
  8
0
  6
SLD-Solid
 62
     7
370
    25
100
AcDbLine
 10
49.2727328542
 20
14.5135397608
 30
0.0
 11
49.5888095854
 21
14.3310725478
 31
0.0
  0
LINE
  5
4DA
330
1F
100
AcDbEntity
  8
0
  6
SLD-Solid
 62
     7
370
    25
100
AcDbLine
 10
49.5888095854
 20
14.3310725478
 30
0.0
 11
49.6736623991
 21
14.3800570345
 31
0.0
  0
LINE
  5
4DB
330
1F
100
AcDbEntity
  8
0
  6
SLD-Solid
 62
     7
370
    25
100
AcDbLine
 10
49.6736623991
 20
13.9979159345
 30
0.0
 11
49.6736623991
 21
14.3800570345
 31
0.0
  0
LINE
  5
4DC
330
1F
100
AcDbEntity
  8
0
  6
SLD-Solid
 62
     7
370
    25
100
AcDbLine
 10
49.7006382444
 20
14.0134887586
 30
0.0
 11
49.6736623991
 21
13.9979159345
 31
0.0
  0
LINE
  5
4DD
330
1F
100
AcDbEntity
  8
0
  6
SLD-Solid
 62
     7
370
    25
100
AcDbLine
 10
49.8186192893
 20
13.9453797511
 30
0.0
 11
49.8186192893
 21
13.7549814413
 31
0.0
  0
LINE
  5
4DE
330
1F
100
AcDbEntity
  8
0
  6
SLD-Solid
 62
     7
370
    25
100
AcDbLine
 10
49.5322410429
 20
13.5896587986
 30
0.0
 11
49.8186192893
 21
13.7549814413
 31
0.0
  0
LINE
  5
4DF
330
1F
100
AcDbEntity
  8
0
  6
SLD-Solid
 62
     7
370
    25
100
AcDbLine
 10
49.5322410429
 20
13.5896587986
 30
0.0
 11
49.5322410429
 21
13.8084917362
 31
0.0
  0
LINE
  5
4E0
330
1F
100
AcDbEntity
  8
0
  6
SLD-Solid
 62
     7
370
    25
100
AcDbLine
 10
49.5888095854
 20
13.8411480607
 30
0.0
 11
49.5322410429
 21
13.8084917362
 31
0.0
  0
LINE
  5
4E1
330
1F
100
AcDbEntity
  8
0
  6
SLD-Solid
 62
     7
370
    25
100
AcDbLine
 10
49.2727328542
 20
14.5135397608
 30
0.0
 11
49.3575856679
 21
14.5625242475
 31
0.0
  0
LINE
  5
4E2
330
1F
100
AcDbEntity
  8
0
  6
SLD-Solid
 62
     7
370
    25
100
AcDbLine
 10
49.6736623991
 20
14.3800570345
 30
0.0
 11
49.3575856679
 21
14.5625242475
 31
0.0
  0
LINE
  5
4E3
330
1F
100
AcDbEntity
  8
0
  6
SLD-Solid
 62
     7
370
    25
100
AcDbLine
 10
49.2161643117
 20
13.7721260116
 30
0.0
 11
49.2161643117
 21
13.9909589492
 31
0.0
  0
LINE
  5
4E4
330
1F
100
AcDbEntity
  8
0
  6
SLD-Solid
 62
     7
370
    25
100
AcDbLine
 10
49.2161643117
 20
13.9909589492
 30
0.0
 11
49.3045526593
 21
14.0477168294
 31
0.0
  0
LINE
  5
4E5
330
1F
100
AcDbEntity
  8
0
  6
SLD-Solid
 62
     7
370
    25
100
AcDbLine
 10
49.3045526593
 20
14.0477168294
 30
0.0
 11
49.3045526593
 21
14.3277903278
 31
0.0
  0
LINE
  5
4E6
330
1F
100
AcDbEntity
  8
0
  6
SLD-Solid
 62
     7
370
    25
100
AcDbLine
 10
49.5322410429
 20
13.8084917362
 30
0.0
 11
49.4438526952
 21
13.9673006304
 31
0.0
  0
LINE
  5
4E7
330
1F
100
AcDbEntity
  8
0
  6
SLD-Solid
 62
     7
370
    25
100
AcDbLine
 10
49.2161643117
 20
13.7721260116
 30
0.0
 11
49.5322410429
 21
13.5896587986
 31
0.0
  0
LWPOLYLINE
  5
4E8
330
1F
100
AcDbEntity
  8
0
  6
SLD-Solid
 62
     7
370
    25
100
AcDbPolyline
 90
       21
 70
   128
 43
0.0
 10
49.2709577167
 20
13.9038026146
 10
49.2760108847
 20
13.937727561
 10
49.2906757496
 20
13.9624974337
 10
49.3135168121
 20
13.9756875849
 10
49.3422982299
 20
13.9760068708
 10
49.3742026773
 20
13.9634240373
 10
49.4061071247
 20
13.9391707799
 10
49.4348885425
 20
13.9056211764
 10
49.457729605
 20
13.8660592957
 10
49.4723944698
 20
13.8243577305
 10
49.4774476379
 20
13.7845985204
 10
49.4723944698
 20
13.7506735739
 10
49.457729605
 20
13.7259037012
 10
49.4348885425
 20
13.71271355
 10
49.4061071247
 20
13.7123942642
 10
49.3742026773
 20
13.7249770977
 10
49.3422982299
 20
13.7492303551
 10
49.3135168121
 20
13.7827799586
 10
49.2906757496
 20
13.8223418392
 10
49.2760108847
 20
13.8640434045
 10
49.2709577167
 20
13.9038026146
  0
LINE
  5
4E9
330
1F
100
AcDbEntity
  8
0
  6
SLD-Solid
 62
     7
370
    25
100
AcDbLine
 10
49.2727328542
 20
14.5135397608
 30
0.0
 11
49.2727328542
 21
14.0272839925
 31
0.0
  0
LINE
  5
4EA
330
1F
100
AcDbEntity
  8
0
  6
SLD-Solid
 62
     7
370
    25
100
AcDbLine
 10
60.2612780215
 20
17.7754865808
 30
0.0
 11
60.3461308352
 21
17.8244710676
 31
0.0
  0
LINE
  5
4EB
330
1F
100
AcDbEntity
  8
0
  6
SLD-Solid
 62
     7
370
    25
100
AcDbLine
 10
60.6770568088
 20
17.6334315694
 30
0.0
 11
60.3461308352
 21
17.8244710676
 31
0.0
  0
LINE
  5
4EC
330
1F
100
AcDbEntity
  8
0
  6
SLD-Solid
 62
     7
370
    25
100
AcDbLine
 10
60.8220136989
 20
17.7171134009
 30
0.0
 11
60.6770568088
 21
17.6334315694
 31
0.0
  0
LINE
  5
4ED
330
1F
100
AcDbEntity
  8
0
  6
SLD-Solid
 62
     7
370
    25
100
AcDbLine
 10
60.8220136989
 20
17.7171134009
 30
0.0
 11
61.1048564114
 21
17.5538317785
 31
0.0
  0
LINE
  5
4EE
330
1F
100
AcDbEntity
  8
0
  6
SLD-Solid
 62
     7
370
    25
100
AcDbLine
 10
60.818478165
 20
17.3885091358
 30
0.0
 11
61.1048564114
 21
17.5538317785
 31
0.0
  0
LINE
  5
4EF
330
1F
100
AcDbEntity
  8
0
  6
SLD-Solid
 62
     7
370
    25
100
AcDbLine
 10
60.818478165
 20
17.3885091358
 30
0.0
 11
60.6289735477
 21
17.4979078228
 31
0.0
  0
LINE
  5
4F0
330
1F
100
AcDbEntity
  8
0
  6
SLD-Solid
 62
     7
370
    25
100
AcDbLine
 10
60.6855420902
 20
17.5305641473
 30
0.0
 11
60.6289735477
 21
17.4979078228
 31
0.0
  0
LINE
  5
4F1
330
1F
100
AcDbEntity
  8
0
  6
SLD-Solid
 62
     7
370
    25
100
AcDbLine
 10
60.2612780215
 20
17.7754865808
 30
0.0
 11
60.6855420902
 21
17.5305641473
 31
0.0
  0
LINE
  5
4F2
330
1F
100
AcDbEntity
  8
0
  6
SLD-Solid
 62
     7
370
    25
100
AcDbLine
 10
61.1048564114
 20
17.5538317785
 30
0.0
 11
61.1048564114
 21
17.1888380356
 31
0.0
  0
LINE
  5
4F3
330
1F
100
AcDbEntity
  8
0
  6
SLD-Solid
 62
     7
370
    25
100
AcDbLine
 10
60.818478165
 20
17.0235153929
 30
0.0
 11
61.1048564114
 21
17.1888380356
 31
0.0
  0
LINE
  5
4F4
330
1F
100
AcDbEntity
  8
0
  6
SLD-Solid
 62
     7
370
    25
100
AcDbLine
 10
60.818478165
 20
17.0235153929
 30
0.0
 11
60.818478165
 21
17.3885091358
 31
0.0
  0
LINE
  5
4F5
330
1F
100
AcDbEntity
  8
0
  6
SLD-Solid
 62
     7
370
    25
100
AcDbLine
 10
60.818478165
 20
17.0235153929
 30
0.0
 11
60.6289735477
 21
17.1329140799
 31
0.0
  0
LINE
  5
4F6
330
1F
100
AcDbEntity
  8
0
  6
SLD-Solid
 62
     7
370
    25
100
AcDbLine
 10
60.6289735477
 20
17.1329140799
 30
0.0
 11
60.5356354526
 21
17.2888646168
 31
0.0
  0
LINE
  5
4F7
330
1F
100
AcDbEntity
  8
0
  6
SLD-Solid
 62
     7
370
    25
100
AcDbLine
 10
60.5356354526
 20
17.2888646168
 30
0.0
 11
60.2930978266
 21
17.428878608
 31
0.0
  0
LINE
  5
4F8
330
1F
100
AcDbEntity
  8
0
  6
SLD-Solid
 62
     7
370
    25
100
AcDbLine
 10
60.2930978266
 20
17.5897371479
 30
0.0
 11
60.2930978266
 21
17.428878608
 31
0.0
  0
LINE
  5
4F9
330
1F
100
AcDbEntity
  8
0
  6
SLD-Solid
 62
     7
370
    25
100
AcDbLine
 10
60.5356354526
 20
17.4497231567
 30
0.0
 11
60.2930978266
 21
17.5897371479
 31
0.0
  0
LINE
  5
4FA
330
1F
100
AcDbEntity
  8
0
  6
SLD-Solid
 62
     7
370
    25
100
AcDbLine
 10
60.6289735477
 20
17.4979078228
 30
0.0
 11
60.5356354526
 21
17.4497231567
 31
0.0
  0
LWPOLYLINE
  5
4FB
330
1F
100
AcDbEntity
  8
0
  6
SLD-Solid
 62
     7
370
    25
100
AcDbPolyline
 90
       21
 70
   128
 43
0.0
 10
60.6770568088
 20
17.1684296058
 10
60.6451523614
 20
17.1926828632
 10
60.6163709436
 20
17.2262324667
 10
60.5935298811
 20
17.2657943473
 10
60.5788650162
 20
17.3074959125
 10
60.5738118482
 20
17.3472551227
 10
60.5788650162
 20
17.3811800691
 10
60.5935298811
 20
17.4059499418
 10
60.6163709436
 20
17.419140093
 10
60.6451523614
 20
17.4194593788
 10
60.6770568088
 20
17.4068765453
 10
60.7089612562
 20
17.3826232879
 10
60.737742674
 20
17.3490736845
 10
60.7605837365
 20
17.3095118038
 10
60.7752486013
 20
17.2678102386
 10
60.7803017694
 20
17.2280510285
 10
60.7752486013
 20
17.194126082
 10
60.7605837365
 20
17.1693562093
 10
60.737742674
 20
17.1561660581
 10
60.7089612562
 20
17.1558467723
 10
60.6770568088
 20
17.1684296058
  0
LINE
  5
4FC
330
1F
100
AcDbEntity
  8
0
  6
SLD-Solid
 62
     7
370
    25
100
AcDbLine
 10
60.6855420902
 20
17.5305641473
 30
0.0
 11
60.5356354526
 21
17.4497231567
 31
0.0
  0
LINE
  5
4FD
330
1F
100
AcDbEntity
  8
0
  6
SLD-Solid
 62
     7
370
    25
100
AcDbLine
 10
60.2612780215
 20
17.7754865808
 30
0.0
 11
60.2930978266
 21
17.5897371479
 31
0.0
  0
LINE
  5
4FE
330
1F
100
AcDbEntity
  8
0
  6
SLD-Solid
 62
     7
370
    25
100
AcDbLine
 10
60.2612780215
 20
17.4104928379
 30
0.0
 11
60.2930978266
 21
17.428878608
 31
0.0
  0
LINE
  5
4FF
330
1F
100
AcDbEntity
  8
0
  6
SLD-Solid
 62
     7
370
    25
100
AcDbLine
 10
60.2612780215
 20
17.4104928379
 30
0.0
 11
60.5692468749
 21
17.2327062032
 31
0.0
  0
LINE
  5
500
330
1F
100
AcDbEntity
  8
0
  6
SLD-Solid
 62
     7
370
    25
100
AcDbLine
 10
60.2612780215
 20
17.4104928379
 30
0.0
 11
60.2612780215
 21
17.7754865808
 31
0.0
  0
LINE
  5
501
330
1F
100
AcDbEntity
  8
0
  6
SLD-Solid
 62
     7
370
    25
100
AcDbLine
 10
59.1779904327
 20
28.1246314528
 30
0.0
 11
59.1214218902
 21
28.0919751284
 31
0.0
  0
LINE
  5
502
330
1F
100
AcDbEntity
  8
0
  6
SLD-Solid
 62
     7
370
    25
100
AcDbLine
 10
59.1214218902
 20
28.310808066
 30
0.0
 11
59.1214218902
 21
28.0919751284
 31
0.0
  0
LINE
  5
503
330
1F
100
AcDbEntity
  8
0
  6
SLD-Solid
 62
     7
370
    25
100
AcDbLine
 10
59.1214218902
 20
28.310808066
 30
0.0
 11
59.4078001366
 21
28.4761307086
 31
0.0
  0
LINE
  5
504
330
1F
100
AcDbEntity
  8
0
  6
SLD-Solid
 62
     7
370
    25
100
AcDbLine
 10
59.4078001366
 20
28.1495143838
 30
0.0
 11
59.4078001366
 21
28.4761307086
 31
0.0
  0
LINE
  5
505
330
1F
100
AcDbEntity
  8
0
  6
SLD-Solid
 62
     7
370
    25
100
AcDbLine
 10
59.4078001366
 20
28.1495143838
 30
0.0
 11
59.2628432464
 21
28.0658325524
 31
0.0
  0
LINE
  5
506
330
1F
100
AcDbEntity
  8
0
  6
SLD-Solid
 62
     7
370
    25
100
AcDbLine
 10
59.2628432464
 20
28.0658325524
 30
0.0
 11
59.2628432464
 21
27.6836914524
 31
0.0
  0
LINE
  5
507
330
1F
100
AcDbEntity
  8
0
  6
SLD-Solid
 62
     7
370
    25
100
AcDbLine
 10
59.1779904327
 20
27.6347069657
 30
0.0
 11
59.2628432464
 21
27.6836914524
 31
0.0
  0
LINE
  5
508
330
1F
100
AcDbEntity
  8
0
  6
SLD-Solid
 62
     7
370
    25
100
AcDbLine
 10
59.1779904327
 20
27.6347069657
 30
0.0
 11
59.1779904327
 21
28.1246314528
 31
0.0
  0
LINE
  5
509
330
1F
100
AcDbEntity
  8
0
  6
SLD-Solid
 62
     7
370
    25
100
AcDbLine
 10
59.1214218902
 20
28.0919751284
 30
0.0
 11
59.0330335425
 21
28.0352172482
 31
0.0
  0
LINE
  5
50A
330
1F
100
AcDbEntity
  8
0
  6
SLD-Solid
 62
     7
370
    25
100
AcDbLine
 10
59.0330335425
 20
28.0352172482
 30
0.0
 11
59.0330335425
 21
27.7551437497
 31
0.0
  0
LINE
  5
50B
330
1F
100
AcDbEntity
  8
0
  6
SLD-Solid
 62
     7
370
    25
100
AcDbLine
 10
58.8937335066
 20
27.8355599487
 30
0.0
 11
59.0330335425
 21
27.7551437497
 31
0.0
  0
LINE
  5
50C
330
1F
100
AcDbEntity
  8
0
  6
SLD-Solid
 62
     7
370
    25
100
AcDbLine
 10
58.8937335066
 20
28.1156334472
 30
0.0
 11
58.8937335066
 21
27.8355599487
 31
0.0
  0
LINE
  5
50D
330
1F
100
AcDbEntity
  8
0
  6
SLD-Solid
 62
     7
370
    25
100
AcDbLine
 10
58.805345159
 20
28.2744423414
 30
0.0
 11
58.8937335066
 21
28.1156334472
 31
0.0
  0
LINE
  5
50E
330
1F
100
AcDbEntity
  8
0
  6
SLD-Solid
 62
     7
370
    25
100
AcDbLine
 10
58.805345159
 20
28.4932752789
 30
0.0
 11
58.805345159
 21
28.2744423414
 31
0.0
  0
LINE
  5
50F
330
1F
100
AcDbEntity
  8
0
  6
SLD-Solid
 62
     7
370
    25
100
AcDbLine
 10
59.1214218902
 20
28.310808066
 30
0.0
 11
58.805345159
 21
28.4932752789
 31
0.0
  0
LWPOLYLINE
  5
510
330
1F
100
AcDbEntity
  8
0
  6
SLD-Solid
 62
     7
370
    25
100
AcDbPolyline
 90
       21
 70
   128
 43
0.0
 10
59.0666284852
 20
28.179131463
 10
59.0615753171
 20
28.1452065165
 10
59.0469104523
 20
28.1204366438
 10
59.0240693898
 20
28.1072464926
 10
58.995287972
 20
28.1069272068
 10
58.9633835246
 20
28.1195100403
 10
58.9314790772
 20
28.1437632977
 10
58.9026976594
 20
28.1773129012
 10
58.8798565969
 20
28.2168747818
 10
58.865191732
 20
28.2585763471
 10
58.860138564
 20
28.2983355572
 10
58.865191732
 20
28.3322605036
 10
58.8798565969
 20
28.3570303763
 10
58.9026976594
 20
28.3702205275
 10
58.9314790772
 20
28.3705398133
 10
58.9633835246
 20
28.3579569798
 10
58.995287972
 20
28.3337037224
 10
59.0240693898
 20
28.300154119
 10
59.0469104523
 20
28.2605922383
 10
59.0615753171
 20
28.2188906731
 10
59.0666284852
 20
28.179131463
  0
LINE
  5
511
330
1F
100
AcDbEntity
  8
0
  6
SLD-Solid
 62
     7
370
    25
100
AcDbLine
 10
59.0917234054
 20
28.6585979216
 30
0.0
 11
59.4078001366
 21
28.4761307086
 31
0.0
  0
LINE
  5
512
330
1F
100
AcDbEntity
  8
0
  6
SLD-Solid
 62
     7
370
    25
100
AcDbLine
 10
58.805345159
 20
28.4932752789
 30
0.0
 11
59.0917234054
 21
28.6585979216
 31
0.0
  0
LINE
  5
513
330
1F
100
AcDbEntity
  8
0
  6
SLD-Solid
 62
     7
370
    25
100
AcDbLine
 10
59.1779904327
 20
27.6347069657
 30
0.0
 11
59.0330335425
 21
27.7551437497
 31
0.0
  0
LINE
  5
514
330
1F
100
AcDbEntity
  8
0
  6
SLD-Solid
 62
     7
370
    25
100
AcDbLine
 10
59.1779904327
 20
28.1246314528
 30
0.0
 11
59.0330335425
 21
28.0352172482
 31
0.0
  0
LINE
  5
515
330
1F
100
AcDbEntity
  8
0
  6
SLD-Solid
 62
     7
370
    25
100
AcDbLine
 10
58.8619137015
 20
27.8171741787
 30
0.0
 11
58.8937335066
 21
27.8355599487
 31
0.0
  0
LINE
  5
516
330
1F
100
AcDbEntity
  8
0
  6
SLD-Solid
 62
     7
370
    25
100
AcDbLine
 10
58.8619137015
 20
27.8171741787
 30
0.0
 11
58.8619137015
 21
28.1728046491
 31
0.0
  0
LINE
  5
517
330
1F
100
AcDbEntity
  8
0
  6
SLD-Solid
 62
     7
370
    25
100
AcDbLine
 10
59.1779904327
 20
27.6347069657
 30
0.0
 11
58.8619137015
 21
27.8171741787
 31
0.0
  0
LINE
  5
518
330
1F
100
AcDbEntity
  8
0
  6
SLD-Solid
 62
     7
370
    25
100
AcDbLine
 10
49.5025425581
 20
34.187660789
 30
0.0
 11
49.8186192893
 21
34.005193576
 31
0.0
  0
LINE
  5
519
330
1F
100
AcDbEntity
  8
0
  6
SLD-Solid
 62
     7
370
    25
100
AcDbLine
 10
49.5322410429
 20
33.8398709334
 30
0.0
 11
49.8186192893
 21
34.005193576
 31
0.0
  0
LINE
  5
51A
330
1F
100
AcDbEntity
  8
0
  6
SLD-Solid
 62
     7
370
    25
100
AcDbLine
 10
49.5322410429
 20
33.8398709334
 30
0.0
 11
49.2161643117
 21
34.0223381464
 31
0.0
  0
LINE
  5
51B
330
1F
100
AcDbEntity
  8
0
  6
SLD-Solid
 62
     7
370
    25
100
AcDbLine
 10
49.2161643117
 20
34.0223381464
 30
0.0
 11
49.5025425581
 21
34.187660789
 31
0.0
  0
LINE
  5
51C
330
1F
100
AcDbEntity
  8
0
  6
SLD-Solid
 62
     7
370
    25
100
AcDbLine
 10
49.5888095854
 20
33.6536943203
 30
0.0
 11
49.5322410429
 21
33.6210379958
 31
0.0
  0
LINE
  5
51D
330
1F
100
AcDbEntity
  8
0
  6
SLD-Solid
 62
     7
370
    25
100
AcDbLine
 10
49.5322410429
 20
33.8398709334
 30
0.0
 11
49.5322410429
 21
33.6210379958
 31
0.0
  0
LINE
  5
51E
330
1F
100
AcDbEntity
  8
0
  6
SLD-Solid
 62
     7
370
    25
100
AcDbLine
 10
49.8186192893
 20
33.6785772513
 30
0.0
 11
49.8186192893
 21
34.005193576
 31
0.0
  0
LINE
  5
51F
330
1F
100
AcDbEntity
  8
0
  6
SLD-Solid
 62
     7
370
    25
100
AcDbLine
 10
49.8186192893
 20
33.6785772513
 30
0.0
 11
49.6736623991
 21
33.5948954198
 31
0.0
  0
LINE
  5
520
330
1F
100
AcDbEntity
  8
0
  6
SLD-Solid
 62
     7
370
    25
100
AcDbLine
 10
49.6736623991
 20
33.5948954198
 30
0.0
 11
49.6736623991
 21
33.2127543198
 31
0.0
  0
LINE
  5
521
330
1F
100
AcDbEntity
  8
0
  6
SLD-Solid
 62
     7
370
    25
100
AcDbLine
 10
49.5888095854
 20
33.1637698331
 30
0.0
 11
49.6736623991
 21
33.2127543198
 31
0.0
  0
LINE
  5
522
330
1F
100
AcDbEntity
  8
0
  6
SLD-Solid
 62
     7
370
    25
100
AcDbLine
 10
49.5888095854
 20
33.1637698331
 30
0.0
 11
49.5888095854
 21
33.6536943203
 31
0.0
  0
LINE
  5
523
330
1F
100
AcDbEntity
  8
0
  6
SLD-Solid
 62
     7
370
    25
100
AcDbLine
 10
49.5322410429
 20
33.6210379958
 30
0.0
 11
49.4438526952
 21
33.5642801156
 31
0.0
  0
LINE
  5
524
330
1F
100
AcDbEntity
  8
0
  6
SLD-Solid
 62
     7
370
    25
100
AcDbLine
 10
49.4438526952
 20
33.5642801156
 30
0.0
 11
49.4438526952
 21
33.2842066171
 31
0.0
  0
LINE
  5
525
330
1F
100
AcDbEntity
  8
0
  6
SLD-Solid
 62
     7
370
    25
100
AcDbLine
 10
49.3045526593
 20
33.3646228161
 30
0.0
 11
49.4438526952
 21
33.2842066171
 31
0.0
  0
LINE
  5
526
330
1F
100
AcDbEntity
  8
0
  6
SLD-Solid
 62
     7
370
    25
100
AcDbLine
 10
49.3045526593
 20
33.6446963146
 30
0.0
 11
49.3045526593
 21
33.3646228161
 31
0.0
  0
LINE
  5
527
330
1F
100
AcDbEntity
  8
0
  6
SLD-Solid
 62
     7
370
    25
100
AcDbLine
 10
49.2161643117
 20
33.8035052088
 30
0.0
 11
49.3045526593
 21
33.6446963146
 31
0.0
  0
LINE
  5
528
330
1F
100
AcDbEntity
  8
0
  6
SLD-Solid
 62
     7
370
    25
100
AcDbLine
 10
49.2161643117
 20
34.0223381464
 30
0.0
 11
49.2161643117
 21
33.8035052088
 31
0.0
  0
LWPOLYLINE
  5
529
330
1F
100
AcDbEntity
  8
0
  6
SLD-Solid
 62
     7
370
    25
100
AcDbPolyline
 90
       21
 70
   128
 43
0.0
 10
49.4774476379
 20
33.7081943304
 10
49.4723944698
 20
33.6742693839
 10
49.457729605
 20
33.6494995112
 10
49.4348885425
 20
33.63630936
 10
49.4061071247
 20
33.6359900742
 10
49.3742026773
 20
33.6485729077
 10
49.3422982299
 20
33.6728261651
 10
49.3135168121
 20
33.7063757686
 10
49.2906757496
 20
33.7459376492
 10
49.2760108847
 20
33.7876392145
 10
49.2709577167
 20
33.8273984246
 10
49.2760108847
 20
33.8613233711
 10
49.2906757496
 20
33.8860932437
 10
49.3135168121
 20
33.899283395
 10
49.3422982299
 20
33.8996026808
 10
49.3742026773
 20
33.8870198473
 10
49.4061071247
 20
33.8627665899
 10
49.4348885425
 20
33.8292169864
 10
49.457729605
 20
33.7896551058
 10
49.4723944698
 20
33.7479535405
 10
49.4774476379
 20
33.7081943304
  0
LINE
  5
52A
330
1F
100
AcDbEntity
  8
0
  6
SLD-Solid
 62
     7
370
    25
100
AcDbLine
 10
49.5888095854
 20
33.6536943203
 30
0.0
 11
49.4438526952
 21
33.5642801156
 31
0.0
  0
LINE
  5
52B
330
1F
100
AcDbEntity
  8
0
  6
SLD-Solid
 62
     7
370
    25
100
AcDbLine
 10
49.5888095854
 20
33.1637698331
 30
0.0
 11
49.4438526952
 21
33.2842066171
 31
0.0
  0
LINE
  5
52C
330
1F
100
AcDbEntity
  8
0
  6
SLD-Solid
 62
     7
370
    25
100
AcDbLine
 10
49.2727328542
 20
33.3462370461
 30
0.0
 11
49.3045526593
 21
33.3646228161
 31
0.0
  0
LINE
  5
52D
330
1F
100
AcDbEntity
  8
0
  6
SLD-Solid
 62
     7
370
    25
100
AcDbLine
 10
49.2727328542
 20
33.3462370461
 30
0.0
 11
49.2727328542
 21
33.7018675165
 31
0.0
  0
LINE
  5
52E
330
1F
100
AcDbEntity
  8
0
  6
SLD-Solid
 62
     7
370
    25
100
AcDbLine
 10
49.5888095854
 20
33.1637698331
 30
0.0
 11
49.2727328542
 21
33.3462370461
 31
0.0
  0
LINE
  5
52F
330
1F
100
AcDbEntity
  8
0
  6
SLD-Solid
 62
     7
370
    25
100
AcDbLine
 10
60.6558436054
 20
7.6891873013
 30
0.0
 11
60.6558436054
 21
17.1174023258
 31
0.0
  0
LINE
  5
530
330
1F
100
AcDbEntity
  8
0
  6
SLD-Solid
 62
     7
370
    25
100
AcDbLine
 10
60.6558436054
 20
17.6456776911
 30
0.0
 11
60.6558436054
 21
27.2371743379
 31
0.0
  0
LINE
  5
531
330
1F
100
AcDbEntity
  8
0
  6
SLD-Solid
 62
     7
370
    25
100
AcDbLine
 10
60.6982700122
 20
27.2616705622
 30
0.0
 11
60.6558436054
 21
27.2371743379
 31
0.0
  0
LINE
  5
532
330
1F
100
AcDbEntity
  8
0
  6
SLD-Solid
 62
     7
370
    25
100
AcDbLine
 10
60.6982700122
 20
27.2616705622
 30
0.0
 11
60.6982700122
 21
17.6456776911
 31
0.0
  0
LINE
  5
533
330
1F
100
AcDbEntity
  8
0
  6
SLD-Solid
 62
     7
370
    25
100
AcDbLine
 10
60.6982700122
 20
17.0929100824
 30
0.0
 11
60.6982700122
 21
7.664691077
 31
0.0
  0
LINE
  5
534
330
1F
100
AcDbEntity
  8
0
  6
SLD-Solid
 62
     7
370
    25
100
AcDbLine
 10
60.6558436054
 20
7.6891873013
 30
0.0
 11
60.6982700122
 21
7.664691077
 31
0.0
  0
LINE
  5
535
330
1F
100
AcDbEntity
  8
0
  6
SLD-Solid
 62
     7
370
    25
100
AcDbLine
 10
47.9703479509
 20
34.6093435686
 30
0.0
 11
49.2161643117
 21
33.890149092
 31
0.0
  0
LINE
  5
536
330
1F
100
AcDbEntity
  8
0
  6
SLD-Solid
 62
     7
370
    25
100
AcDbLine
 10
49.7006382444
 20
33.6104682438
 30
0.0
 11
58.805345159
 21
28.3544328199
 31
0.0
  0
LINE
  5
537
330
1F
100
AcDbEntity
  8
0
  6
SLD-Solid
 62
     7
370
    25
100
AcDbLine
 10
59.2840564499
 20
28.0780786741
 30
0.0
 11
60.6982700122
 21
27.2616705622
 31
0.0
  0
LINE
  5
538
330
1F
100
AcDbEntity
  8
0
  6
SLD-Solid
 62
     7
370
    25
100
AcDbLine
 10
60.6558436054
 20
27.2371743379
 30
0.0
 11
59.2628432464
 21
28.041336328
 31
0.0
  0
LINE
  5
539
330
1F
100
AcDbEntity
  8
0
  6
SLD-Solid
 62
     7
370
    25
100
AcDbLine
 10
58.805345159
 20
28.3054443522
 30
0.0
 11
49.6736623991
 21
33.5770526001
 31
0.0
  0
LINE
  5
53A
330
1F
100
AcDbEntity
  8
0
  6
SLD-Solid
 62
     7
370
    25
100
AcDbLine
 10
49.2161643117
 20
33.8411606243
 30
0.0
 11
47.9703479509
 21
34.5603551009
 31
0.0
  0
LINE
  5
53B
330
1F
100
AcDbEntity
  8
0
  6
SLD-Solid
 62
     7
370
    25
100
AcDbLine
 10
47.9703479509
 20
34.6093435686
 30
0.0
 11
47.9703479509
 21
34.5603551009
 31
0.0
  0
LINE
  5
53C
330
1F
100
AcDbEntity
  8
0
  6
SLD-Solid
 62
     7
370
    25
100
AcDbLine
 10
47.9703479509
 20
34.6093435686
 30
0.0
 11
48.0671157923
 21
34.6652064544
 31
0.0
  0
LINE
  5
53D
330
1F
100
AcDbEntity
  8
0
  6
SLD-Solid
 62
     7
370
    25
100
AcDbLine
 10
60.7950378536
 20
27.317533448
 30
0.0
 11
59.3808242913
 21
28.1339415598
 31
0.0
  0
LINE
  5
53E
330
1F
100
AcDbEntity
  8
0
  6
SLD-Solid
 62
     7
370
    25
100
AcDbLine
 10
58.805345159
 20
28.4661585914
 30
0.0
 11
49.7974060858
 21
33.6663311296
 31
0.0
  0
LINE
  5
53F
330
1F
100
AcDbEntity
  8
0
  6
SLD-Solid
 62
     7
370
    25
100
AcDbLine
 10
49.2161643117
 20
34.0018748635
 30
0.0
 11
48.0671157923
 21
34.6652064544
 31
0.0
  0
LINE
  5
540
330
1F
100
AcDbEntity
  8
0
  6
SLD-Solid
 62
     7
370
    25
100
AcDbLine
 10
60.6982700122
 20
27.2616705622
 30
0.0
 11
60.7950378536
 21
27.317533448
 31
0.0
  0
LINE
  5
541
330
1F
100
AcDbEntity
  8
0
  6
SLD-Solid
 62
     7
370
    25
100
AcDbLine
 10
60.7950378536
 20
7.7205539627
 30
0.0
 11
60.7950378536
 21
17.0370471967
 31
0.0
  0
LINE
  5
542
330
1F
100
AcDbEntity
  8
0
  6
SLD-Solid
 62
     7
370
    25
100
AcDbLine
 10
60.7950378536
 20
17.7015405768
 30
0.0
 11
60.7950378536
 21
27.317533448
 31
0.0
  0
LINE
  5
543
330
1F
100
AcDbEntity
  8
0
  6
SLD-Solid
 62
     7
370
    25
100
AcDbLine
 10
60.6982700122
 20
7.664691077
 30
0.0
 11
60.7950378536
 21
7.7205539627
 31
0.0
  0
LINE
  5
544
330
1F
100
AcDbEntity
  8
0
  6
SLD-Solid
 62
     7
370
    25
100
AcDbLine
 10
47.9703479509
 20
34.5603551009
 30
0.0
 11
47.9703479509
 21
24.9688584541
 31
0.0
  0
LINE
  5
545
330
1F
100
AcDbEntity
  8
0
  6
SLD-Solid
 62
     7
370
    25
100
AcDbLine
 10
47.9703479509
 20
24.5058957378
 30
0.0
 11
47.9703479509
 21
15.0123680644
 31
0.0
  0
LINE
  5
546
330
1F
100
AcDbEntity
  8
0
  6
SLD-Solid
 62
     7
370
    25
100
AcDbLine
 10
47.9703479509
 20
15.0123680644
 30
0.0
 11
49.2727328542
 21
14.2605172633
 31
0.0
  0
LINE
  5
547
330
1F
100
AcDbEntity
  8
0
  6
SLD-Solid
 62
     7
370
    25
100
AcDbLine
 10
49.6736623991
 20
14.0290655636
 30
0.0
 11
58.8619137015
 21
8.7248009912
 31
0.0
  0
LINE
  5
548
330
1F
100
AcDbEntity
  8
0
  6
SLD-Solid
 62
     7
370
    25
100
AcDbLine
 10
59.2628432464
 20
8.4933492915
 30
0.0
 11
60.6558436054
 21
7.6891873013
 31
0.0
  0
LINE
  5
549
330
1F
100
AcDbEntity
  8
0
  6
SLD-Solid
 62
     7
370
    25
100
AcDbLine
 10
60.6982700122
 20
7.664691077
 30
0.0
 11
59.2628432464
 21
8.4933453105
 31
0.0
  0
LINE
  5
54A
330
1F
100
AcDbEntity
  8
0
  6
SLD-Solid
 62
     7
370
    25
100
AcDbLine
 10
58.8619137015
 20
8.7247970102
 30
0.0
 11
49.6736623991
 21
14.0290615826
 31
0.0
  0
LINE
  5
54B
330
1F
100
AcDbEntity
  8
0
  6
SLD-Solid
 62
     7
370
    25
100
AcDbLine
 10
49.2727328542
 20
14.2605132823
 30
0.0
 11
47.9703479509
 21
15.0123640834
 31
0.0
  0
LINE
  5
54C
330
1F
100
AcDbEntity
  8
0
  6
SLD-Solid
 62
     7
370
    25
100
AcDbLine
 10
47.9703479509
 20
15.0123680644
 30
0.0
 11
47.9703479509
 21
15.0123640834
 31
0.0
  0
ARC
  5
54D
330
1F
100
AcDbEntity
  8
0
  6
SLD-Solid
 62
     8
370
    25
100
AcDbCircle
 10
59.0002286218
 20
28.2729488336
 30
0.0
 40
0.0050490587251086
100
AcDbArc
 50
174.4385613426
 51
233.628465731
  0
ARC
  5
54E
330
1F
100
AcDbEntity
  8
0
  6
SLD-Solid
 62
     8
370
    25
100
AcDbCircle
 10
59.0114334393
 20
28.2535389354
 30
0.0
 40
0.0050477623540858
100
AcDbArc
 50
186.3717738047
 51
245.5660818995
  0
ARC
  5
54F
330
1F
100
AcDbEntity
  8
0
  6
SLD-Solid
 62
     8
370
    25
100
AcDbCircle
 10
59.0114211038
 20
28.1963665035
 30
0.0
 40
0.0050293927849299
100
AcDbArc
 50
185.6947992511
 51
245.6253417064
  0
ARC
  5
550
330
1F
100
AcDbEntity
  8
0
  6
SLD-Solid
 62
     8
370
    25
100
AcDbCircle
 10
58.9506058741
 20
28.3014715699
 30
0.0
 40
0.0049297792838185
100
AcDbArc
 50
173.7011523699
 51
234.9866672366
  0
ARC
  5
551
330
1F
100
AcDbEntity
  8
0
  6
SLD-Solid
 62
     8
370
    25
100
AcDbCircle
 10
59.0053431217
 20
28.2003453325
 30
0.0
 40
0.0054295927638315
100
AcDbArc
 50
235.5848643173
 51
281.4726936196
  0
ARC
  5
552
330
1F
100
AcDbEntity
  8
0
  6
SLD-Solid
 62
     8
370
    25
100
AcDbCircle
 10
58.9511064772
 20
28.2942666002
 30
0.0
 40
0.0054169986933052
100
AcDbArc
 50
138.1432433921
 51
184.4563454139
  0
LINE
  5
553
330
1F
100
AcDbEntity
  8
0
  6
SLD-Solid
 62
     8
370
    25
100
AcDbLine
 10
59.0022743976
 20
28.1958661127
 30
0.0
 11
59.0064165332
 21
28.1982573167
 31
0.0
  0
LINE
  5
554
330
1F
100
AcDbEntity
  8
0
  6
SLD-Solid
 62
     8
370
    25
100
AcDbLine
 10
58.9952033297
 20
28.2570980481
 30
0.0
 11
59.0064165332
 21
28.2506248035
 31
0.0
  0
LINE
  5
555
330
1F
100
AcDbEntity
  8
0
  6
SLD-Solid
 62
     8
370
    25
100
AcDbLine
 10
58.9952033297
 20
28.2700555418
 30
0.0
 11
58.9952033297
 21
28.2570980481
 31
0.0
  0
LINE
  5
556
330
1F
100
AcDbEntity
  8
0
  6
SLD-Solid
 62
     8
370
    25
100
AcDbLine
 10
58.9498494766
 20
28.2962377639
 30
0.0
 11
58.9457058551
 21
28.2938457021
 31
0.0
  0
LINE
  5
557
330
1F
100
AcDbEntity
  8
0
  6
SLD-Solid
 62
     8
370
    25
100
AcDbLine
 10
59.0064165332
 20
28.2342953143
 30
0.0
 11
58.9881322619
 21
28.2448505994
 31
0.0
  0
LINE
  5
558
330
1F
100
AcDbEntity
  8
0
  6
SLD-Solid
 62
     8
370
    25
100
AcDbLine
 10
58.9810611941
 20
28.2570980481
 30
0.0
 11
58.9810611941
 21
28.278219623
 31
0.0
  0
ARC
  5
559
330
1F
100
AcDbEntity
  8
0
  6
SLD-Solid
 62
     8
370
    25
100
AcDbCircle
 10
47.6930785957
 20
24.847542611
 30
0.0
 40
0.007061045698656
100
AcDbArc
 50
188.4801781516
 51
250.3848354345
  0
ARC
  5
55A
330
1F
100
AcDbEntity
  8
0
  6
SLD-Solid
 62
     8
370
    25
100
AcDbCircle
 10
47.7038150991
 20
24.8283859559
 30
0.0
 40
0.0030711055558906
100
AcDbArc
 50
202.1641182029
 51
267.1203792687
  0
ARC
  5
55B
330
1F
100
AcDbEntity
  8
0
  6
SLD-Solid
 62
     8
370
    25
100
AcDbCircle
 10
47.7178220593
 20
24.7654783529
 30
0.0
 40
0.003071070959219
100
AcDbArc
 50
202.1627292201
 51
267.1206207342
  0
ARC
  5
55C
330
1F
100
AcDbEntity
  8
0
  6
SLD-Solid
 62
     8
370
    25
100
AcDbCircle
 10
47.6455636982
 20
24.8587564851
 30
0.0
 40
0.0070182456986024
100
AcDbArc
 50
188.3862632592
 51
251.9515269192
  0
ARC
  5
55D
330
1F
100
AcDbEntity
  8
0
  6
SLD-Solid
 62
     8
370
    25
100
AcDbCircle
 10
47.7142771638
 20
24.7645531859
 30
0.0
 40
0.003992677076504
100
AcDbArc
 50
253.9872778034
 51
297.596810423
  0
LINE
  5
55E
330
1F
100
AcDbEntity
  8
0
  6
SLD-Solid
 62
     8
370
    25
100
AcDbLine
 10
47.7131757807
 20
24.7607154228
 30
0.0
 11
47.7152987225
 21
24.761940971
 31
0.0
  0
LINE
  5
55F
330
1F
100
AcDbEntity
  8
0
  6
SLD-Solid
 62
     8
370
    25
100
AcDbLine
 10
47.7091620622
 20
24.7904396455
 30
0.0
 11
47.7010568672
 21
24.7923571907
 31
0.0
  0
ARC
  5
560
330
1F
100
AcDbEntity
  8
0
  6
SLD-Solid
 62
     8
370
    25
100
AcDbCircle
 10
47.6494226837
 20
24.8477172957
 30
0.0
 40
0.0068959882784175
100
AcDbArc
 50
142.1875723482
 51
199.231440517
  0
LINE
  5
561
330
1F
100
AcDbEntity
  8
0
  6
SLD-Solid
 62
     8
370
    25
100
AcDbLine
 10
47.6512061445
 20
24.8502342462
 30
0.0
 11
47.6429115208
 21
24.8454458618
 31
0.0
  0
ARC
  5
562
330
1F
100
AcDbEntity
  8
0
  6
SLD-Solid
 62
     8
370
    25
100
AcDbCircle
 10
47.6940036728
 20
24.8025603819
 30
0.0
 40
0.0124037358086493
100
AcDbArc
 50
304.6550727006
 51
1.2168800063
  0
LINE
  5
563
330
1F
100
AcDbEntity
  8
0
  6
SLD-Solid
 62
     8
370
    25
100
AcDbLine
 10
47.6922738347
 20
24.8029484956
 30
0.0
 11
47.6834433787
 21
24.842607489
 31
0.0
  0
ARC
  5
564
330
1F
100
AcDbEntity
  8
0
  6
SLD-Solid
 62
     8
370
    25
100
AcDbCircle
 10
47.7028743865
 20
24.783850106
 30
0.0
 40
0.0218430809065214
100
AcDbArc
 50
82.2767713393
 51
119.0324432963
  0
ARC
  5
565
330
1F
100
AcDbEntity
  8
0
  6
SLD-Solid
 62
     8
370
    25
100
AcDbCircle
 10
49.4114428673
 20
33.8138032195
 30
0.0
 40
0.0061430765399333
100
AcDbArc
 50
182.536676077
 51
242.6746885066
  0
ARC
  5
566
330
1F
100
AcDbEntity
  8
0
  6
SLD-Solid
 62
     8
370
    25
100
AcDbCircle
 10
49.4224334109
 20
33.7944277931
 30
0.0
 40
0.0038973009951872
100
AcDbArc
 50
194.8826710562
 51
256.3143493943
  0
ARC
  5
567
330
1F
100
AcDbEntity
  8
0
  6
SLD-Solid
 62
     8
370
    25
100
AcDbCircle
 10
49.4302756743
 20
33.733453215
 30
0.0
 40
0.0038870081170737
100
AcDbArc
 50
194.483553425
 51
256.3638357195
  0
ARC
  5
568
330
1F
100
AcDbEntity
  8
0
  6
SLD-Solid
 62
     8
370
    25
100
AcDbCircle
 10
49.362537645
 20
33.8329421982
 30
0.0
 40
0.0061087510906669
100
AcDbArc
 50
182.4446698628
 51
243.9725345086
  0
ARC
  5
569
330
1F
100
AcDbEntity
  8
0
  6
SLD-Solid
 62
     8
370
    25
100
AcDbCircle
 10
49.4254776043
 20
33.7343878207
 30
0.0
 40
0.0043046237012453
100
AcDbArc
 50
243.9654814815
 51
297.9084419806
  0
LINE
  5
56A
330
1F
100
AcDbEntity
  8
0
  6
SLD-Solid
 62
     8
370
    25
100
AcDbLine
 10
49.4235882509
 20
33.7305199881
 30
0.0
 11
49.4265226025
 21
33.7322139532
 31
0.0
  0
ARC
  5
56B
330
1F
100
AcDbEntity
  8
0
  6
SLD-Solid
 62
     8
370
    25
100
AcDbCircle
 10
49.3650937895
 20
33.8234328466
 30
0.0
 40
0.0064704623353251
100
AcDbArc
 50
142.1506445836
 51
192.0616545702
  0
LINE
  5
56C
330
1F
100
AcDbEntity
  8
0
  6
SLD-Solid
 62
     8
370
    25
100
AcDbLine
 10
49.4160221637
 20
33.7828718682
 30
0.0
 11
49.4202381451
 21
33.781219831
 31
0.0
  0
LINE
  5
56D
330
1F
100
AcDbEntity
  8
0
  6
SLD-Solid
 62
     8
370
    25
100
AcDbLine
 10
49.4132129776
 20
33.8046944891
 30
0.0
 11
49.4160221637
 21
33.7828718682
 31
0.0
  0
LINE
  5
56E
330
1F
100
AcDbEntity
  8
0
  6
SLD-Solid
 62
     8
370
    25
100
AcDbLine
 10
49.4222882985
 20
33.7652936096
 30
0.0
 11
49.4100722332
 21
33.770080489
 31
0.0
  0
LINE
  5
56F
330
1F
100
AcDbEntity
  8
0
  6
SLD-Solid
 62
     8
370
    25
100
AcDbLine
 10
49.3647505659
 20
33.8255354682
 30
0.0
 11
49.3587661736
 21
33.8220807521
 31
0.0
  0
LINE
  5
570
330
1F
100
AcDbEntity
  8
0
  6
SLD-Solid
 62
     8
370
    25
100
AcDbLine
 10
49.4019694735
 20
33.7815255845
 30
0.0
 11
49.3979803477
 21
33.8125143395
 31
0.0
  0
ARC
  5
571
330
1F
100
AcDbEntity
  8
0
  6
SLD-Solid
 62
     8
370
    25
100
AcDbCircle
 10
49.4029183212
 20
13.9004662468
 30
0.0
 40
0.0074835926398316
100
AcDbArc
 50
191.4190860826
 51
257.4339930838
  0
ARC
  5
572
330
1F
100
AcDbEntity
  8
0
  6
SLD-Solid
 62
     8
370
    25
100
AcDbCircle
 10
49.4136726631
 20
13.8818153368
 30
0.0
 40
0.002561462119637
100
AcDbArc
 50
208.6472963484
 51
276.5253301905
  0
ARC
  5
573
330
1F
100
AcDbEntity
  8
0
  6
SLD-Solid
 62
     8
370
    25
100
AcDbCircle
 10
49.4320458059
 20
13.8181415575
 30
0.0
 40
0.0025680214372272
100
AcDbArc
 50
208.9108781529
 51
276.4643594845
  0
ARC
  5
574
330
1F
100
AcDbEntity
  8
0
  6
SLD-Solid
 62
     8
370
    25
100
AcDbCircle
 10
49.3569120721
 20
13.9057597737
 30
0.0
 40
0.0074351531388238
100
AcDbArc
 50
191.2949467025
 51
259.3847523051
  0
ARC
  5
575
330
1F
100
AcDbEntity
  8
0
  6
SLD-Solid
 62
     8
370
    25
100
AcDbCircle
 10
49.4294514632
 20
13.8157640988
 30
0.0
 40
0.0037111674796956
100
AcDbArc
 50
261.4304862731
 51
299.3435523789
  0
LINE
  5
576
330
1F
100
AcDbEntity
  8
0
  6
SLD-Solid
 62
     8
370
    25
100
AcDbLine
 10
49.428898465
 20
13.8120943635
 30
0.0
 11
49.4303735109
 21
13.8129458894
 31
0.0
  0
LINE
  5
577
330
1F
100
AcDbEntity
  8
0
  6
SLD-Solid
 62
     8
370
    25
100
AcDbLine
 10
49.4239505622
 20
13.8371686286
 30
0.0
 11
49.4182918633
 21
13.8378234773
 31
0.0
  0
ARC
  5
578
330
1F
100
AcDbEntity
  8
0
  6
SLD-Solid
 62
     8
370
    25
100
AcDbCircle
 10
49.3620475521
 20
13.8938882009
 30
0.0
 40
0.0072905159957352
100
AcDbArc
 50
142.11693184
 51
203.7587255359
  0
LINE
  5
579
330
1F
100
AcDbEntity
  8
0
  6
SLD-Solid
 62
     8
370
    25
100
AcDbLine
 10
49.3662265157
 20
13.8972154543
 30
0.0
 11
49.3553749063
 21
13.8909509535
 31
0.0
  0
ARC
  5
57A
330
1F
100
AcDbEntity
  8
0
  6
SLD-Solid
 62
     8
370
    25
100
AcDbCircle
 10
49.4130435109
 20
13.8461793343
 30
0.0
 40
0.0098673982467134
100
AcDbArc
 50
302.1331196919
 51
340.0838586038
  0
LINE
  5
57B
330
1F
100
AcDbEntity
  8
0
  6
SLD-Solid
 62
     8
370
    25
100
AcDbLine
 10
49.4091014185
 20
13.8476805511
 30
0.0
 11
49.3957983923
 21
13.8937932711
 31
0.0
  0
ARC
  5
57C
330
1F
100
AcDbEntity
  8
0
  6
SLD-Solid
 62
     8
370
    25
100
AcDbCircle
 10
49.4225018861
 20
13.8233294391
 30
0.0
 40
0.0277947690190583
100
AcDbArc
 50
95.2509168436
 51
118.8240803913
  0
ARC
  5
57D
330
1F
100
AcDbEntity
  8
0
  6
SLD-Solid
 62
     8
370
    25
100
AcDbCircle
 10
60.6973733263
 20
17.343211246
 30
0.0
 40
0.0078527407679131
100
AcDbArc
 50
193.9099423229
 51
263.2680566899
  0
LWPOLYLINE
  5
57E
330
1F
100
AcDbEntity
  8
0
  6
SLD-Solid
 62
     8
370
    25
100
AcDbPolyline
 90
        5
 70
   128
 43
0.0
 10
60.7061805071
 20
17.3236495045
 10
60.7062444636
 20
17.3235046156
 10
60.7066947551
 20
17.3230971919
 10
60.7074899858
 20
17.3228321286
 10
60.7085995953
 20
17.3227196118
  0
LWPOLYLINE
  5
57F
330
1F
100
AcDbEntity
  8
0
  6
SLD-Solid
 62
     8
370
    25
100
AcDbPolyline
 90
        5
 70
   128
 43
0.0
 10
60.7298813678
 20
17.258828964
 10
60.7287717583
 20
17.2589414808
 10
60.7279765277
 20
17.2592065441
 10
60.7275262362
 20
17.2596139678
 10
60.7274649297
 20
17.2597507464
  0
ARC
  5
580
330
1F
100
AcDbEntity
  8
0
  6
SLD-Solid
 62
     8
370
    25
100
AcDbCircle
 10
60.6526661251
 20
17.344422572
 30
0.0
 40
0.0078320772671333
100
AcDbArc
 50
193.8603661547
 51
264.0895650788
  0
LWPOLYLINE
  5
581
330
1F
100
AcDbEntity
  8
0
  6
SLD-Solid
 62
     8
370
    25
100
AcDbPolyline
 90
        3
 70
   128
 43
0.0
 10
60.7292081527
 20
17.2546140987
 10
60.7284115293
 20
17.254274457
 10
60.7272244689
 20
17.2541331612
  0
LINE
  5
582
330
1F
100
AcDbEntity
  8
0
  6
SLD-Solid
 62
     8
370
    25
100
AcDbLine
 10
60.7272244689
 20
17.2541331612
 30
0.0
 11
60.7283138969
 21
17.2547620746
 31
0.0
  0
LINE
  5
583
330
1F
100
AcDbEntity
  8
0
  6
SLD-Solid
 62
     8
370
    25
100
AcDbLine
 10
60.722169216
 20
17.2756491674
 30
0.0
 11
60.717891038
 21
17.2757662363
 31
0.0
  0
ARC
  5
584
330
1F
100
AcDbEntity
  8
0
  6
SLD-Solid
 62
     8
370
    25
100
AcDbCircle
 10
60.6587207501
 20
17.3319322705
 30
0.0
 40
0.0076770825457523
100
AcDbArc
 50
142.4514881206
 51
206.1516072147
  0
ARC
  5
585
330
1F
100
AcDbEntity
  8
0
  6
SLD-Solid
 62
     8
370
    25
100
AcDbCircle
 10
60.7133674993
 20
17.2832340476
 30
0.0
 40
0.0087310141544753
100
AcDbArc
 50
301.2048913509
 51
331.4144853995
  0
LINE
  5
586
330
1F
100
AcDbEntity
  8
0
  6
SLD-Solid
 62
     8
370
    25
100
AcDbLine
 10
60.6651998002
 20
17.3362670863
 30
0.0
 11
60.6518295632
 21
17.3285486128
 31
0.0
  0
LINE
  5
587
330
1F
100
AcDbEntity
  8
0
  6
SLD-Solid
 62
     8
370
    25
100
AcDbLine
 10
60.7084666748
 20
17.2850681677
 30
0.0
 11
60.6916536016
 21
17.3355431993
 31
0.0
  0
ARC
  5
588
330
1F
100
AcDbEntity
  8
0
  6
SLD-Solid
 62
     8
370
    25
100
AcDbCircle
 10
60.7244622766
 20
17.256159786
 30
0.0
 40
0.033038671400941
100
AcDbArc
 50
101.4975210949
 51
118.9566570043
  0
ARC
  5
589
330
1F
100
AcDbEntity
  8
0
  6
SLD-Solid
 62
     8
370
    25
100
AcDbCircle
 10
58.984091849
 20
8.3703037306
 30
0.0
 40
0.0077847250367353
100
AcDbArc
 50
193.5058804082
 51
262.9149993626
  0
ARC
  5
58A
330
1F
100
AcDbEntity
  8
0
  6
SLD-Solid
 62
     8
370
    25
100
AcDbCircle
 10
58.9948008857
 20
8.3519667287
 30
0.0
 40
0.0023138667546384
100
AcDbArc
 50
213.3077263898
 51
282.5883352529
  0
ARC
  5
58B
330
1F
100
AcDbEntity
  8
0
  6
SLD-Solid
 62
     8
370
    25
100
AcDbCircle
 10
59.0156490622
 20
8.2881017155
 30
0.0
 40
0.0023238629881696
100
AcDbArc
 50
213.7008598821
 51
282.4793095988
  0
ARC
  5
58C
330
1F
100
AcDbEntity
  8
0
  6
SLD-Solid
 62
     8
370
    25
100
AcDbCircle
 10
58.939188216
 20
8.3721419158
 30
0.0
 40
0.0077736137577709
100
AcDbArc
 50
193.4789358155
 51
263.359734396
  0
LWPOLYLINE
  5
58D
330
1F
100
AcDbEntity
  8
0
  6
SLD-Solid
 62
     8
370
    25
100
AcDbPolyline
 90
        3
 70
   128
 43
0.0
 10
59.015422336
 20
8.2817971476
 10
59.0145674934
 20
8.2814405798
 10
59.013373526
 20
8.2813166452
  0
LINE
  5
58E
330
1F
100
AcDbEntity
  8
0
  6
SLD-Solid
 62
     8
370
    25
100
AcDbLine
 10
59.013373526
 20
8.2813166452
 30
0.0
 11
59.0145180311
 21
8.2819773539
 31
0.0
  0
LINE
  5
58F
330
1F
100
AcDbEntity
  8
0
  6
SLD-Solid
 62
     8
370
    25
100
AcDbLine
 10
59.0083063697
 20
8.3033874964
 30
0.0
 11
59.0038351831
 21
8.303571183
 31
0.0
  0
ARC
  5
590
330
1F
100
AcDbEntity
  8
0
  6
SLD-Solid
 62
     8
370
    25
100
AcDbCircle
 10
58.9451022315
 20
8.3597408748
 30
0.0
 40
0.007619065737732
100
AcDbArc
 50
142.4097359471
 51
205.7960818264
  0
ARC
  5
591
330
1F
100
AcDbEntity
  8
0
  6
SLD-Solid
 62
     8
370
    25
100
AcDbCircle
 10
58.9992411923
 20
8.3111362585
 30
0.0
 40
0.0088507129441629
100
AcDbArc
 50
301.2687631786
 51
332.6674866342
  0
LINE
  5
592
330
1F
100
AcDbEntity
  8
0
  6
SLD-Solid
 62
     8
370
    25
100
AcDbLine
 10
58.9511749435
 20
8.3638910782
 30
0.0
 11
58.9382424168
 21
8.3564252895
 31
0.0
  0
LINE
  5
593
330
1F
100
AcDbEntity
  8
0
  6
SLD-Solid
 62
     8
370
    25
100
AcDbLine
 10
58.9944437945
 20
8.3129597635
 30
0.0
 11
58.9781843285
 21
8.362781471
 31
0.0
  0
ARC
  5
594
330
1F
100
AcDbEntity
  8
0
  6
SLD-Solid
 62
     8
370
    25
100
AcDbCircle
 10
59.0099901279
 20
8.2848351679
 30
0.0
 40
0.0321353600135889
100
AcDbArc
 50
100.6449812449
 51
118.9323459655
  0
INSERT
  5
59A
330
1F
100
AcDbEntity
  8
NOTES
100
AcDbBlockReference
  2
SW_NOTE_0_2
 10
55.3824523176
 20
8.2698734292
 30
0.0
  0
ENDSEC
  0
SECTION
  2
OBJECTS
  0
DICTIONARY
  5
C
330
0
100
AcDbDictionary
281
     1
  3
ACAD_GROUP
350
D
  3
ACAD_LAYOUT
350
1A
  3
ACAD_MLINESTYLE
350
17
  3
ACAD_PLOTSETTINGS
350
19
  3
ACAD_PLOTSTYLENAME
350
E
  3
ACAD_SCALELIST
350
47
  3
DWGPROPS
350
59B
  0
DICTIONARY
  5
D
102
{ACAD_REACTORS
330
C
102
}
330
C
100
AcDbDictionary
281
     1
  0
DICTIONARY
  5
1A
102
{ACAD_REACTORS
330
C
102
}
330
C
100
AcDbDictionary
281
     1
  3
Layout1
350
1E
  3
Layout2
350
26
  3
Model
350
22
  0
DICTIONARY
  5
17
102
{ACAD_REACTORS
330
C
102
}
330
C
100
AcDbDictionary
281
     1
  3
Standard
350
18
  0
DICTIONARY
  5
19
102
{ACAD_REACTORS
330
C
102
}
330
C
100
AcDbDictionary
281
     1
  0
ACDBDICTIONARYWDFLT
  5
E
102
{ACAD_REACTORS
330
C
102
}
330
C
100
AcDbDictionary
281
     1
  3
Normal
350
F
100
AcDbDictionaryWithDefault
340
F
  0
DICTIONARY
  5
47
102
{ACAD_REACTORS
330
C
102
}
330
C
100
AcDbDictionary
281
     1
  3
A0
350
48
  3
A1
350
49
  3
A2
350
4A
  3
A3
350
4B
  3
A4
350
4C
  3
A5
350
4D
  3
A6
350
4E
  3
A7
350
4F
  3
A8
350
50
  3
A9
350
51
  3
B0
350
52
  3
B1
350
53
  3
B2
350
54
  3
B3
350
55
  3
B4
350
56
  3
B5
350
57
  3
B6
350
58
  3
B7
350
59
  3
B8
350
5A
  3
B9
350
5B
  3
C0
350
5C
  3
C1
350
5D
  3
C2
350
5E
  3
C3
350
5F
  3
C4
350
60
  3
C5
350
61
  3
C6
350
62
  3
C7
350
63
  3
C8
350
64
  3
C9
350
65
  3
D0
350
66
  3
D1
350
67
  3
D2
350
68
  0
XRECORD
  5
59B
102
{ACAD_REACTORS
330
C
102
}
330
C
100
AcDbXrecord
280
     1
  1
DWGPROPS COOKIE
  2

  3

  4

  6

  7

  8
carl
  9

300
=
301
=
302
=
303
=
304
=
305
=
306
=
307
=
308
=
309
=
 40
0.0
 41
2459467.745555069
 42
2459467.745561505
  1

 90
        0
  0
LAYOUT
  5
1E
102
{ACAD_REACTORS
330
1A
102
}
330
1A
100
AcDbPlotSettings
  1

  2
none_device
  4

  6

 40
0.0
 41
0.0
 42
0.0
 43
0.0
 44
0.0
 45
0.0
 46
0.0
 47
0.0
 48
0.0
 49
0.0
140
0.0
141
0.0
142
1.0
143
1.0
 70
   688
 72
     0
 73
     0
 74
     5
  7

 75
    16
147
1.0
148
0.0
149
0.0
100
AcDbLayout
  1
Layout1
 70
     1
 71
     1
 10
0.0
 20
0.0
 11
12.0
 21
9.0
 12
0.0
 22
0.0
 32
0.0
 14
1.0000000000E+20
 24
1.0000000000E+20
 34
1.0000000000E+20
 15
-1.0000000000E+20
 25
-1.0000000000E+20
 35
-1.0000000000E+20
146
0.0
 13
0.0
 23
0.0
 33
0.0
 16
1.0
 26
0.0
 36
0.0
 17
0.0
 27
1.0
 37
0.0
 76
     0
330
1B
  0
LAYOUT
  5
26
102
{ACAD_REACTORS
330
1A
102
}
330
1A
100
AcDbPlotSettings
  1

  2
none_device
  4

  6

 40
0.0
 41
0.0
 42
0.0
 43
0.0
 44
0.0
 45
0.0
 46
0.0
 47
0.0
 48
0.0
 49
0.0
140
0.0
141
0.0
142
1.0
143
1.0
 70
   688
 72
     0
 73
     0
 74
     5
  7

 75
    16
147
1.0
148
0.0
149
0.0
100
AcDbLayout
  1
Layout2
 70
     1
 71
     2
 10
0.0
 20
0.0
 11
0.0
 21
0.0
 12
0.0
 22
0.0
 32
0.0
 14
0.0
 24
0.0
 34
0.0
 15
0.0
 25
0.0
 35
0.0
146
0.0
 13
0.0
 23
0.0
 33
0.0
 16
1.0
 26
0.0
 36
0.0
 17
0.0
 27
1.0
 37
0.0
 76
     0
330
23
  0
LAYOUT
  5
22
102
{ACAD_REACTORS
330
1A
102
}
330
1A
100
AcDbPlotSettings
  1

  2
none_device
  4
Letter_(8.50_x_11.00_Inches)
  6

 40
6.35
 41
6.35
 42
6.35000508
 43
6.35000508
 44
215.9
 45
279.4
 46
0.0
 47
0.0
 48
0.0
 49
0.0
140
0.0
141
0.0
142
1.0
143
1.0
 70
  1712
 72
     0
 73
     0
 74
     0
  7

 75
     0
147
1.0
148
0.0
149
0.0
100
AcDbLayout
  1
Model
 70
     1
 71
     0
 10
0.0
 20
0.0
 11
90.0
 21
36.0
 12
0.0
 22
0.0
 32
0.0
 14
0.0
 24
0.0
 34
0.0
 15
90.0
 25
36.0
 35
0.0
146
0.0
 13
0.0
 23
0.0
 33
0.0
 16
1.0
 26
0.0
 36
0.0
 17
0.0
 27
1.0
 37
0.0
 76
     0
330
1F
331
29
  0
MLINESTYLE
  5
18
102
{ACAD_REACTORS
330
17
102
}
330
17
100
AcDbMlineStyle
  2
Standard
 70
     0
  3

 62
   256
 51
90.0
 52
90.0
 71
     2
 49
0.5
 62
   256
  6
BYLAYER
 49
-0.5
 62
   256
  6
BYLAYER
  0
ACDBPLACEHOLDER
  5
F
102
{ACAD_REACTORS
330
E
102
}
330
E
  0
SCALE
  5
48
102
{ACAD_REACTORS
330
47
102
}
330
47
100
AcDbScale
 70
     0
300
1:1
140
1.0
141
1.0
290
     1
  0
SCALE
  5
49
102
{ACAD_REACTORS
330
47
102
}
330
47
100
AcDbScale
 70
     0
300
1:2
140
1.0
141
2.0
290
     0
  0
SCALE
  5
4A
102
{ACAD_REACTORS
330
47
102
}
330
47
100
AcDbScale
 70
     0
300
1:4
140
1.0
141
4.0
290
     0
  0
SCALE
  5
4B
102
{ACAD_REACTORS
330
47
102
}
330
47
100
AcDbScale
 70
     0
300
1:5
140
1.0
141
5.0
290
     0
  0
SCALE
  5
4C
102
{ACAD_REACTORS
330
47
102
}
330
47
100
AcDbScale
 70
     0
300
1:8
140
1.0
141
8.0
290
     0
  0
SCALE
  5
4D
102
{ACAD_REACTORS
330
47
102
}
330
47
100
AcDbScale
 70
     0
300
1:10
140
1.0
141
10.0
290
     0
  0
SCALE
  5
4E
102
{ACAD_REACTORS
330
47
102
}
330
47
100
AcDbScale
 70
     0
300
1:16
140
1.0
141
16.0
290
     0
  0
SCALE
  5
4F
102
{ACAD_REACTORS
330
47
102
}
330
47
100
AcDbScale
 70
     0
300
1:20
140
1.0
141
20.0
290
     0
  0
SCALE
  5
50
102
{ACAD_REACTORS
330
47
102
}
330
47
100
AcDbScale
 70
     0
300
1:30
140
1.0
141
30.0
290
     0
  0
SCALE
  5
51
102
{ACAD_REACTORS
330
47
102
}
330
47
100
AcDbScale
 70
     0
300
1:40
140
1.0
141
40.0
290
     0
  0
SCALE
  5
52
102
{ACAD_REACTORS
330
47
102
}
330
47
100
AcDbScale
 70
     0
300
1:50
140
1.0
141
50.0
290
     0
  0
SCALE
  5
53
102
{ACAD_REACTORS
330
47
102
}
330
47
100
AcDbScale
 70
     0
300
1:100
140
1.0
141
100.0
290
     0
  0
SCALE
  5
54
102
{ACAD_REACTORS
330
47
102
}
330
47
100
AcDbScale
 70
     0
300
2:1
140
2.0
141
1.0
290
     0
  0
SCALE
  5
55
102
{ACAD_REACTORS
330
47
102
}
330
47
100
AcDbScale
 70
     0
300
4:1
140
4.0
141
1.0
290
     0
  0
SCALE
  5
56
102
{ACAD_REACTORS
330
47
102
}
330
47
100
AcDbScale
 70
     0
300
8:1
140
8.0
141
1.0
290
     0
  0
SCALE
  5
57
102
{ACAD_REACTORS
330
47
102
}
330
47
100
AcDbScale
 70
     0
300
10:1
140
10.0
141
1.0
290
     0
  0
SCALE
  5
58
102
{ACAD_REACTORS
330
47
102
}
330
47
100
AcDbScale
 70
     0
300
100:1
140
100.0
141
1.0
290
     0
  0
SCALE
  5
59
102
{ACAD_REACTORS
330
47
102
}
330
47
100
AcDbScale
 70
     0
300
1/128" = 1'-0"
140
0.0078125
141
12.0
290
     0
  0
SCALE
  5
5A
102
{ACAD_REACTORS
330
47
102
}
330
47
100
AcDbScale
 70
     0
300
1/64" = 1'-0"
140
0.015625
141
12.0
290
     0
  0
SCALE
  5
5B
102
{ACAD_REACTORS
330
47
102
}
330
47
100
AcDbScale
 70
     0
300
1/32" = 1'-0"
140
0.03125
141
12.0
290
     0
  0
SCALE
  5
5C
102
{ACAD_REACTORS
330
47
102
}
330
47
100
AcDbScale
 70
     0
300
1/16" = 1'-0"
140
0.0625
141
12.0
290
     0
  0
SCALE
  5
5D
102
{ACAD_REACTORS
330
47
102
}
330
47
100
AcDbScale
 70
     0
300
3/32" = 1'-0"
140
0.09375
141
12.0
290
     0
  0
SCALE
  5
5E
102
{ACAD_REACTORS
330
47
102
}
330
47
100
AcDbScale
 70
     0
300
1/8" = 1'-0"
140
0.125
141
12.0
290
     0
  0
SCALE
  5
5F
102
{ACAD_REACTORS
330
47
102
}
330
47
100
AcDbScale
 70
     0
300
3/16" = 1'-0"
140
0.1875
141
12.0
290
     0
  0
SCALE
  5
60
102
{ACAD_REACTORS
330
47
102
}
330
47
100
AcDbScale
 70
     0
300
1/4" = 1'-0"
140
0.25
141
12.0
290
     0
  0
SCALE
  5
61
102
{ACAD_REACTORS
330
47
102
}
330
47
100
AcDbScale
 70
     0
300
3/8" = 1'-0"
140
0.375
141
12.0
290
     0
  0
SCALE
  5
62
102
{ACAD_REACTORS
330
47
102
}
330
47
100
AcDbScale
 70
     0
300
1/2" = 1'-0"
140
0.5
141
12.0
290
     0
  0
SCALE
  5
63
102
{ACAD_REACTORS
330
47
102
}
330
47
100
AcDbScale
 70
     0
300
3/4" = 1'-0"
140
0.75
141
12.0
290
     0
  0
SCALE
  5
64
102
{ACAD_REACTORS
330
47
102
}
330
47
100
AcDbScale
 70
     0
300
1" = 1'-0"
140
1.0
141
12.0
290
     0
  0
SCALE
  5
65
102
{ACAD_REACTORS
330
47
102
}
330
47
100
AcDbScale
 70
     0
300
1-1/2" = 1'-0"
140
1.5
141
12.0
290
     0
  0
SCALE
  5
66
102
{ACAD_REACTORS
330
47
102
}
330
47
100
AcDbScale
 70
     0
300
3" = 1'-0"
140
3.0
141
12.0
290
     0
  0
SCALE
  5
67
102
{ACAD_REACTORS
330
47
102
}
330
47
100
AcDbScale
 70
     0
300
6" = 1'-0"
140
6.0
141
12.0
290
     0
  0
SCALE
  5
68
102
{ACAD_REACTORS
330
47
102
}
330
47
100
AcDbScale
 70
     0
300
1'-0" = 1'-0"
140
12.0
141
12.0
290
     0
  0
ENDSEC
  0
EOF
