  0
SECTION
  2
HEADER
  9
$ACADVER
  1
AC1018
  9
$ACADMAINTVER
 70
     0
  9
$DWGCODEPAGE
  3
ANSI_1252
  9
$LASTSAVEDBY
  1
carl
  9
$INSBASE
 10
0.0
 20
0.0
 30
0.0
  9
$EXTMIN
 10
0.0
 20
0.0
 30
0.0
  9
$EXTMAX
 10
95.0
 20
50.0
 30
0.0
  9
$LIMMIN
 10
0.0
 20
0.0
  9
$LIMMAX
 10
95.0
 20
50.0
  9
$ORTHOMODE
 70
     0
  9
$REGENMODE
 70
     1
  9
$FILLMODE
 70
     1
  9
$QTEXTMODE
 70
     0
  9
$MIRRTEXT
 70
     1
  9
$LTSCALE
 40
1.0
  9
$ATTMODE
 70
     1
  9
$TEXTSIZE
 40
0.5
  9
$TRACEWID
 40
0.05
  9
$TEXTSTYLE
  7
Standard
  9
$CLAYER
  8
0
  9
$CELTYPE
  6
ByLayer
  9
$CECOLOR
 62
   256
  9
$CELTSCALE
 40
1.0
  9
$DISPSILH
 70
     0
  9
$DIMSCALE
 40
1.0
  9
$DIMASZ
 40
0.3
  9
$DIMEXO
 40
0.1666666667
  9
$DIMDLI
 40
0.38
  9
$DIMRND
 40
0.0
  9
$DIMDLE
 40
0.0
  9
$DIMEXE
 40
0.375
  9
$DIMTP
 40
0.0
  9
$DIMTM
 40
0.0
  9
$DIMTXT
 40
0.5
  9
$DIMCEN
 40
0.09
  9
$DIMTSZ
 40
0.0
  9
$DIMTOL
 70
     0
  9
$DIMLIM
 70
     0
  9
$DIMTIH
 70
     1
  9
$DIMTOH
 70
     1
  9
$DIMSE1
 70
     0
  9
$DIMSE2
 70
     0
  9
$DIMTAD
 70
     0
  9
$DIMZIN
 70
     1
  9
$DIMBLK
  1

  9
$DIMASO
 70
     1
  9
$DIMSHO
 70
     1
  9
$DIMPOST
  1

  9
$DIMAPOST
  1

  9
$DIMALT
 70
     0
  9
$DIMALTD
 70
     2
  9
$DIMALTF
 40
25.4
  9
$DIMLFAC
 40
1.0
  9
$DIMTOFL
 70
     0
  9
$DIMTVP
 40
0.0
  9
$DIMTIX
 70
     0
  9
$DIMSOXD
 70
     0
  9
$DIMSAH
 70
     0
  9
$DIMBLK1
  1

  9
$DIMBLK2
  1

  9
$DIMSTYLE
  2
Standard
  9
$DIMCLRD
 70
     0
  9
$DIMCLRE
 70
     0
  9
$DIMCLRT
 70
     0
  9
$DIMTFAC
 40
1.0
  9
$DIMGAP
 40
0.125
  9
$DIMJUST
 70
     0
  9
$DIMSD1
 70
     0
  9
$DIMSD2
 70
     0
  9
$DIMTOLJ
 70
     1
  9
$DIMTZIN
 70
     1
  9
$DIMALTZ
 70
     0
  9
$DIMALTTZ
 70
     0
  9
$DIMUPT
 70
     0
  9
$DIMDEC
 70
     2
  9
$DIMTDEC
 70
     2
  9
$DIMALTU
 70
     2
  9
$DIMALTTD
 70
     2
  9
$DIMTXSTY
  7
Standard
  9
$DIMAUNIT
 70
     0
  9
$DIMADEC
 70
     2
  9
$DIMALTRND
 40
0.0
  9
$DIMAZIN
 70
     0
  9
$DIMDSEP
 70
    46
  9
$DIMATFIT
 70
     3
  9
$DIMFRAC
 70
     0
  9
$DIMLDRBLK
  1

  9
$DIMLUNIT
 70
     2
  9
$DIMLWD
 70
    -2
  9
$DIMLWE
 70
    -2
  9
$DIMTMOVE
 70
     0
  9
$LUNITS
 70
     2
  9
$LUPREC
 70
     4
  9
$SKETCHINC
 40
0.1
  9
$FILLETRAD
 40
0.5
  9
$AUNITS
 70
     0
  9
$AUPREC
 70
     2
  9
$MENU
  1
.
  9
$ELEVATION
 40
0.0
  9
$PELEVATION
 40
0.0
  9
$THICKNESS
 40
0.0
  9
$LIMCHECK
 70
     0
  9
$CHAMFERA
 40
0.0
  9
$CHAMFERB
 40
0.0
  9
$CHAMFERC
 40
0.0
  9
$CHAMFERD
 40
0.0
  9
$SKPOLY
 70
     0
  9
$TDCREATE
 40
2460705.641079745
  9
$TDUCREATE
 40
2460705.849413079
  9
$TDUPDATE
 40
2460705.641084792
  9
$TDUUPDATE
 40
2460705.849418125
  9
$TDINDWG
 40
0.0000000116
  9
$TDUSRTIMER
 40
0.0000000116
  9
$USRTIMER
 70
     1
  9
$ANGBASE
 50
0.0
  9
$ANGDIR
 70
     0
  9
$PDMODE
 70
     0
  9
$PDSIZE
 40
-1.0
  9
$PLINEWID
 40
0.0
  9
$SPLFRAME
 70
     0
  9
$SPLINETYPE
 70
     6
  9
$SPLINESEGS
 70
     8
  9
$HANDSEED
  5
5EE
  9
$SURFTAB1
 70
     6
  9
$SURFTAB2
 70
     6
  9
$SURFTYPE
 70
     6
  9
$SURFU
 70
     6
  9
$SURFV
 70
     6
  9
$UCSBASE
  2

  9
$UCSNAME
  2

  9
$UCSORG
 10
0.0
 20
0.0
 30
0.0
  9
$UCSXDIR
 10
1.0
 20
0.0
 30
0.0
  9
$UCSYDIR
 10
0.0
 20
1.0
 30
0.0
  9
$UCSORTHOREF
  2

  9
$UCSORTHOVIEW
 70
     0
  9
$UCSORGTOP
 10
0.0
 20
0.0
 30
0.0
  9
$UCSORGBOTTOM
 10
0.0
 20
0.0
 30
0.0
  9
$UCSORGLEFT
 10
0.0
 20
0.0
 30
0.0
  9
$UCSORGRIGHT
 10
0.0
 20
0.0
 30
0.0
  9
$UCSORGFRONT
 10
0.0
 20
0.0
 30
0.0
  9
$UCSORGBACK
 10
0.0
 20
0.0
 30
0.0
  9
$PUCSBASE
  2

  9
$PUCSNAME
  2

  9
$PUCSORG
 10
0.0
 20
0.0
 30
0.0
  9
$PUCSXDIR
 10
1.0
 20
0.0
 30
0.0
  9
$PUCSYDIR
 10
0.0
 20
1.0
 30
0.0
  9
$PUCSORTHOREF
  2

  9
$PUCSORTHOVIEW
 70
     0
  9
$PUCSORGTOP
 10
0.0
 20
0.0
 30
0.0
  9
$PUCSORGBOTTOM
 10
0.0
 20
0.0
 30
0.0
  9
$PUCSORGLEFT
 10
0.0
 20
0.0
 30
0.0
  9
$PUCSORGRIGHT
 10
0.0
 20
0.0
 30
0.0
  9
$PUCSORGFRONT
 10
0.0
 20
0.0
 30
0.0
  9
$PUCSORGBACK
 10
0.0
 20
0.0
 30
0.0
  9
$USERI1
 70
     0
  9
$USERI2
 70
     0
  9
$USERI3
 70
     0
  9
$USERI4
 70
     0
  9
$USERI5
 70
     0
  9
$USERR1
 40
0.0
  9
$USERR2
 40
0.0
  9
$USERR3
 40
0.0
  9
$USERR4
 40
0.0
  9
$USERR5
 40
0.0
  9
$WORLDVIEW
 70
     1
  9
$SHADEDGE
 70
     3
  9
$SHADEDIF
 70
    70
  9
$TILEMODE
 70
     1
  9
$MAXACTVP
 70
    64
  9
$PINSBASE
 10
0.0
 20
0.0
 30
0.0
  9
$PLIMCHECK
 70
     0
  9
$PEXTMIN
 10
1.0000000000E+20
 20
1.0000000000E+20
 30
1.0000000000E+20
  9
$PEXTMAX
 10
-1.0000000000E+20
 20
-1.0000000000E+20
 30
-1.0000000000E+20
  9
$PLIMMIN
 10
0.0
 20
0.0
  9
$PLIMMAX
 10
12.0
 20
9.0
  9
$UNITMODE
 70
     0
  9
$VISRETAIN
 70
     1
  9
$PLINEGEN
 70
     0
  9
$PSLTSCALE
 70
     1
  9
$TREEDEPTH
 70
  3020
  9
$CMLSTYLE
  2
Standard
  9
$CMLJUST
 70
     0
  9
$CMLSCALE
 40
1.0
  9
$PROXYGRAPHICS
 70
     1
  9
$MEASUREMENT
 70
     0
  9
$CELWEIGHT
370
    -1
  9
$ENDCAPS
280
     0
  9
$JOINSTYLE
280
     0
  9
$LWDISPLAY
290
     1
  9
$INSUNITS
 70
     1
  9
$HYPERLINKBASE
  1

  9
$STYLESHEET
  1

  9
$XEDIT
290
     1
  9
$CEPSNTYPE
380
     0
  9
$PSTYLEMODE
290
     1
  9
$FINGERPRINTGUID
  2
{76f844b6-aa01-4723-adca-f309dde29937}
  9
$VERSIONGUID
  2
{FAEB1C32-E019-11D5-929B-00C0DF256EC4}
  9
$EXTNAMES
290
     1
  9
$PSVPSCALE
 40
0.0
  9
$OLESTARTUP
290
     0
  9
$SORTENTS
280
   127
  9
$INDEXCTL
280
     0
  9
$HIDETEXT
280
     1
  9
$XCLIPFRAME
290
     0
  9
$HALOGAP
280
     0
  9
$OBSCOLOR
 70
   257
  9
$OBSLTYPE
280
     0
  9
$INTERSECTIONDISPLAY
280
     0
  9
$INTERSECTIONCOLOR
 70
   257
  9
$DIMASSOC
280
     2
  9
$PROJECTNAME
  1

  0
ENDSEC
  0
SECTION
  2
CLASSES
  0
CLASS
  1
ACDBDICTIONARYWDFLT
  2
AcDbDictionaryWithDefault
  3
ObjectDBX Classes
 90
        0
 91
        3
280
     0
281
     0
  0
CLASS
  1
VISUALSTYLE
  2
AcDbVisualStyle
  3
ObjectDBX Classes
 90
     4095
 91
        3
280
     0
281
     0
  0
CLASS
  1
MATERIAL
  2
AcDbMaterial
  3
ObjectDBX Classes
 90
     1153
 91
        3
280
     0
281
     0
  0
CLASS
  1
SCALE
  2
AcDbScale
  3
ObjectDBX Classes
 90
     1153
 91
        3
280
     0
281
     0
  0
CLASS
  1
TABLESTYLE
  2
AcDbTableStyle
  3
ObjectDBX Classes
 90
     4095
 91
        3
280
     0
281
     0
  0
CLASS
  1
MLEADERSTYLE
  2
AcDbMLeaderStyle
  3
ACDB_MLEADERSTYLE_CLASS
 90
     4095
 91
        3
280
     0
281
     0
  0
CLASS
  1
SUN
  2
AcDbSun
  3
SCENEOE
 90
     1153
 91
        3
280
     0
281
     0
  0
CLASS
  1
DICTIONARYVAR
  2
AcDbDictionaryVar
  3
ObjectDBX Classes
 90
        0
 91
        3
280
     0
281
     0
  0
CLASS
  1
CELLSTYLEMAP
  2
AcDbCellStyleMap
  3
ObjectDBX Classes
 90
     1152
 91
        3
280
     0
281
     0
  0
ENDSEC
  0
SECTION
  2
TABLES
  0
TABLE
  2
VPORT
  5
8
330
0
100
AcDbSymbolTable
 70
     1
  0
VPORT
  5
29
330
8
100
AcDbSymbolTableRecord
100
AcDbViewportTableRecord
  2
*Active
 70
     0
 10
0.0
 20
0.0
 11
1.0
 21
1.0
 12
47.5
 22
25.0
 13
0.0
 23
0.0
 14
0.5
 24
0.5
 15
0.5
 25
0.5
 16
0.0
 26
0.0
 36
1.0
 17
0.0
 27
0.0
 37
0.0
 40
50.0
 41
1.9
 42
50.0
 43
0.0
 44
0.0
 50
0.0
 51
0.0
 71
     0
 72
  2000
 73
     1
 74
     3
 75
     0
 76
     0
 77
     0
 78
     0
281
     0
 65
     1
110
0.0
120
0.0
130
0.0
111
1.0
121
0.0
131
0.0
112
0.0
122
1.0
132
0.0
 79
     0
146
0.0
  0
ENDTAB
  0
TABLE
  2
LTYPE
  5
5
330
0
100
AcDbSymbolTable
 70
     6
  0
LTYPE
  5
14
330
5
100
AcDbSymbolTableRecord
100
AcDbLinetypeTableRecord
  2
ByBlock
 70
     0
  3

 72
    65
 73
     0
 40
0.0
  0
LTYPE
  5
15
330
5
100
AcDbSymbolTableRecord
100
AcDbLinetypeTableRecord
  2
ByLayer
 70
     0
  3

 72
    65
 73
     0
 40
0.0
  0
LTYPE
  5
16
330
5
100
AcDbSymbolTableRecord
100
AcDbLinetypeTableRecord
  2
Continuous
 70
     0
  3
Solid line
 72
    65
 73
     0
 40
0.0
  0
LTYPE
  5
6E
330
5
100
AcDbSymbolTableRecord
100
AcDbLinetypeTableRecord
  2
HIDDEN
 70
     0
  3
Hidden __ __ __ __ __ __ __ __ __ __ __ __ __ __
 72
    65
 73
     2
 40
0.075
 49
0.05
 74
     0
 49
-0.025
 74
     0
  0
LTYPE
  5
6F
330
5
100
AcDbSymbolTableRecord
100
AcDbLinetypeTableRecord
  2
PHANTOM
 70
     0
  3
Phantom ______  __  __  ______  __  __  ______
 72
    65
 73
     6
 40
0.5
 49
0.25
 74
     0
 49
-0.05
 74
     0
 49
0.05
 74
     0
 49
-0.05
 74
     0
 49
0.05
 74
     0
 49
-0.05
 74
     0
  0
LTYPE
  5
70
330
5
100
AcDbSymbolTableRecord
100
AcDbLinetypeTableRecord
  2
CENTER
 70
     0
  3
Center ____ _ ____ _ ____ _ ____ _ ____ _ ____
 72
    65
 73
     4
 40
0.4
 49
0.25
 74
     0
 49
-0.05
 74
     0
 49
0.05
 74
     0
 49
-0.05
 74
     0
  0
LTYPE
  5
71
330
5
100
AcDbSymbolTableRecord
100
AcDbLinetypeTableRecord
  2
CENTERX2
 70
     0
  3
Center (2x) ________  __  ________  __  _____
 72
    65
 73
     4
 40
0.8
 49
0.5
 74
     0
 49
-0.1
 74
     0
 49
0.1
 74
     0
 49
-0.1
 74
     0
  0
LTYPE
  5
72
330
5
100
AcDbSymbolTableRecord
100
AcDbLinetypeTableRecord
  2
DOT2
 70
     0
  3
Dot (.5x) ........................................
 72
    65
 73
     2
 40
0.025
 49
0.0
 74
     0
 49
-0.025
 74
     0
  0
ENDTAB
  0
TABLE
  2
LAYER
  5
2
330
0
100
AcDbSymbolTable
 70
     6
  0
LAYER
  5
10
330
2
100
AcDbSymbolTableRecord
100
AcDbLayerTableRecord
  2
0
 70
     0
 62
     7
  6
Continuous
370
    -3
390
F
  0
LAYER
  5
73
330
2
100
AcDbSymbolTableRecord
100
AcDbLayerTableRecord
  2
FORMAT
 70
     0
 62
     7
  6
Continuous
370
    -3
390
F
  0
LAYER
  5
74
330
2
100
AcDbSymbolTableRecord
100
AcDbLayerTableRecord
  2
NOTES
 70
     0
 62
     1
  6
Continuous
370
    -3
390
F
  0
LAYER
  5
75
330
2
100
AcDbSymbolTableRecord
100
AcDbLayerTableRecord
  2
OBJECT
 70
     0
 62
     7
  6
Continuous
370
    25
390
F
  0
LAYER
  5
76
330
2
100
AcDbSymbolTableRecord
100
AcDbLayerTableRecord
  2
DIMS
 70
     0
 62
     5
  6
Continuous
370
    -3
390
F
  0
LAYER
  5
77
330
2
100
AcDbSymbolTableRecord
100
AcDbLayerTableRecord
  2
TITLE
 70
     0
 62
     8
  6
Continuous
370
    -3
390
F
  0
ENDTAB
  0
TABLE
  2
STYLE
  5
3
330
0
100
AcDbSymbolTable
 70
     4
  0
STYLE
  5
11
330
3
100
AcDbSymbolTableRecord
100
AcDbTextStyleTableRecord
  2
Standard
 70
     0
 40
0.0
 41
1.0
 50
0.0
 71
     0
 42
0.5
  3
txt
  4

  0
STYLE
  5
117
330
3
100
AcDbSymbolTableRecord
100
AcDbTextStyleTableRecord
  2
SLDTEXTSTYLE0
 70
     0
 40
0.0
 41
0.605
 50
0.0
 71
     0
 42
0.5
  3
TXT
  4

  0
STYLE
  5
11B
330
3
100
AcDbSymbolTableRecord
100
AcDbTextStyleTableRecord
  2
SLDTEXTSTYLE1
 70
     0
 40
0.0
 41
0.75
 50
0.0
 71
     0
 42
0.5
  3
TXT
  4

  0
STYLE
  5
11E
330
3
100
AcDbSymbolTableRecord
100
AcDbTextStyleTableRecord
  2
SLDTEXTSTYLE2
 70
     0
 40
0.0
 41
0.6607142857
 50
0.0
 71
     0
 42
0.5
  3
TXT
  4

  0
ENDTAB
  0
TABLE
  2
VIEW
  5
6
330
0
100
AcDbSymbolTable
 70
     0
  0
ENDTAB
  0
TABLE
  2
UCS
  5
7
330
0
100
AcDbSymbolTable
 70
     0
  0
ENDTAB
  0
TABLE
  2
APPID
  5
9
330
0
100
AcDbSymbolTable
 70
     2
  0
APPID
  5
12
330
9
100
AcDbSymbolTableRecord
100
AcDbRegAppTableRecord
  2
ACAD
 70
     0
  0
APPID
  5
5E8
330
9
100
AcDbSymbolTableRecord
100
AcDbRegAppTableRecord
  2
ACAD_MLEADERVER
 70
     0
  0
ENDTAB
  0
TABLE
  2
DIMSTYLE
  5
A
330
0
100
AcDbSymbolTable
 70
     4
100
AcDbDimStyleTable
  0
DIMSTYLE
105
27
330
A
100
AcDbSymbolTableRecord
100
AcDbDimStyleTableRecord
  2
Standard
 70
     0
178
     0
340
11
  0
DIMSTYLE
105
277
102
{ACAD_REACTORS
330
276
330
354
102
}
330
A
100
AcDbSymbolTableRecord
100
AcDbDimStyleTableRecord
  2
SLDDIMSTYLE0
 70
     0
 41
0.3
 44
0.0
 45
0.000000001
 78
    12
 79
     3
140
0.5
147
0.125
173
     1
178
     0
271
     2
272
     2
276
     2
277
     5
284
    12
340
11B
341
278
343
278
344
278
  0
DIMSTYLE
105
28A
102
{ACAD_REACTORS
330
289
330
299
330
345
330
490
330
49F
330
4AE
330
4BD
102
}
330
A
100
AcDbSymbolTableRecord
100
AcDbDimStyleTableRecord
  2
SLDDIMSTYLE1
 70
     0
 41
0.3
 44
0.0
 45
0.000000001
 78
    12
 79
     3
140
0.5
147
0.125
173
     1
178
     0
271
     6
272
     2
276
     2
277
     5
284
    12
340
11B
341
278
343
278
344
278
  0
DIMSTYLE
105
4CD
102
{ACAD_REACTORS
330
4CC
102
}
330
A
100
AcDbSymbolTableRecord
100
AcDbDimStyleTableRecord
  2
SLDDIMSTYLE2
 70
     0
 41
0.3
 44
0.0
 45
0.000000001
 78
    12
 79
     3
140
0.5
141
0.0
147
0.125
173
     1
178
     0
271
     2
272
     2
276
     2
277
     5
284
    12
340
11B
341
278
343
278
344
278
  0
ENDTAB
  0
TABLE
  2
BLOCK_RECORD
  5
1
330
0
100
AcDbSymbolTable
 70
    17
  0
BLOCK_RECORD
  5
1F
330
1
100
AcDbSymbolTableRecord
100
AcDbBlockTableRecord
  2
*Model_Space
340
22
  0
BLOCK_RECORD
  5
1B
330
1
100
AcDbSymbolTableRecord
100
AcDbBlockTableRecord
  2
*Paper_Space
340
1E
  0
BLOCK_RECORD
  5
23
330
1
100
AcDbSymbolTableRecord
100
AcDbBlockTableRecord
  2
*Paper_Space0
340
26
  0
BLOCK_RECORD
  5
122
330
1
100
AcDbSymbolTableRecord
100
AcDbBlockTableRecord
  2
SW_NOTE_0
340
0
102
{BLKREFS
331
127
102
}
  0
BLOCK_RECORD
  5
128
330
1
100
AcDbSymbolTableRecord
100
AcDbBlockTableRecord
  2
SW_NOTE_0_1
340
0
102
{BLKREFS
331
12F
102
}
  0
BLOCK_RECORD
  5
278
330
1
100
AcDbSymbolTableRecord
100
AcDbBlockTableRecord
  2
_Open90
340
0
102
{BLKREFS
331
281
331
282
331
28E
331
28F
331
29D
331
29E
331
349
331
34A
331
358
331
359
331
494
331
495
331
4A3
331
4A4
331
4B2
331
4B3
331
4C1
331
4C2
331
4D1
102
}
  0
BLOCK_RECORD
  5
27E
330
1
100
AcDbSymbolTableRecord
100
AcDbBlockTableRecord
  2
_D
340
0
  0
BLOCK_RECORD
  5
28B
330
1
100
AcDbSymbolTableRecord
100
AcDbBlockTableRecord
  2
_D_1
340
0
  0
BLOCK_RECORD
  5
29A
330
1
100
AcDbSymbolTableRecord
100
AcDbBlockTableRecord
  2
_D_2
340
0
  0
BLOCK_RECORD
  5
2A8
330
1
100
AcDbSymbolTableRecord
100
AcDbBlockTableRecord
  2
SW_NOTE_0_2
340
0
102
{BLKREFS
331
2AD
102
}
  0
BLOCK_RECORD
  5
346
330
1
100
AcDbSymbolTableRecord
100
AcDbBlockTableRecord
  2
_D_3
340
0
  0
BLOCK_RECORD
  5
355
330
1
100
AcDbSymbolTableRecord
100
AcDbBlockTableRecord
  2
_D_4
340
0
  0
BLOCK_RECORD
  5
491
330
1
100
AcDbSymbolTableRecord
100
AcDbBlockTableRecord
  2
_D_5
340
0
  0
BLOCK_RECORD
  5
4A0
330
1
100
AcDbSymbolTableRecord
100
AcDbBlockTableRecord
  2
_D_6
340
0
  0
BLOCK_RECORD
  5
4AF
330
1
100
AcDbSymbolTableRecord
100
AcDbBlockTableRecord
  2
_D_7
340
0
  0
BLOCK_RECORD
  5
4BE
330
1
100
AcDbSymbolTableRecord
100
AcDbBlockTableRecord
  2
_D_8
340
0
  0
BLOCK_RECORD
  5
4CE
330
1
100
AcDbSymbolTableRecord
100
AcDbBlockTableRecord
  2
_D_9
340
0
  0
BLOCK_RECORD
  5
5D7
330
1
100
AcDbSymbolTableRecord
100
AcDbBlockTableRecord
  2
SW_NOTE_0_3
340
0
102
{BLKREFS
331
5DC
102
}
  0
BLOCK_RECORD
  5
5DD
330
1
100
AcDbSymbolTableRecord
100
AcDbBlockTableRecord
  2
SW_NOTE_0_4
340
0
102
{BLKREFS
331
5E2
102
}
  0
ENDTAB
  0
ENDSEC
  0
SECTION
  2
BLOCKS
  0
BLOCK
  5
20
330
1F
100
AcDbEntity
  8
0
100
AcDbBlockBegin
  2
*Model_Space
 70
     0
 10
0.0
 20
0.0
 30
0.0
  3
*Model_Space
  1

  0
ENDBLK
  5
21
330
1F
100
AcDbEntity
  8
0
100
AcDbBlockEnd
  0
BLOCK
  5
1C
330
1B
100
AcDbEntity
 67
     1
  8
0
100
AcDbBlockBegin
  2
*Paper_Space
 70
     0
 10
0.0
 20
0.0
 30
0.0
  3
*Paper_Space
  1

  0
ENDBLK
  5
1D
330
1B
100
AcDbEntity
 67
     1
  8
0
100
AcDbBlockEnd
  0
BLOCK
  5
24
330
23
100
AcDbEntity
  8
0
100
AcDbBlockBegin
  2
*Paper_Space0
 70
     0
 10
0.0
 20
0.0
 30
0.0
  3
*Paper_Space0
  1

  0
ENDBLK
  5
25
330
23
100
AcDbEntity
  8
0
100
AcDbBlockEnd
  0
BLOCK
  5
123
330
122
100
AcDbEntity
  8
0
100
AcDbBlockBegin
  2
SW_NOTE_0
 70
     0
 10
0.0
 20
0.0
 30
0.0
  3
SW_NOTE_0
  1

  0
MTEXT
  5
125
330
122
100
AcDbEntity
  8
NOTES
 62
     0
100
AcDbMText
 10
0.0
 20
0.3759780908
 30
0.0
 40
0.2916666667
 41
0.0
 71
     1
 72
     1
  1
FROST PRODUCTS LTD.
  7
SLDTEXTSTYLE0
 73
     1
 44
1.0
  0
MTEXT
  5
126
330
122
100
AcDbEntity
  8
NOTES
 62
     0
100
AcDbMText
 10
0.0
 20
-0.0495142709
 30
0.0
 40
0.2291666667
 41
0.0
 71
     1
 72
     1
  1
5280 JOHN LUCUS DRIVE, BURLINGTON, ON, L7L 5Z9
  7
SLDTEXTSTYLE0
 73
     1
 44
1.0
  0
ENDBLK
  5
124
330
122
100
AcDbEntity
  8
0
100
AcDbBlockEnd
  0
BLOCK
  5
129
330
128
100
AcDbEntity
  8
0
100
AcDbBlockBegin
  2
SW_NOTE_0_1
 70
     0
 10
0.0
 20
0.0
 30
0.0
  3
SW_NOTE_0_1
  1

  0
MTEXT
  5
12B
330
128
100
AcDbEntity
  8
NOTES
 62
     0
100
AcDbMText
 10
0.0
 20
0.2381282771
 30
0.0
 40
0.184729064
 41
0.0
 71
     1
 72
     1
  1
PROPRIETARY AND CONFIDENTIAL
  7
SLDTEXTSTYLE0
 73
     1
 44
1.0
  0
MTEXT
  5
12C
330
128
100
AcDbEntity
  8
NOTES
 62
     0
100
AcDbMText
 10
0.0
 20
-0.0504364796
 30
0.0
 40
0.25
 41
0.0
 71
     1
 72
     1
  1
THE INFORMATION CONTAINED IN THIS DRAWING IS THE SOLE PROPERTY OF
  7
SLDTEXTSTYLE0
 73
     1
 44
1.0
  0
MTEXT
  5
12D
330
128
100
AcDbEntity
  8
NOTES
 62
     0
100
AcDbMText
 10
0.0
 20
-0.4231398941
 30
0.0
 40
0.25
 41
0.0
 71
     1
 72
     1
  1
FROST PRODUCTS LTD.  ANY REPRODUCTION IN PART OR AS A WHOLE WITHOUT
  7
SLDTEXTSTYLE0
 73
     1
 44
1.0
  0
MTEXT
  5
12E
330
128
100
AcDbEntity
  8
NOTES
 62
     0
100
AcDbMText
 10
0.0
 20
-0.7958433086
 30
0.0
 40
0.25
 41
0.0
 71
     1
 72
     1
  1
THE WRITTEN PERMISSION OF FROST PRODUCTS LTD. IS PROHIBITED.
  7
SLDTEXTSTYLE0
 73
     1
 44
1.0
  0
ENDBLK
  5
12A
330
128
100
AcDbEntity
  8
0
100
AcDbBlockEnd
  0
BLOCK
  5
279
330
278
100
AcDbEntity
  8
0
100
AcDbBlockBegin
  2
_Open90
 70
     0
 10
0.0
 20
0.0
 30
0.0
  3
_Open90
  1

  0
LINE
  5
27B
330
278
100
AcDbEntity
  8
0
  6
ByBlock
 62
     0
370
    -2
100
AcDbLine
 10
-0.5
 20
0.5
 30
0.0
 11
0.0
 21
0.0
 31
0.0
  0
LINE
  5
27C
330
278
100
AcDbEntity
  8
0
  6
ByBlock
 62
     0
370
    -2
100
AcDbLine
 10
0.0
 20
0.0
 30
0.0
 11
-0.5
 21
-0.5
 31
0.0
  0
LINE
  5
27D
330
278
100
AcDbEntity
  8
0
  6
ByBlock
 62
     0
370
    -2
100
AcDbLine
 10
0.0
 20
0.0
 30
0.0
 11
-1.0
 21
0.0
 31
0.0
  0
ENDBLK
  5
27A
330
278
100
AcDbEntity
  8
0
100
AcDbBlockEnd
  0
BLOCK
  5
27F
330
27E
100
AcDbEntity
  8
0
100
AcDbBlockBegin
  2
_D
 70
     0
 10
0.0
 20
0.0
 30
0.0
  3
_D
  1

  0
INSERT
  5
281
330
27E
100
AcDbEntity
  8
DIMS
100
AcDbBlockReference
  2
_Open90
 10
2.3530536826
 20
9.2340554735
 30
0.0
 41
0.3
 42
0.3
 50
90.0
  0
INSERT
  5
282
330
27E
100
AcDbEntity
  8
DIMS
100
AcDbBlockReference
  2
_Open90
 10
2.3530536826
 20
3.2340554735
 30
0.0
 41
0.3
 42
0.3
 50
270.0
  0
LINE
  5
283
330
27E
100
AcDbEntity
  8
DIMS
100
AcDbLine
 10
3.5748581853
 20
9.2340554735
 30
0.0
 11
1.9780536826
 21
9.2340554735
 31
0.0
  0
LINE
  5
284
330
27E
100
AcDbEntity
  8
DIMS
100
AcDbLine
 10
2.2563961485
 20
3.2340554735
 30
0.0
 11
1.9780536826
 21
3.2340554735
 31
0.0
  0
LINE
  5
285
330
27E
100
AcDbEntity
  8
DIMS
100
AcDbLine
 10
2.3530536826
 20
9.2340554735
 30
0.0
 11
2.3530536826
 21
6.5545006618
 31
0.0
  0
LINE
  5
286
330
27E
100
AcDbEntity
  8
DIMS
100
AcDbLine
 10
2.3530536826
 20
3.2340554735
 30
0.0
 11
2.3530536826
 21
4.9670006141
 31
0.0
  0
MTEXT
  5
287
330
27E
100
AcDbEntity
  8
DIMS
100
AcDbMText
 10
1.8804842551
 20
6.4052845629
 30
0.0
 40
0.5
 41
0.0
 71
     1
 72
     1
  1
48"
  7
SLDTEXTSTYLE1
 73
     1
 44
1.0
  0
MTEXT
  5
288
330
27E
100
AcDbEntity
  8
DIMS
100
AcDbMText
 10
2.4481925713
 20
5.611534539
 30
0.0
 40
0.5
 41
0.0
 71
     1
 72
     1
  1

  7
SLDTEXTSTYLE1
 73
     1
 44
1.0
  0
ENDBLK
  5
280
330
27E
100
AcDbEntity
  8
0
100
AcDbBlockEnd
  0
BLOCK
  5
28C
330
28B
100
AcDbEntity
  8
0
100
AcDbBlockBegin
  2
_D_1
 70
     0
 10
0.0
 20
0.0
 30
0.0
  3
_D_1
  1

  0
INSERT
  5
28E
330
28B
100
AcDbEntity
  8
DIMS
100
AcDbBlockReference
  2
_Open90
 10
21.8106696487
 20
46.6349757322
 30
-0.1505053846
 41
0.3
 42
0.3
 50
0.0
  0
INSERT
  5
28F
330
28B
100
AcDbEntity
  8
DIMS
100
AcDbBlockReference
  2
_Open90
 10
3.7234196487
 20
46.6349757322
 30
-0.1505053846
 41
0.3
 42
0.3
 50
180.0
  0
LINE
  5
290
330
28B
100
AcDbEntity
  8
DIMS
100
AcDbLine
 10
12.6833987482
 20
46.6862604306
 30
0.0
 11
13.5688154431
 21
46.6862604306
 31
0.0
  0
LINE
  5
291
330
28B
100
AcDbEntity
  8
DIMS
100
AcDbLine
 10
21.8106696487
 20
45.281803359
 30
0.0
 11
21.8106696487
 21
47.0099757322
 31
0.0
  0
LINE
  5
292
330
28B
100
AcDbEntity
  8
DIMS
100
AcDbLine
 10
3.7234196487
 20
45.281803359
 30
0.0
 11
3.7234196487
 21
47.0099757322
 31
0.0
  0
LINE
  5
293
330
28B
100
AcDbEntity
  8
DIMS
100
AcDbLine
 10
21.8106696487
 20
46.6349757322
 30
0.0
 11
13.8483293825
 21
46.6349757322
 31
0.0
  0
LINE
  5
294
330
28B
100
AcDbEntity
  8
DIMS
100
AcDbLine
 10
3.7234196487
 20
46.6349757322
 30
0.0
 11
11.8712459552
 21
46.6349757322
 31
0.0
  0
MTEXT
  5
295
330
28B
100
AcDbEntity
  8
DIMS
100
AcDbMText
 10
11.8712459552
 20
46.9215234859
 30
0.0
 40
0.5
 41
0.0
 71
     1
 72
     1
  1
18
  7
SLDTEXTSTYLE1
 73
     1
 44
1.0
  0
MTEXT
  5
296
330
28B
100
AcDbEntity
  8
DIMS
100
AcDbMText
 10
12.9413848729
 20
47.286835985
 30
0.0
 40
0.5
 41
0.0
 71
     1
 72
     1
  1
1
  7
SLDTEXTSTYLE1
 73
     1
 44
1.0
  0
MTEXT
  5
297
330
28B
100
AcDbEntity
  8
DIMS
100
AcDbMText
 10
12.7566626502
 20
46.6256554064
 30
0.0
 40
0.5
 41
0.0
 71
     1
 72
     1
  1
16
  7
SLDTEXTSTYLE1
 73
     1
 44
1.0
  0
MTEXT
  5
298
330
28B
100
AcDbEntity
  8
DIMS
100
AcDbMText
 10
13.6420794184
 20
46.9215234859
 30
0.0
 40
0.5
 41
0.0
 71
     1
 72
     1
  1
"
  7
SLDTEXTSTYLE1
 73
     1
 44
1.0
  0
ENDBLK
  5
28D
330
28B
100
AcDbEntity
  8
0
100
AcDbBlockEnd
  0
BLOCK
  5
29B
330
29A
100
AcDbEntity
  8
0
100
AcDbBlockBegin
  2
_D_2
 70
     0
 10
0.0
 20
0.0
 30
0.0
  3
_D_2
  1

  0
INSERT
  5
29D
330
29A
100
AcDbEntity
  8
DIMS
100
AcDbBlockReference
  2
_Open90
 10
2.3530536826
 20
45.5224594683
 30
-0.1505053846
 41
0.3
 42
0.3
 50
90.0
  0
INSERT
  5
29E
330
29A
100
AcDbEntity
  8
DIMS
100
AcDbBlockReference
  2
_Open90
 10
2.3530536826
 20
9.2342473901
 30
-0.1505053846
 41
0.3
 42
0.3
 50
270.0
  0
LINE
  5
29F
330
29A
100
AcDbEntity
  8
DIMS
100
AcDbLine
 10
2.176664762
 20
27.4910270313
 30
0.0
 11
3.0620814569
 21
27.4910270313
 31
0.0
  0
LINE
  5
2A0
330
29A
100
AcDbEntity
  8
DIMS
100
AcDbLine
 10
3.6703279821
 20
45.5224594683
 30
0.0
 11
1.9780536826
 21
45.5224594683
 31
0.0
  0
LINE
  5
2A1
330
29A
100
AcDbEntity
  8
DIMS
100
AcDbLine
 10
3.5747529821
 20
9.2342473901
 30
0.0
 11
1.9780536826
 21
9.2342473901
 31
0.0
  0
LINE
  5
2A2
330
29A
100
AcDbEntity
  8
DIMS
100
AcDbLine
 10
2.3530536826
 20
45.5224594683
 30
0.0
 11
2.3530536826
 21
28.0935964862
 31
0.0
  0
LINE
  5
2A3
330
29A
100
AcDbEntity
  8
DIMS
100
AcDbLine
 10
2.3530536826
 20
9.2342473901
 30
0.0
 11
2.3530536826
 21
26.7858881796
 31
0.0
  0
MTEXT
  5
2A4
330
29A
100
AcDbEntity
  8
DIMS
100
AcDbMText
 10
1.364511969
 20
27.7262900866
 30
0.0
 40
0.5
 41
0.0
 71
     1
 72
     1
  1
36
  7
SLDTEXTSTYLE1
 73
     1
 44
1.0
  0
MTEXT
  5
2A5
330
29A
100
AcDbEntity
  8
DIMS
100
AcDbMText
 10
2.4346508867
 20
28.0916025856
 30
0.0
 40
0.5
 41
0.0
 71
     1
 72
     1
  1
5
  7
SLDTEXTSTYLE1
 73
     1
 44
1.0
  0
MTEXT
  5
2A6
330
29A
100
AcDbEntity
  8
DIMS
100
AcDbMText
 10
2.249928664
 20
27.4304220071
 30
0.0
 40
0.5
 41
0.0
 71
     1
 72
     1
  1
16
  7
SLDTEXTSTYLE1
 73
     1
 44
1.0
  0
MTEXT
  5
2A7
330
29A
100
AcDbEntity
  8
DIMS
100
AcDbMText
 10
3.1353454322
 20
27.7262900866
 30
0.0
 40
0.5
 41
0.0
 71
     1
 72
     1
  1
"
  7
SLDTEXTSTYLE1
 73
     1
 44
1.0
  0
ENDBLK
  5
29C
330
29A
100
AcDbEntity
  8
0
100
AcDbBlockEnd
  0
BLOCK
  5
2A9
330
2A8
100
AcDbEntity
  8
0
100
AcDbBlockBegin
  2
SW_NOTE_0_2
 70
     0
 10
0.0
 20
0.0
 30
0.0
  3
SW_NOTE_0_2
  1

  0
MTEXT
  5
2AB
330
2A8
100
AcDbEntity
  8
NOTES
 62
     0
100
AcDbMText
 10
0.0
 20
0.6445338699
 30
0.0
 40
0.5
 41
0.0
 71
     1
 72
     1
  1
(1220mm) bottom of mirror from floor. Positions may vary
  7
SLDTEXTSTYLE1
 73
     1
 44
1.0
  0
MTEXT
  5
2AC
330
2A8
100
AcDbEntity
  8
NOTES
 62
     0
100
AcDbMText
 10
0.0
 20
-0.001993928
 30
0.0
 40
0.5
 41
0.0
 71
     1
 72
     1
  1
depending on size and the type of installation
  7
SLDTEXTSTYLE1
 73
     1
 44
1.0
  0
ENDBLK
  5
2AA
330
2A8
100
AcDbEntity
  8
0
100
AcDbBlockEnd
  0
BLOCK
  5
347
330
346
100
AcDbEntity
  8
0
100
AcDbBlockBegin
  2
_D_3
 70
     0
 10
0.0
 20
0.0
 30
0.0
  3
_D_3
  1

  0
INSERT
  5
349
330
346
100
AcDbEntity
  8
DIMS
100
AcDbBlockReference
  2
_Open90
 10
24.3284509032
 20
44.7699522856
 30
0.0
 41
0.3
 42
0.3
 50
95.4152851432
  0
INSERT
  5
34A
330
346
100
AcDbEntity
  8
DIMS
100
AcDbBlockReference
  2
_Open90
 10
27.734145501
 20
8.8437660579
 30
0.0
 41
0.3
 42
0.3
 50
275.4152851432
  0
LINE
  5
34B
330
346
100
AcDbEntity
  8
DIMS
100
AcDbLine
 10
25.8717899914
 20
26.6800716696
 30
0.0
 11
26.7572066864
 21
26.6800716696
 31
0.0
  0
LINE
  5
34C
330
346
100
AcDbEntity
  8
DIMS
100
AcDbLine
 10
28.2816599406
 20
45.1447046341
 30
0.0
 11
23.9551245944
 21
44.7345620723
 31
0.0
  0
LINE
  5
34D
330
346
100
AcDbEntity
  8
DIMS
100
AcDbLine
 10
31.6873545384
 20
9.2185184064
 30
0.0
 11
27.3608191923
 21
8.8083758446
 31
0.0
  0
LINE
  5
34E
330
346
100
AcDbEntity
  8
DIMS
100
AcDbLine
 10
24.3284509032
 20
44.7699522856
 30
0.0
 11
25.9861955014
 21
27.2826411245
 31
0.0
  0
LINE
  5
34F
330
346
100
AcDbEntity
  8
DIMS
100
AcDbLine
 10
27.734145501
 20
8.8437660579
 30
0.0
 11
26.1101623229
 21
25.9749328179
 31
0.0
  0
MTEXT
  5
350
330
346
100
AcDbEntity
  8
DIMS
100
AcDbMText
 10
25.0596371985
 20
26.9153347249
 30
0.0
 40
0.5
 41
0.0
 71
     1
 72
     1
  1
36
  7
SLDTEXTSTYLE1
 73
     1
 44
1.0
  0
MTEXT
  5
351
330
346
100
AcDbEntity
  8
DIMS
100
AcDbMText
 10
26.1297761162
 20
27.280647224
 30
0.0
 40
0.5
 41
0.0
 71
     1
 72
     1
  1
1
  7
SLDTEXTSTYLE1
 73
     1
 44
1.0
  0
MTEXT
  5
352
330
346
100
AcDbEntity
  8
DIMS
100
AcDbMText
 10
25.9450538934
 20
26.6194666454
 30
0.0
 40
0.5
 41
0.0
 71
     1
 72
     1
  1
16
  7
SLDTEXTSTYLE1
 73
     1
 44
1.0
  0
MTEXT
  5
353
330
346
100
AcDbEntity
  8
DIMS
100
AcDbMText
 10
26.8304706617
 20
26.9153347249
 30
0.0
 40
0.5
 41
0.0
 71
     1
 72
     1
  1
"
  7
SLDTEXTSTYLE1
 73
     1
 44
1.0
  0
ENDBLK
  5
348
330
346
100
AcDbEntity
  8
0
100
AcDbBlockEnd
  0
BLOCK
  5
356
330
355
100
AcDbEntity
  8
0
100
AcDbBlockBegin
  2
_D_4
 70
     0
 10
0.0
 20
0.0
 30
0.0
  3
_D_4
  1

  0
INSERT
  5
358
330
355
100
AcDbEntity
  8
DIMS
100
AcDbBlockReference
  2
_Open90
 10
32.390043769
 20
46.6349757322
 30
0.0
 41
0.3
 42
0.3
 50
0.0
  0
INSERT
  5
359
330
355
100
AcDbEntity
  8
DIMS
100
AcDbBlockReference
  2
_Open90
 10
28.4086408222
 20
46.6349757322
 30
0.0
 41
0.3
 42
0.3
 50
180.0
  0
LINE
  5
35A
330
355
100
AcDbEntity
  8
DIMS
100
AcDbLine
 10
32.390043769
 20
45.5554875754
 30
0.0
 11
32.390043769
 21
47.0099757322
 31
0.0
  0
LINE
  5
35B
330
355
100
AcDbEntity
  8
DIMS
100
AcDbLine
 10
28.4086408222
 20
45.2842922011
 30
0.0
 11
28.4086408222
 21
47.0099757322
 31
0.0
  0
LINE
  5
35C
330
355
100
AcDbEntity
  8
DIMS
100
AcDbLine
 10
32.390043769
 20
46.6349757322
 30
0.0
 11
30.8023823384
 21
46.6349757322
 31
0.0
  0
LINE
  5
35D
330
355
100
AcDbEntity
  8
DIMS
100
AcDbLine
 10
28.4086408222
 20
46.6349757322
 30
0.0
 11
30.2266878922
 21
46.6349757322
 31
0.0
  0
MTEXT
  5
35E
330
355
100
AcDbEntity
  8
DIMS
100
AcDbMText
 10
30.2266878922
 20
46.8826346452
 30
0.0
 40
0.5
 41
0.0
 71
     1
 72
     1
  1
4"
  7
SLDTEXTSTYLE1
 73
     1
 44
1.0
  0
ENDBLK
  5
357
330
355
100
AcDbEntity
  8
0
100
AcDbBlockEnd
  0
BLOCK
  5
492
330
491
100
AcDbEntity
  8
0
100
AcDbBlockBegin
  2
_D_5
 70
     0
 10
0.0
 20
0.0
 30
0.0
  3
_D_5
  1

  0
INSERT
  5
494
330
491
100
AcDbEntity
  8
DIMS
100
AcDbBlockReference
  2
_Open90
 10
37.3782325728
 20
18.017263461
 30
0.0863720496
 41
0.3
 42
0.3
 50
90.0
  0
INSERT
  5
495
330
491
100
AcDbEntity
  8
DIMS
100
AcDbBlockReference
  2
_Open90
 10
37.3782325728
 20
9.2342473901
 30
0.0863720496
 41
0.3
 42
0.3
 50
270.0
  0
LINE
  5
496
330
491
100
AcDbEntity
  8
DIMS
100
AcDbLine
 10
37.0171214661
 20
13.8900070782
 30
0.0
 11
37.902538161
 21
13.8900070782
 31
0.0
  0
LINE
  5
497
330
491
100
AcDbEntity
  8
DIMS
100
AcDbLine
 10
39.7046522078
 20
18.017263461
 30
0.0
 11
37.0032325728
 21
18.017263461
 31
0.0
  0
LINE
  5
498
330
491
100
AcDbEntity
  8
DIMS
100
AcDbLine
 10
39.3360932896
 20
9.2342473901
 30
0.0
 11
37.0032325728
 21
9.2342473901
 31
0.0
  0
LINE
  5
499
330
491
100
AcDbEntity
  8
DIMS
100
AcDbLine
 10
37.3782325728
 20
18.017263461
 30
0.0
 11
37.3782325728
 21
14.4925765331
 31
0.0
  0
LINE
  5
49A
330
491
100
AcDbEntity
  8
DIMS
100
AcDbLine
 10
37.3782325728
 20
9.2342473901
 30
0.0
 11
37.3782325728
 21
13.1848682266
 31
0.0
  0
MTEXT
  5
49B
330
491
100
AcDbEntity
  8
DIMS
100
AcDbMText
 10
36.5744131186
 20
14.1252701335
 30
0.0
 40
0.5
 41
0.0
 71
     1
 72
     1
  1
8
  7
SLDTEXTSTYLE1
 73
     1
 44
1.0
  0
MTEXT
  5
49C
330
491
100
AcDbEntity
  8
DIMS
100
AcDbMText
 10
37.0903853681
 20
14.4905826326
 30
0.0
 40
0.5
 41
0.0
 71
     1
 72
     1
  1
13
  7
SLDTEXTSTYLE1
 73
     1
 44
1.0
  0
MTEXT
  5
49D
330
491
100
AcDbEntity
  8
DIMS
100
AcDbMText
 10
37.0903853681
 20
13.829402054
 30
0.0
 40
0.5
 41
0.0
 71
     1
 72
     1
  1
16
  7
SLDTEXTSTYLE1
 73
     1
 44
1.0
  0
MTEXT
  5
49E
330
491
100
AcDbEntity
  8
DIMS
100
AcDbMText
 10
37.975802063
 20
14.1252701335
 30
0.0
 40
0.5
 41
0.0
 71
     1
 72
     1
  1
"
  7
SLDTEXTSTYLE1
 73
     1
 44
1.0
  0
ENDBLK
  5
493
330
491
100
AcDbEntity
  8
0
100
AcDbBlockEnd
  0
BLOCK
  5
4A1
330
4A0
100
AcDbEntity
  8
0
100
AcDbBlockBegin
  2
_D_6
 70
     0
 10
0.0
 20
0.0
 30
0.0
  3
_D_6
  1

  0
INSERT
  5
4A3
330
4A0
100
AcDbEntity
  8
DIMS
100
AcDbBlockReference
  2
_Open90
 10
37.3782325728
 20
40.1049358368
 30
0.0863720496
 41
0.3
 42
0.3
 50
90.0
  0
INSERT
  5
4A4
330
4A0
100
AcDbEntity
  8
DIMS
100
AcDbBlockReference
  2
_Open90
 10
37.3782325728
 20
18.017263461
 30
0.0863720496
 41
0.3
 42
0.3
 50
270.0
  0
LINE
  5
4A5
330
4A0
100
AcDbEntity
  8
DIMS
100
AcDbLine
 10
37.2018436522
 20
29.0445040794
 30
0.0
 11
38.0872603471
 21
29.0445040794
 31
0.0
  0
LINE
  5
4A6
330
4A0
100
AcDbEntity
  8
DIMS
100
AcDbLine
 10
39.7014330099
 20
40.1049358368
 30
0.0
 11
37.0032325728
 21
40.1049358368
 31
0.0
  0
LINE
  5
4A7
330
4A0
100
AcDbEntity
  8
DIMS
100
AcDbLine
 10
39.7046522078
 20
18.017263461
 30
0.0
 11
37.0032325728
 21
18.017263461
 31
0.0
  0
LINE
  5
4A8
330
4A0
100
AcDbEntity
  8
DIMS
100
AcDbLine
 10
37.3782325728
 20
40.1049358368
 30
0.0
 11
37.3782325728
 21
29.6470735343
 31
0.0
  0
LINE
  5
4A9
330
4A0
100
AcDbEntity
  8
DIMS
100
AcDbLine
 10
37.3782325728
 20
18.017263461
 30
0.0
 11
37.3782325728
 21
28.3393652278
 31
0.0
  0
MTEXT
  5
4AA
330
4A0
100
AcDbEntity
  8
DIMS
100
AcDbMText
 10
36.3896908592
 20
29.2797671348
 30
0.0
 40
0.5
 41
0.0
 71
     1
 72
     1
  1
22
  7
SLDTEXTSTYLE1
 73
     1
 44
1.0
  0
MTEXT
  5
4AB
330
4A0
100
AcDbEntity
  8
DIMS
100
AcDbMText
 10
37.4598297769
 20
29.6450796338
 30
0.0
 40
0.5
 41
0.0
 71
     1
 72
     1
  1
1
  7
SLDTEXTSTYLE1
 73
     1
 44
1.0
  0
MTEXT
  5
4AC
330
4A0
100
AcDbEntity
  8
DIMS
100
AcDbMText
 10
37.2751075542
 20
28.9838990553
 30
0.0
 40
0.5
 41
0.0
 71
     1
 72
     1
  1
16
  7
SLDTEXTSTYLE1
 73
     1
 44
1.0
  0
MTEXT
  5
4AD
330
4A0
100
AcDbEntity
  8
DIMS
100
AcDbMText
 10
38.1605243224
 20
29.2797671348
 30
0.0
 40
0.5
 41
0.0
 71
     1
 72
     1
  1
"
  7
SLDTEXTSTYLE1
 73
     1
 44
1.0
  0
ENDBLK
  5
4A2
330
4A0
100
AcDbEntity
  8
0
100
AcDbBlockEnd
  0
BLOCK
  5
4B0
330
4AF
100
AcDbEntity
  8
0
100
AcDbBlockBegin
  2
_D_7
 70
     0
 10
0.0
 20
0.0
 30
0.0
  3
_D_7
  1

  0
INSERT
  5
4B2
330
4AF
100
AcDbEntity
  8
DIMS
100
AcDbBlockReference
  2
_Open90
 10
37.3782325728
 20
45.5224594683
 30
0.0863720496
 41
0.3
 42
0.3
 50
90.0
  0
INSERT
  5
4B3
330
4AF
100
AcDbEntity
  8
DIMS
100
AcDbBlockReference
  2
_Open90
 10
37.3782325728
 20
40.1049358368
 30
0.0863720496
 41
0.3
 42
0.3
 50
270.0
  0
LINE
  5
4B4
330
4AF
100
AcDbEntity
  8
DIMS
100
AcDbLine
 10
37.0171214661
 20
42.6682612164
 30
0.0
 11
37.902538161
 21
42.6682612164
 31
0.0
  0
LINE
  5
4B5
330
4AF
100
AcDbEntity
  8
DIMS
100
AcDbLine
 10
39.4041682896
 20
45.5224594683
 30
0.0
 11
37.0032325728
 21
45.5224594683
 31
0.0
  0
LINE
  5
4B6
330
4AF
100
AcDbEntity
  8
DIMS
100
AcDbLine
 10
39.7014330099
 20
40.1049358368
 30
0.0
 11
37.0032325728
 21
40.1049358368
 31
0.0
  0
LINE
  5
4B7
330
4AF
100
AcDbEntity
  8
DIMS
100
AcDbLine
 10
37.3782325728
 20
45.5224594683
 30
0.0
 11
37.3782325728
 21
43.2708306713
 31
0.0
  0
LINE
  5
4B8
330
4AF
100
AcDbEntity
  8
DIMS
100
AcDbLine
 10
37.3782325728
 20
40.1049358368
 30
0.0
 11
37.3782325728
 21
41.9631223647
 31
0.0
  0
MTEXT
  5
4B9
330
4AF
100
AcDbEntity
  8
DIMS
100
AcDbMText
 10
36.5744131186
 20
42.9035242717
 30
0.0
 40
0.5
 41
0.0
 71
     1
 72
     1
  1
5
  7
SLDTEXTSTYLE1
 73
     1
 44
1.0
  0
MTEXT
  5
4BA
330
4AF
100
AcDbEntity
  8
DIMS
100
AcDbMText
 10
37.2751075908
 20
43.2688367708
 30
0.0
 40
0.5
 41
0.0
 71
     1
 72
     1
  1
7
  7
SLDTEXTSTYLE1
 73
     1
 44
1.0
  0
MTEXT
  5
4BB
330
4AF
100
AcDbEntity
  8
DIMS
100
AcDbMText
 10
37.0903853681
 20
42.6076561922
 30
0.0
 40
0.5
 41
0.0
 71
     1
 72
     1
  1
16
  7
SLDTEXTSTYLE1
 73
     1
 44
1.0
  0
MTEXT
  5
4BC
330
4AF
100
AcDbEntity
  8
DIMS
100
AcDbMText
 10
37.975802063
 20
42.9035242717
 30
0.0
 40
0.5
 41
0.0
 71
     1
 72
     1
  1
"
  7
SLDTEXTSTYLE1
 73
     1
 44
1.0
  0
ENDBLK
  5
4B1
330
4AF
100
AcDbEntity
  8
0
100
AcDbBlockEnd
  0
BLOCK
  5
4BF
330
4BE
100
AcDbEntity
  8
0
100
AcDbBlockBegin
  2
_D_8
 70
     0
 10
0.0
 20
0.0
 30
0.0
  3
_D_8
  1

  0
INSERT
  5
4C1
330
4BE
100
AcDbEntity
  8
DIMS
100
AcDbBlockReference
  2
_Open90
 10
39.8713188744
 20
47.1074166771
 30
0.0863720496
 41
0.3
 42
0.3
 50
180.0
  0
INSERT
  5
4C2
330
4BE
100
AcDbEntity
  8
DIMS
100
AcDbBlockReference
  2
_Open90
 10
57.1304510381
 20
47.1074166771
 30
0.0863720496
 41
0.3
 42
0.3
 50
0.0
  0
LINE
  5
4C3
330
4BE
100
AcDbEntity
  8
DIMS
100
AcDbLine
 10
48.9141029274
 20
47.1587013755
 30
0.0
 11
49.4300751769
 21
47.1587013755
 31
0.0
  0
LINE
  5
4C4
330
4BE
100
AcDbEntity
  8
DIMS
100
AcDbLine
 10
39.8713188744
 20
18.1839301277
 30
0.0
 11
39.8713188744
 21
47.4824166771
 31
0.0
  0
LINE
  5
4C5
330
4BE
100
AcDbEntity
  8
DIMS
100
AcDbLine
 10
57.1304510381
 20
18.1839301277
 30
0.0
 11
57.1304510381
 21
47.4824166771
 31
0.0
  0
LINE
  5
4C6
330
4BE
100
AcDbEntity
  8
DIMS
100
AcDbLine
 10
39.8713188744
 20
47.1074166771
 30
0.0
 11
48.1019501345
 21
47.1074166771
 31
0.0
  0
LINE
  5
4C7
330
4BE
100
AcDbEntity
  8
DIMS
100
AcDbLine
 10
57.1304510381
 20
47.1074166771
 30
0.0
 11
49.7095890429
 21
47.1074166771
 31
0.0
  0
MTEXT
  5
4C8
330
4BE
100
AcDbEntity
  8
DIMS
100
AcDbMText
 10
48.1019501345
 20
47.3939644308
 30
0.0
 40
0.5
 41
0.0
 71
     1
 72
     1
  1
17
  7
SLDTEXTSTYLE1
 73
     1
 44
1.0
  0
MTEXT
  5
4C9
330
4BE
100
AcDbEntity
  8
DIMS
100
AcDbMText
 10
48.9873668294
 20
47.7592769299
 30
0.0
 40
0.5
 41
0.0
 71
     1
 72
     1
  1
1
  7
SLDTEXTSTYLE1
 73
     1
 44
1.0
  0
MTEXT
  5
4CA
330
4BE
100
AcDbEntity
  8
DIMS
100
AcDbMText
 10
48.9873668294
 20
47.0980963513
 30
0.0
 40
0.5
 41
0.0
 71
     1
 72
     1
  1
4
  7
SLDTEXTSTYLE1
 73
     1
 44
1.0
  0
MTEXT
  5
4CB
330
4BE
100
AcDbEntity
  8
DIMS
100
AcDbMText
 10
49.5033390789
 20
47.3939644308
 30
0.0
 40
0.5
 41
0.0
 71
     1
 72
     1
  1
"
  7
SLDTEXTSTYLE1
 73
     1
 44
1.0
  0
ENDBLK
  5
4C0
330
4BE
100
AcDbEntity
  8
0
100
AcDbBlockEnd
  0
BLOCK
  5
4CF
330
4CE
100
AcDbEntity
  8
0
100
AcDbBlockBegin
  2
_D_9
 70
     0
 10
0.0
 20
0.0
 30
0.0
  3
_D_9
  1

  0
INSERT
  5
4D1
330
4CE
100
AcDbEntity
  8
DIMS
100
AcDbBlockReference
  2
_Open90
 10
57.1780995381
 20
17.9347338381
 30
0.0863720496
 41
0.3
 42
0.3
 50
120.0
  0
LINE
  5
4D2
330
4CE
100
AcDbEntity
  8
DIMS
100
AcDbLine
 10
60.3433375815
 20
14.4562520016
 30
0.0
 11
61.2287542764
 21
14.4562520016
 31
0.0
  0
LINE
  5
4D3
330
4CE
100
AcDbEntity
  8
DIMS
100
AcDbLine
 10
57.1780995381
 20
17.9347338381
 30
0.0
 11
59.2160111972
 21
14.4049673033
 31
0.0
  0
LINE
  5
4D4
330
4CE
100
AcDbEntity
  8
DIMS
100
AcDbLine
 10
59.2160111972
 20
14.4049673033
 30
0.0
 11
59.5160111972
 21
14.4049673033
 31
0.0
  0
MTEXT
  5
4D5
330
4CE
100
AcDbEntity
  8
DIMS
100
AcDbMText
 10
59.5160111972
 20
14.6838761677
 30
0.0
 40
0.5
 41
0.0
 71
     1
 72
     1
  1
%%c
  7
SLDTEXTSTYLE1
 73
     1
 44
1.0
  0
MTEXT
  5
4D6
330
4CE
100
AcDbEntity
  8
DIMS
100
AcDbMText
 10
60.6013237062
 20
15.056827556
 30
0.0
 40
0.5
 41
0.0
 71
     1
 72
     1
  1
3
  7
SLDTEXTSTYLE1
 73
     1
 44
1.0
  0
MTEXT
  5
4D7
330
4CE
100
AcDbEntity
  8
DIMS
100
AcDbMText
 10
60.4166014835
 20
14.3956469775
 30
0.0
 40
0.5
 41
0.0
 71
     1
 72
     1
  1
16
  7
SLDTEXTSTYLE1
 73
     1
 44
1.0
  0
MTEXT
  5
4D8
330
4CE
100
AcDbEntity
  8
DIMS
100
AcDbMText
 10
61.3020181784
 20
14.691515057
 30
0.0
 40
0.5
 41
0.0
 71
     1
 72
     1
  1
"
  7
SLDTEXTSTYLE1
 73
     1
 44
1.0
  0
MTEXT
  5
4D9
330
4CE
100
AcDbEntity
  8
DIMS
100
AcDbMText
 10
61.6957681425
 20
14.691515057
 30
0.0
 40
0.5
 41
0.0
 71
     1
 72
     1
  1
mounting hole (4)
  7
SLDTEXTSTYLE1
 73
     1
 44
1.0
  0
ENDBLK
  5
4D0
330
4CE
100
AcDbEntity
  8
0
100
AcDbBlockEnd
  0
BLOCK
  5
5D8
330
5D7
100
AcDbEntity
  8
0
100
AcDbBlockBegin
  2
SW_NOTE_0_3
 70
     0
 10
0.0
 20
0.0
 30
0.0
  3
SW_NOTE_0_3
  1

  0
MTEXT
  5
5DA
330
5D7
100
AcDbEntity
  8
NOTES
 62
     0
100
AcDbMText
 10
0.0
 20
0.1342778896
 30
0.0
 40
0.1041666667
 41
0.0
 71
     1
 72
     1
  1
3D view
  7
SLDTEXTSTYLE1
 73
     1
 44
1.0
  0
MTEXT
  5
5DB
330
5D7
100
AcDbEntity
  8
NOTES
 62
     0
100
AcDbMText
 10
0.0
 20
-0.0439810828
 30
0.0
 40
0.1041666667
 41
0.0
 71
     1
 72
     1
  1
code 941-1836 FT
  7
SLDTEXTSTYLE1
 73
     1
 44
1.0
  0
ENDBLK
  5
5D9
330
5D7
100
AcDbEntity
  8
0
100
AcDbBlockEnd
  0
BLOCK
  5
5DE
330
5DD
100
AcDbEntity
  8
0
100
AcDbBlockBegin
  2
SW_NOTE_0_4
 70
     0
 10
0.0
 20
0.0
 30
0.0
  3
SW_NOTE_0_4
  1

  0
MTEXT
  5
5E0
330
5DD
100
AcDbEntity
  8
NOTES
 62
     0
100
AcDbMText
 10
0.0
 20
0.6445338699
 30
0.0
 40
0.5
 41
0.0
 71
     1
 72
     1
  1
3D view
  7
SLDTEXTSTYLE1
 73
     1
 44
1.0
  0
MTEXT
  5
5E1
330
5DD
100
AcDbEntity
  8
NOTES
 62
     0
100
AcDbMText
 10
0.0
 20
-0.3554661914
 30
0.0
 40
0.5
 41
0.0
 71
     1
 72
     1
  1
code 941-1836 FT
  7
SLDTEXTSTYLE1
 73
     1
 44
1.0
  0
ENDBLK
  5
5DF
330
5DD
100
AcDbEntity
  8
0
100
AcDbBlockEnd
  0
ENDSEC
  0
SECTION
  2
ENTITIES
  0
LINE
  5
78
330
1F
100
AcDbEntity
  8
TITLE
370
    50
100
AcDbLine
 10
77.518223024
 20
1.4876117645
 30
0.0
 11
94.4999864512
 21
1.4876117645
 31
0.0
  0
LINE
  5
79
330
1F
100
AcDbEntity
  8
TITLE
370
    50
100
AcDbLine
 10
94.4999317442
 20
5.4753603936
 30
0.0
 11
84.3105350723
 21
5.4753603936
 31
0.0
  0
LINE
  5
7A
330
1F
100
AcDbEntity
  8
TITLE
  6
Continuous
370
    18
100
AcDbLine
 10
0.5
 20
0.5
 30
0.0
 11
0.5
 21
49.5
 31
0.0
  0
LINE
  5
7B
330
1F
100
AcDbEntity
  8
TITLE
  6
Continuous
370
    18
100
AcDbLine
 10
0.5
 20
49.5
 30
0.0
 11
94.5
 21
49.5
 31
0.0
  0
LINE
  5
7C
330
1F
100
AcDbEntity
  8
TITLE
370
    50
100
AcDbLine
 10
77.518223024
 20
2.5427877231
 30
0.0
 11
70.5059791203
 21
2.5427877231
 31
0.0
  0
LINE
  5
7D
330
1F
100
AcDbEntity
  8
TITLE
370
    50
100
AcDbLine
 10
77.518223024
 20
1.4876117645
 30
0.0
 11
70.5059791203
 21
1.4876117645
 31
0.0
  0
LINE
  5
7E
330
1F
100
AcDbEntity
  8
TITLE
  6
Continuous
370
    18
100
AcDbLine
 10
94.5
 20
49.5
 30
0.0
 11
94.5
 21
0.5
 31
0.0
  0
LINE
  5
7F
330
1F
100
AcDbEntity
  8
TITLE
  6
Continuous
370
    18
100
AcDbLine
 10
94.5
 20
0.5
 30
0.0
 11
0.5
 21
0.5
 31
0.0
  0
LINE
  5
80
330
1F
100
AcDbEntity
  8
TITLE
370
    50
100
AcDbLine
 10
77.518223024
 20
1.4876117645
 30
0.0
 11
77.518223024
 21
3.5979636817
 31
0.0
  0
LINE
  5
81
330
1F
100
AcDbEntity
  8
TITLE
370
    50
100
AcDbLine
 10
70.5059791203
 20
3.5979636817
 30
0.0
 11
70.5059791203
 21
0.5
 31
0.0
  0
LINE
  5
82
330
1F
100
AcDbEntity
  8
TITLE
370
    50
100
AcDbLine
 10
70.5059791203
 20
0.5
 30
0.0
 11
94.5
 21
0.5
 31
0.0
  0
LINE
  5
83
330
1F
100
AcDbEntity
  8
TITLE
370
    50
100
AcDbLine
 10
94.4999317442
 20
5.4753603936
 30
0.0
 11
94.5
 21
0.5
 31
0.0
  0
LINE
  5
84
330
1F
100
AcDbEntity
  8
TITLE
  6
Continuous
370
    18
100
AcDbLine
 10
0.4999606299
 20
25.0
 30
0.0
 11
0.5000393701
 21
25.0
 31
0.0
  0
LINE
  5
85
330
1F
100
AcDbEntity
  8
TITLE
370
    50
100
AcDbLine
 10
77.518223024
 20
3.5979636817
 30
0.0
 11
70.5059791203
 21
3.5979636817
 31
0.0
  0
LINE
  5
86
330
1F
100
AcDbEntity
  8
TITLE
370
    50
100
AcDbLine
 10
77.518223024
 20
3.5979636817
 30
0.0
 11
94.4997615643
 21
3.5979648343
 31
0.0
  0
LINE
  5
87
330
1F
100
AcDbEntity
  8
TITLE
370
    50
100
AcDbLine
 10
84.3105350723
 20
5.4753603936
 30
0.0
 11
84.3105350723
 21
0.4636772425
 31
0.0
  0
LINE
  5
88
330
1F
100
AcDbEntity
  8
TITLE
  6
Continuous
370
    18
100
AcDbLine
 10
47.5
 20
49.5000393701
 30
0.0
 11
47.5
 21
49.4999606299
 31
0.0
  0
LINE
  5
89
330
1F
100
AcDbEntity
  8
TITLE
  6
Continuous
370
    18
100
AcDbLine
 10
94.4999606299
 20
25.0
 30
0.0
 11
94.4999606299
 21
25.0
 31
0.0
  0
LINE
  5
8A
330
1F
100
AcDbEntity
  8
TITLE
  6
Continuous
370
    18
100
AcDbLine
 10
47.5
 20
0.4999606299
 30
0.0
 11
47.5
 21
0.5000393701
 31
0.0
  0
LINE
  5
8B
330
1F
100
AcDbEntity
  8
TITLE
  6
Continuous
370
    18
100
AcDbLine
 10
0.5
 20
3.3464566929
 30
0.0
 11
0.1653543307
 21
3.3464566929
 31
0.0
  0
LINE
  5
8C
330
1F
100
AcDbEntity
  8
TITLE
  6
Continuous
370
    18
100
AcDbLine
 10
94.5
 20
3.3464566929
 30
0.0
 11
94.8346456693
 21
3.3464566929
 31
0.0
  0
LINE
  5
8D
330
1F
100
AcDbEntity
  8
TITLE
  6
Continuous
370
    18
100
AcDbLine
 10
0.5
 20
5.3149606299
 30
0.0
 11
0.1653543307
 21
5.3149606299
 31
0.0
  0
LINE
  5
8E
330
1F
100
AcDbEntity
  8
TITLE
  6
Continuous
370
    18
100
AcDbLine
 10
94.5
 20
5.3149606299
 30
0.0
 11
94.8346456693
 21
5.3149606299
 31
0.0
  0
LINE
  5
8F
330
1F
100
AcDbEntity
  8
TITLE
  6
Continuous
370
    18
100
AcDbLine
 10
0.5
 20
7.2834645669
 30
0.0
 11
0.1653543307
 21
7.2834645669
 31
0.0
  0
LINE
  5
90
330
1F
100
AcDbEntity
  8
TITLE
  6
Continuous
370
    18
100
AcDbLine
 10
94.5
 20
7.2834645669
 30
0.0
 11
94.8346456693
 21
7.2834645669
 31
0.0
  0
LINE
  5
91
330
1F
100
AcDbEntity
  8
TITLE
  6
Continuous
370
    18
100
AcDbLine
 10
0.5
 20
9.2519685039
 30
0.0
 11
0.1653543307
 21
9.2519685039
 31
0.0
  0
LINE
  5
92
330
1F
100
AcDbEntity
  8
TITLE
  6
Continuous
370
    18
100
AcDbLine
 10
94.5
 20
9.2519685039
 30
0.0
 11
94.8346456693
 21
9.2519685039
 31
0.0
  0
LINE
  5
93
330
1F
100
AcDbEntity
  8
TITLE
  6
Continuous
370
    18
100
AcDbLine
 10
0.5
 20
11.2204724409
 30
0.0
 11
0.1653543307
 21
11.2204724409
 31
0.0
  0
LINE
  5
94
330
1F
100
AcDbEntity
  8
TITLE
  6
Continuous
370
    18
100
AcDbLine
 10
94.5
 20
11.2204724409
 30
0.0
 11
94.8346456693
 21
11.2204724409
 31
0.0
  0
LINE
  5
95
330
1F
100
AcDbEntity
  8
TITLE
  6
Continuous
370
    18
100
AcDbLine
 10
0.5
 20
13.188976378
 30
0.0
 11
0.1653543307
 21
13.188976378
 31
0.0
  0
LINE
  5
96
330
1F
100
AcDbEntity
  8
TITLE
  6
Continuous
370
    18
100
AcDbLine
 10
94.5
 20
13.188976378
 30
0.0
 11
94.8346456693
 21
13.188976378
 31
0.0
  0
LINE
  5
97
330
1F
100
AcDbEntity
  8
TITLE
  6
Continuous
370
    18
100
AcDbLine
 10
0.5
 20
15.157480315
 30
0.0
 11
0.1653543307
 21
15.157480315
 31
0.0
  0
LINE
  5
98
330
1F
100
AcDbEntity
  8
TITLE
  6
Continuous
370
    18
100
AcDbLine
 10
94.5
 20
15.157480315
 30
0.0
 11
94.8346456693
 21
15.157480315
 31
0.0
  0
LINE
  5
99
330
1F
100
AcDbEntity
  8
TITLE
  6
Continuous
370
    18
100
AcDbLine
 10
0.5
 20
17.125984252
 30
0.0
 11
0.1653543307
 21
17.125984252
 31
0.0
  0
LINE
  5
9A
330
1F
100
AcDbEntity
  8
TITLE
  6
Continuous
370
    18
100
AcDbLine
 10
94.5
 20
17.125984252
 30
0.0
 11
94.8346456693
 21
17.125984252
 31
0.0
  0
LINE
  5
9B
330
1F
100
AcDbEntity
  8
TITLE
  6
Continuous
370
    18
100
AcDbLine
 10
0.5
 20
19.094488189
 30
0.0
 11
0.1653543307
 21
19.094488189
 31
0.0
  0
LINE
  5
9C
330
1F
100
AcDbEntity
  8
TITLE
  6
Continuous
370
    18
100
AcDbLine
 10
94.5
 20
19.094488189
 30
0.0
 11
94.8346456693
 21
19.094488189
 31
0.0
  0
LINE
  5
9D
330
1F
100
AcDbEntity
  8
TITLE
  6
Continuous
370
    18
100
AcDbLine
 10
0.5
 20
21.062992126
 30
0.0
 11
0.1653543307
 21
21.062992126
 31
0.0
  0
LINE
  5
9E
330
1F
100
AcDbEntity
  8
TITLE
  6
Continuous
370
    18
100
AcDbLine
 10
94.5
 20
21.062992126
 30
0.0
 11
94.8346456693
 21
21.062992126
 31
0.0
  0
LINE
  5
9F
330
1F
100
AcDbEntity
  8
TITLE
  6
Continuous
370
    18
100
AcDbLine
 10
0.5
 20
23.031496063
 30
0.0
 11
0.1653543307
 21
23.031496063
 31
0.0
  0
LINE
  5
A0
330
1F
100
AcDbEntity
  8
TITLE
  6
Continuous
370
    18
100
AcDbLine
 10
94.5
 20
23.031496063
 30
0.0
 11
94.8346456693
 21
23.031496063
 31
0.0
  0
LINE
  5
A1
330
1F
100
AcDbEntity
  8
TITLE
  6
Continuous
370
    18
100
AcDbLine
 10
0.4999606299
 20
25.0
 30
0.0
 11
0.1653543307
 21
25.0
 31
0.0
  0
LINE
  5
A2
330
1F
100
AcDbEntity
  8
TITLE
  6
Continuous
370
    18
100
AcDbLine
 10
94.4999606299
 20
25.0
 30
0.0
 11
94.8346456693
 21
25.0
 31
0.0
  0
LINE
  5
A3
330
1F
100
AcDbEntity
  8
TITLE
  6
Continuous
370
    18
100
AcDbLine
 10
0.5
 20
26.968503937
 30
0.0
 11
0.1653543307
 21
26.968503937
 31
0.0
  0
LINE
  5
A4
330
1F
100
AcDbEntity
  8
TITLE
  6
Continuous
370
    18
100
AcDbLine
 10
94.5
 20
26.968503937
 30
0.0
 11
94.8346456693
 21
26.968503937
 31
0.0
  0
LINE
  5
A5
330
1F
100
AcDbEntity
  8
TITLE
  6
Continuous
370
    18
100
AcDbLine
 10
0.5
 20
28.937007874
 30
0.0
 11
0.1653543307
 21
28.937007874
 31
0.0
  0
LINE
  5
A6
330
1F
100
AcDbEntity
  8
TITLE
  6
Continuous
370
    18
100
AcDbLine
 10
94.5
 20
28.937007874
 30
0.0
 11
94.8346456693
 21
28.937007874
 31
0.0
  0
LINE
  5
A7
330
1F
100
AcDbEntity
  8
TITLE
  6
Continuous
370
    18
100
AcDbLine
 10
0.5
 20
30.905511811
 30
0.0
 11
0.1653543307
 21
30.905511811
 31
0.0
  0
LINE
  5
A8
330
1F
100
AcDbEntity
  8
TITLE
  6
Continuous
370
    18
100
AcDbLine
 10
94.5
 20
30.905511811
 30
0.0
 11
94.8346456693
 21
30.905511811
 31
0.0
  0
LINE
  5
A9
330
1F
100
AcDbEntity
  8
TITLE
  6
Continuous
370
    18
100
AcDbLine
 10
0.5
 20
32.874015748
 30
0.0
 11
0.1653543307
 21
32.874015748
 31
0.0
  0
LINE
  5
AA
330
1F
100
AcDbEntity
  8
TITLE
  6
Continuous
370
    18
100
AcDbLine
 10
94.5
 20
32.874015748
 30
0.0
 11
94.8346456693
 21
32.874015748
 31
0.0
  0
LINE
  5
AB
330
1F
100
AcDbEntity
  8
TITLE
  6
Continuous
370
    18
100
AcDbLine
 10
0.5
 20
34.842519685
 30
0.0
 11
0.1653543307
 21
34.842519685
 31
0.0
  0
LINE
  5
AC
330
1F
100
AcDbEntity
  8
TITLE
  6
Continuous
370
    18
100
AcDbLine
 10
94.5
 20
34.842519685
 30
0.0
 11
94.8346456693
 21
34.842519685
 31
0.0
  0
LINE
  5
AD
330
1F
100
AcDbEntity
  8
TITLE
  6
Continuous
370
    18
100
AcDbLine
 10
0.5
 20
36.811023622
 30
0.0
 11
0.1653543307
 21
36.811023622
 31
0.0
  0
LINE
  5
AE
330
1F
100
AcDbEntity
  8
TITLE
  6
Continuous
370
    18
100
AcDbLine
 10
94.5
 20
36.811023622
 30
0.0
 11
94.8346456693
 21
36.811023622
 31
0.0
  0
LINE
  5
AF
330
1F
100
AcDbEntity
  8
TITLE
  6
Continuous
370
    18
100
AcDbLine
 10
0.5
 20
38.7795275591
 30
0.0
 11
0.1653543307
 21
38.7795275591
 31
0.0
  0
LINE
  5
B0
330
1F
100
AcDbEntity
  8
TITLE
  6
Continuous
370
    18
100
AcDbLine
 10
94.5
 20
38.7795275591
 30
0.0
 11
94.8346456693
 21
38.7795275591
 31
0.0
  0
LINE
  5
B1
330
1F
100
AcDbEntity
  8
TITLE
  6
Continuous
370
    18
100
AcDbLine
 10
0.5
 20
40.7480314961
 30
0.0
 11
0.1653543307
 21
40.7480314961
 31
0.0
  0
LINE
  5
B2
330
1F
100
AcDbEntity
  8
TITLE
  6
Continuous
370
    18
100
AcDbLine
 10
94.5
 20
40.7480314961
 30
0.0
 11
94.8346456693
 21
40.7480314961
 31
0.0
  0
LINE
  5
B3
330
1F
100
AcDbEntity
  8
TITLE
  6
Continuous
370
    18
100
AcDbLine
 10
0.5
 20
42.7165354331
 30
0.0
 11
0.1653543307
 21
42.7165354331
 31
0.0
  0
LINE
  5
B4
330
1F
100
AcDbEntity
  8
TITLE
  6
Continuous
370
    18
100
AcDbLine
 10
94.5
 20
42.7165354331
 30
0.0
 11
94.8346456693
 21
42.7165354331
 31
0.0
  0
LINE
  5
B5
330
1F
100
AcDbEntity
  8
TITLE
  6
Continuous
370
    18
100
AcDbLine
 10
0.5
 20
44.6850393701
 30
0.0
 11
0.1653543307
 21
44.6850393701
 31
0.0
  0
LINE
  5
B6
330
1F
100
AcDbEntity
  8
TITLE
  6
Continuous
370
    18
100
AcDbLine
 10
94.5
 20
44.6850393701
 30
0.0
 11
94.8346456693
 21
44.6850393701
 31
0.0
  0
LINE
  5
B7
330
1F
100
AcDbEntity
  8
TITLE
  6
Continuous
370
    18
100
AcDbLine
 10
0.5
 20
46.6535433071
 30
0.0
 11
0.1653543307
 21
46.6535433071
 31
0.0
  0
LINE
  5
B8
330
1F
100
AcDbEntity
  8
TITLE
  6
Continuous
370
    18
100
AcDbLine
 10
94.5
 20
46.6535433071
 30
0.0
 11
94.8346456693
 21
46.6535433071
 31
0.0
  0
LINE
  5
B9
330
1F
100
AcDbEntity
  8
TITLE
  6
Continuous
370
    18
100
AcDbLine
 10
2.2244094488
 20
49.5
 30
0.0
 11
2.2244094488
 21
49.8346456693
 31
0.0
  0
LINE
  5
BA
330
1F
100
AcDbEntity
  8
TITLE
  6
Continuous
370
    18
100
AcDbLine
 10
2.2244094488
 20
0.5
 30
0.0
 11
2.2244094488
 21
0.1653543307
 31
0.0
  0
LINE
  5
BB
330
1F
100
AcDbEntity
  8
TITLE
  6
Continuous
370
    18
100
AcDbLine
 10
4.1929133858
 20
49.5
 30
0.0
 11
4.1929133858
 21
49.8346456693
 31
0.0
  0
LINE
  5
BC
330
1F
100
AcDbEntity
  8
TITLE
  6
Continuous
370
    18
100
AcDbLine
 10
4.1929133858
 20
0.5
 30
0.0
 11
4.1929133858
 21
0.1653543307
 31
0.0
  0
LINE
  5
BD
330
1F
100
AcDbEntity
  8
TITLE
  6
Continuous
370
    18
100
AcDbLine
 10
6.1614173228
 20
49.5
 30
0.0
 11
6.1614173228
 21
49.8346456693
 31
0.0
  0
LINE
  5
BE
330
1F
100
AcDbEntity
  8
TITLE
  6
Continuous
370
    18
100
AcDbLine
 10
6.1614173228
 20
0.5
 30
0.0
 11
6.1614173228
 21
0.1653543307
 31
0.0
  0
LINE
  5
BF
330
1F
100
AcDbEntity
  8
TITLE
  6
Continuous
370
    18
100
AcDbLine
 10
8.1299212598
 20
49.5
 30
0.0
 11
8.1299212598
 21
49.8346456693
 31
0.0
  0
LINE
  5
C0
330
1F
100
AcDbEntity
  8
TITLE
  6
Continuous
370
    18
100
AcDbLine
 10
8.1299212598
 20
0.5
 30
0.0
 11
8.1299212598
 21
0.1653543307
 31
0.0
  0
LINE
  5
C1
330
1F
100
AcDbEntity
  8
TITLE
  6
Continuous
370
    18
100
AcDbLine
 10
10.0984251969
 20
49.5
 30
0.0
 11
10.0984251969
 21
49.8346456693
 31
0.0
  0
LINE
  5
C2
330
1F
100
AcDbEntity
  8
TITLE
  6
Continuous
370
    18
100
AcDbLine
 10
10.0984251969
 20
0.5
 30
0.0
 11
10.0984251969
 21
0.1653543307
 31
0.0
  0
LINE
  5
C3
330
1F
100
AcDbEntity
  8
TITLE
  6
Continuous
370
    18
100
AcDbLine
 10
12.0669291339
 20
49.5
 30
0.0
 11
12.0669291339
 21
49.8346456693
 31
0.0
  0
LINE
  5
C4
330
1F
100
AcDbEntity
  8
TITLE
  6
Continuous
370
    18
100
AcDbLine
 10
12.0669291339
 20
0.5
 30
0.0
 11
12.0669291339
 21
0.1653543307
 31
0.0
  0
LINE
  5
C5
330
1F
100
AcDbEntity
  8
TITLE
  6
Continuous
370
    18
100
AcDbLine
 10
14.0354330709
 20
49.5
 30
0.0
 11
14.0354330709
 21
49.8346456693
 31
0.0
  0
LINE
  5
C6
330
1F
100
AcDbEntity
  8
TITLE
  6
Continuous
370
    18
100
AcDbLine
 10
14.0354330709
 20
0.5
 30
0.0
 11
14.0354330709
 21
0.1653543307
 31
0.0
  0
LINE
  5
C7
330
1F
100
AcDbEntity
  8
TITLE
  6
Continuous
370
    18
100
AcDbLine
 10
16.0039370079
 20
49.5
 30
0.0
 11
16.0039370079
 21
49.8346456693
 31
0.0
  0
LINE
  5
C8
330
1F
100
AcDbEntity
  8
TITLE
  6
Continuous
370
    18
100
AcDbLine
 10
16.0039370079
 20
0.5
 30
0.0
 11
16.0039370079
 21
0.1653543307
 31
0.0
  0
LINE
  5
C9
330
1F
100
AcDbEntity
  8
TITLE
  6
Continuous
370
    18
100
AcDbLine
 10
17.9724409449
 20
49.5
 30
0.0
 11
17.9724409449
 21
49.8346456693
 31
0.0
  0
LINE
  5
CA
330
1F
100
AcDbEntity
  8
TITLE
  6
Continuous
370
    18
100
AcDbLine
 10
17.9724409449
 20
0.5
 30
0.0
 11
17.9724409449
 21
0.1653543307
 31
0.0
  0
LINE
  5
CB
330
1F
100
AcDbEntity
  8
TITLE
  6
Continuous
370
    18
100
AcDbLine
 10
19.9409448819
 20
49.5
 30
0.0
 11
19.9409448819
 21
49.8346456693
 31
0.0
  0
LINE
  5
CC
330
1F
100
AcDbEntity
  8
TITLE
  6
Continuous
370
    18
100
AcDbLine
 10
19.9409448819
 20
0.5
 30
0.0
 11
19.9409448819
 21
0.1653543307
 31
0.0
  0
LINE
  5
CD
330
1F
100
AcDbEntity
  8
TITLE
  6
Continuous
370
    18
100
AcDbLine
 10
21.9094488189
 20
49.5
 30
0.0
 11
21.9094488189
 21
49.8346456693
 31
0.0
  0
LINE
  5
CE
330
1F
100
AcDbEntity
  8
TITLE
  6
Continuous
370
    18
100
AcDbLine
 10
21.9094488189
 20
0.5
 30
0.0
 11
21.9094488189
 21
0.1653543307
 31
0.0
  0
LINE
  5
CF
330
1F
100
AcDbEntity
  8
TITLE
  6
Continuous
370
    18
100
AcDbLine
 10
23.8779527559
 20
49.5
 30
0.0
 11
23.8779527559
 21
49.8346456693
 31
0.0
  0
LINE
  5
D0
330
1F
100
AcDbEntity
  8
TITLE
  6
Continuous
370
    18
100
AcDbLine
 10
23.8779527559
 20
0.5
 30
0.0
 11
23.8779527559
 21
0.1653543307
 31
0.0
  0
LINE
  5
D1
330
1F
100
AcDbEntity
  8
TITLE
  6
Continuous
370
    18
100
AcDbLine
 10
25.8464566929
 20
49.5
 30
0.0
 11
25.8464566929
 21
49.8346456693
 31
0.0
  0
LINE
  5
D2
330
1F
100
AcDbEntity
  8
TITLE
  6
Continuous
370
    18
100
AcDbLine
 10
25.8464566929
 20
0.5
 30
0.0
 11
25.8464566929
 21
0.1653543307
 31
0.0
  0
LINE
  5
D3
330
1F
100
AcDbEntity
  8
TITLE
  6
Continuous
370
    18
100
AcDbLine
 10
27.8149606299
 20
49.5
 30
0.0
 11
27.8149606299
 21
49.8346456693
 31
0.0
  0
LINE
  5
D4
330
1F
100
AcDbEntity
  8
TITLE
  6
Continuous
370
    18
100
AcDbLine
 10
27.8149606299
 20
0.5
 30
0.0
 11
27.8149606299
 21
0.1653543307
 31
0.0
  0
LINE
  5
D5
330
1F
100
AcDbEntity
  8
TITLE
  6
Continuous
370
    18
100
AcDbLine
 10
29.7834645669
 20
49.5
 30
0.0
 11
29.7834645669
 21
49.8346456693
 31
0.0
  0
LINE
  5
D6
330
1F
100
AcDbEntity
  8
TITLE
  6
Continuous
370
    18
100
AcDbLine
 10
29.7834645669
 20
0.5
 30
0.0
 11
29.7834645669
 21
0.1653543307
 31
0.0
  0
LINE
  5
D7
330
1F
100
AcDbEntity
  8
TITLE
  6
Continuous
370
    18
100
AcDbLine
 10
31.7519685039
 20
49.5
 30
0.0
 11
31.7519685039
 21
49.8346456693
 31
0.0
  0
LINE
  5
D8
330
1F
100
AcDbEntity
  8
TITLE
  6
Continuous
370
    18
100
AcDbLine
 10
31.7519685039
 20
0.5
 30
0.0
 11
31.7519685039
 21
0.1653543307
 31
0.0
  0
LINE
  5
D9
330
1F
100
AcDbEntity
  8
TITLE
  6
Continuous
370
    18
100
AcDbLine
 10
33.7204724409
 20
49.5
 30
0.0
 11
33.7204724409
 21
49.8346456693
 31
0.0
  0
LINE
  5
DA
330
1F
100
AcDbEntity
  8
TITLE
  6
Continuous
370
    18
100
AcDbLine
 10
33.7204724409
 20
0.5
 30
0.0
 11
33.7204724409
 21
0.1653543307
 31
0.0
  0
LINE
  5
DB
330
1F
100
AcDbEntity
  8
TITLE
  6
Continuous
370
    18
100
AcDbLine
 10
35.688976378
 20
49.5
 30
0.0
 11
35.688976378
 21
49.8346456693
 31
0.0
  0
LINE
  5
DC
330
1F
100
AcDbEntity
  8
TITLE
  6
Continuous
370
    18
100
AcDbLine
 10
35.688976378
 20
0.5
 30
0.0
 11
35.688976378
 21
0.1653543307
 31
0.0
  0
LINE
  5
DD
330
1F
100
AcDbEntity
  8
TITLE
  6
Continuous
370
    18
100
AcDbLine
 10
37.657480315
 20
49.5
 30
0.0
 11
37.657480315
 21
49.8346456693
 31
0.0
  0
LINE
  5
DE
330
1F
100
AcDbEntity
  8
TITLE
  6
Continuous
370
    18
100
AcDbLine
 10
37.657480315
 20
0.5
 30
0.0
 11
37.657480315
 21
0.1653543307
 31
0.0
  0
LINE
  5
DF
330
1F
100
AcDbEntity
  8
TITLE
  6
Continuous
370
    18
100
AcDbLine
 10
39.625984252
 20
49.5
 30
0.0
 11
39.625984252
 21
49.8346456693
 31
0.0
  0
LINE
  5
E0
330
1F
100
AcDbEntity
  8
TITLE
  6
Continuous
370
    18
100
AcDbLine
 10
39.625984252
 20
0.5
 30
0.0
 11
39.625984252
 21
0.1653543307
 31
0.0
  0
LINE
  5
E1
330
1F
100
AcDbEntity
  8
TITLE
  6
Continuous
370
    18
100
AcDbLine
 10
41.594488189
 20
49.5
 30
0.0
 11
41.594488189
 21
49.8346456693
 31
0.0
  0
LINE
  5
E2
330
1F
100
AcDbEntity
  8
TITLE
  6
Continuous
370
    18
100
AcDbLine
 10
41.594488189
 20
0.5
 30
0.0
 11
41.594488189
 21
0.1653543307
 31
0.0
  0
LINE
  5
E3
330
1F
100
AcDbEntity
  8
TITLE
  6
Continuous
370
    18
100
AcDbLine
 10
43.562992126
 20
49.5
 30
0.0
 11
43.562992126
 21
49.8346456693
 31
0.0
  0
LINE
  5
E4
330
1F
100
AcDbEntity
  8
TITLE
  6
Continuous
370
    18
100
AcDbLine
 10
43.562992126
 20
0.5
 30
0.0
 11
43.562992126
 21
0.1653543307
 31
0.0
  0
LINE
  5
E5
330
1F
100
AcDbEntity
  8
TITLE
  6
Continuous
370
    18
100
AcDbLine
 10
45.531496063
 20
49.5
 30
0.0
 11
45.531496063
 21
49.8346456693
 31
0.0
  0
LINE
  5
E6
330
1F
100
AcDbEntity
  8
TITLE
  6
Continuous
370
    18
100
AcDbLine
 10
45.531496063
 20
0.5
 30
0.0
 11
45.531496063
 21
0.1653543307
 31
0.0
  0
LINE
  5
E7
330
1F
100
AcDbEntity
  8
TITLE
  6
Continuous
370
    18
100
AcDbLine
 10
47.5
 20
49.5000393701
 30
0.0
 11
47.5
 21
49.8346456693
 31
0.0
  0
LINE
  5
E8
330
1F
100
AcDbEntity
  8
TITLE
  6
Continuous
370
    18
100
AcDbLine
 10
47.5
 20
0.4999606299
 30
0.0
 11
47.5
 21
0.1653543307
 31
0.0
  0
LINE
  5
E9
330
1F
100
AcDbEntity
  8
TITLE
  6
Continuous
370
    18
100
AcDbLine
 10
49.468503937
 20
49.5
 30
0.0
 11
49.468503937
 21
49.8346456693
 31
0.0
  0
LINE
  5
EA
330
1F
100
AcDbEntity
  8
TITLE
  6
Continuous
370
    18
100
AcDbLine
 10
49.468503937
 20
0.5
 30
0.0
 11
49.468503937
 21
0.1653543307
 31
0.0
  0
LINE
  5
EB
330
1F
100
AcDbEntity
  8
TITLE
  6
Continuous
370
    18
100
AcDbLine
 10
51.437007874
 20
49.5
 30
0.0
 11
51.437007874
 21
49.8346456693
 31
0.0
  0
LINE
  5
EC
330
1F
100
AcDbEntity
  8
TITLE
  6
Continuous
370
    18
100
AcDbLine
 10
51.437007874
 20
0.5
 30
0.0
 11
51.437007874
 21
0.1653543307
 31
0.0
  0
LINE
  5
ED
330
1F
100
AcDbEntity
  8
TITLE
  6
Continuous
370
    18
100
AcDbLine
 10
53.405511811
 20
49.5
 30
0.0
 11
53.405511811
 21
49.8346456693
 31
0.0
  0
LINE
  5
EE
330
1F
100
AcDbEntity
  8
TITLE
  6
Continuous
370
    18
100
AcDbLine
 10
53.405511811
 20
0.5
 30
0.0
 11
53.405511811
 21
0.1653543307
 31
0.0
  0
LINE
  5
EF
330
1F
100
AcDbEntity
  8
TITLE
  6
Continuous
370
    18
100
AcDbLine
 10
55.374015748
 20
49.5
 30
0.0
 11
55.374015748
 21
49.8346456693
 31
0.0
  0
LINE
  5
F0
330
1F
100
AcDbEntity
  8
TITLE
  6
Continuous
370
    18
100
AcDbLine
 10
55.374015748
 20
0.5
 30
0.0
 11
55.374015748
 21
0.1653543307
 31
0.0
  0
LINE
  5
F1
330
1F
100
AcDbEntity
  8
TITLE
  6
Continuous
370
    18
100
AcDbLine
 10
57.342519685
 20
49.5
 30
0.0
 11
57.342519685
 21
49.8346456693
 31
0.0
  0
LINE
  5
F2
330
1F
100
AcDbEntity
  8
TITLE
  6
Continuous
370
    18
100
AcDbLine
 10
57.342519685
 20
0.5
 30
0.0
 11
57.342519685
 21
0.1653543307
 31
0.0
  0
LINE
  5
F3
330
1F
100
AcDbEntity
  8
TITLE
  6
Continuous
370
    18
100
AcDbLine
 10
59.311023622
 20
49.5
 30
0.0
 11
59.311023622
 21
49.8346456693
 31
0.0
  0
LINE
  5
F4
330
1F
100
AcDbEntity
  8
TITLE
  6
Continuous
370
    18
100
AcDbLine
 10
59.311023622
 20
0.5
 30
0.0
 11
59.311023622
 21
0.1653543307
 31
0.0
  0
LINE
  5
F5
330
1F
100
AcDbEntity
  8
TITLE
  6
Continuous
370
    18
100
AcDbLine
 10
61.2795275591
 20
49.5
 30
0.0
 11
61.2795275591
 21
49.8346456693
 31
0.0
  0
LINE
  5
F6
330
1F
100
AcDbEntity
  8
TITLE
  6
Continuous
370
    18
100
AcDbLine
 10
61.2795275591
 20
0.5
 30
0.0
 11
61.2795275591
 21
0.1653543307
 31
0.0
  0
LINE
  5
F7
330
1F
100
AcDbEntity
  8
TITLE
  6
Continuous
370
    18
100
AcDbLine
 10
63.2480314961
 20
49.5
 30
0.0
 11
63.2480314961
 21
49.8346456693
 31
0.0
  0
LINE
  5
F8
330
1F
100
AcDbEntity
  8
TITLE
  6
Continuous
370
    18
100
AcDbLine
 10
63.2480314961
 20
0.5
 30
0.0
 11
63.2480314961
 21
0.1653543307
 31
0.0
  0
LINE
  5
F9
330
1F
100
AcDbEntity
  8
TITLE
  6
Continuous
370
    18
100
AcDbLine
 10
65.2165354331
 20
49.5
 30
0.0
 11
65.2165354331
 21
49.8346456693
 31
0.0
  0
LINE
  5
FA
330
1F
100
AcDbEntity
  8
TITLE
  6
Continuous
370
    18
100
AcDbLine
 10
65.2165354331
 20
0.5
 30
0.0
 11
65.2165354331
 21
0.1653543307
 31
0.0
  0
LINE
  5
FB
330
1F
100
AcDbEntity
  8
TITLE
  6
Continuous
370
    18
100
AcDbLine
 10
67.1850393701
 20
49.5
 30
0.0
 11
67.1850393701
 21
49.8346456693
 31
0.0
  0
LINE
  5
FC
330
1F
100
AcDbEntity
  8
TITLE
  6
Continuous
370
    18
100
AcDbLine
 10
67.1850393701
 20
0.5
 30
0.0
 11
67.1850393701
 21
0.1653543307
 31
0.0
  0
LINE
  5
FD
330
1F
100
AcDbEntity
  8
TITLE
  6
Continuous
370
    18
100
AcDbLine
 10
69.1535433071
 20
49.5
 30
0.0
 11
69.1535433071
 21
49.8346456693
 31
0.0
  0
LINE
  5
FE
330
1F
100
AcDbEntity
  8
TITLE
  6
Continuous
370
    18
100
AcDbLine
 10
69.1535433071
 20
0.5
 30
0.0
 11
69.1535433071
 21
0.1653543307
 31
0.0
  0
LINE
  5
FF
330
1F
100
AcDbEntity
  8
TITLE
  6
Continuous
370
    18
100
AcDbLine
 10
71.1220472441
 20
49.5
 30
0.0
 11
71.1220472441
 21
49.8346456693
 31
0.0
  0
LINE
  5
100
330
1F
100
AcDbEntity
  8
TITLE
  6
Continuous
370
    18
100
AcDbLine
 10
71.1220472441
 20
0.5
 30
0.0
 11
71.1220472441
 21
0.1653543307
 31
0.0
  0
LINE
  5
101
330
1F
100
AcDbEntity
  8
TITLE
  6
Continuous
370
    18
100
AcDbLine
 10
73.0905511811
 20
49.5
 30
0.0
 11
73.0905511811
 21
49.8346456693
 31
0.0
  0
LINE
  5
102
330
1F
100
AcDbEntity
  8
TITLE
  6
Continuous
370
    18
100
AcDbLine
 10
73.0905511811
 20
0.5
 30
0.0
 11
73.0905511811
 21
0.1653543307
 31
0.0
  0
LINE
  5
103
330
1F
100
AcDbEntity
  8
TITLE
  6
Continuous
370
    18
100
AcDbLine
 10
75.0590551181
 20
49.5
 30
0.0
 11
75.0590551181
 21
49.8346456693
 31
0.0
  0
LINE
  5
104
330
1F
100
AcDbEntity
  8
TITLE
  6
Continuous
370
    18
100
AcDbLine
 10
75.0590551181
 20
0.5
 30
0.0
 11
75.0590551181
 21
0.1653543307
 31
0.0
  0
LINE
  5
105
330
1F
100
AcDbEntity
  8
TITLE
  6
Continuous
370
    18
100
AcDbLine
 10
77.0275590551
 20
49.5
 30
0.0
 11
77.0275590551
 21
49.8346456693
 31
0.0
  0
LINE
  5
106
330
1F
100
AcDbEntity
  8
TITLE
  6
Continuous
370
    18
100
AcDbLine
 10
77.0275590551
 20
0.5
 30
0.0
 11
77.0275590551
 21
0.1653543307
 31
0.0
  0
LINE
  5
107
330
1F
100
AcDbEntity
  8
TITLE
  6
Continuous
370
    18
100
AcDbLine
 10
78.9960629921
 20
49.5
 30
0.0
 11
78.9960629921
 21
49.8346456693
 31
0.0
  0
LINE
  5
108
330
1F
100
AcDbEntity
  8
TITLE
  6
Continuous
370
    18
100
AcDbLine
 10
78.9960629921
 20
0.5
 30
0.0
 11
78.9960629921
 21
0.1653543307
 31
0.0
  0
LINE
  5
109
330
1F
100
AcDbEntity
  8
TITLE
  6
Continuous
370
    18
100
AcDbLine
 10
80.9645669291
 20
49.5
 30
0.0
 11
80.9645669291
 21
49.8346456693
 31
0.0
  0
LINE
  5
10A
330
1F
100
AcDbEntity
  8
TITLE
  6
Continuous
370
    18
100
AcDbLine
 10
80.9645669291
 20
0.5
 30
0.0
 11
80.9645669291
 21
0.1653543307
 31
0.0
  0
LINE
  5
10B
330
1F
100
AcDbEntity
  8
TITLE
  6
Continuous
370
    18
100
AcDbLine
 10
82.9330708661
 20
49.5
 30
0.0
 11
82.9330708661
 21
49.8346456693
 31
0.0
  0
LINE
  5
10C
330
1F
100
AcDbEntity
  8
TITLE
  6
Continuous
370
    18
100
AcDbLine
 10
82.9330708661
 20
0.5
 30
0.0
 11
82.9330708661
 21
0.1653543307
 31
0.0
  0
LINE
  5
10D
330
1F
100
AcDbEntity
  8
TITLE
  6
Continuous
370
    18
100
AcDbLine
 10
84.9015748031
 20
49.5
 30
0.0
 11
84.9015748031
 21
49.8346456693
 31
0.0
  0
LINE
  5
10E
330
1F
100
AcDbEntity
  8
TITLE
  6
Continuous
370
    18
100
AcDbLine
 10
84.9015748031
 20
0.5
 30
0.0
 11
84.9015748031
 21
0.1653543307
 31
0.0
  0
LINE
  5
10F
330
1F
100
AcDbEntity
  8
TITLE
  6
Continuous
370
    18
100
AcDbLine
 10
86.8700787402
 20
49.5
 30
0.0
 11
86.8700787402
 21
49.8346456693
 31
0.0
  0
LINE
  5
110
330
1F
100
AcDbEntity
  8
TITLE
  6
Continuous
370
    18
100
AcDbLine
 10
86.8700787402
 20
0.5
 30
0.0
 11
86.8700787402
 21
0.1653543307
 31
0.0
  0
LINE
  5
111
330
1F
100
AcDbEntity
  8
TITLE
  6
Continuous
370
    18
100
AcDbLine
 10
88.8385826772
 20
49.5
 30
0.0
 11
88.8385826772
 21
49.8346456693
 31
0.0
  0
LINE
  5
112
330
1F
100
AcDbEntity
  8
TITLE
  6
Continuous
370
    18
100
AcDbLine
 10
88.8385826772
 20
0.5
 30
0.0
 11
88.8385826772
 21
0.1653543307
 31
0.0
  0
LINE
  5
113
330
1F
100
AcDbEntity
  8
TITLE
  6
Continuous
370
    18
100
AcDbLine
 10
90.8070866142
 20
49.5
 30
0.0
 11
90.8070866142
 21
49.8346456693
 31
0.0
  0
LINE
  5
114
330
1F
100
AcDbEntity
  8
TITLE
  6
Continuous
370
    18
100
AcDbLine
 10
90.8070866142
 20
0.5
 30
0.0
 11
90.8070866142
 21
0.1653543307
 31
0.0
  0
LINE
  5
115
330
1F
100
AcDbEntity
  8
TITLE
  6
Continuous
370
    18
100
AcDbLine
 10
92.7755905512
 20
49.5
 30
0.0
 11
92.7755905512
 21
49.8346456693
 31
0.0
  0
LINE
  5
116
330
1F
100
AcDbEntity
  8
TITLE
  6
Continuous
370
    18
100
AcDbLine
 10
92.7755905512
 20
0.5
 30
0.0
 11
92.7755905512
 21
0.1653543307
 31
0.0
  0
MTEXT
  5
118
330
1F
100
AcDbEntity
  8
NOTES
100
AcDbMText
 10
71.408297803
 20
1.0702903347
 30
0.0
 40
0.25
 41
0.0
 71
     1
 72
     1
  1
UNLESS OTHERWISE SPECIFIED DIMENSIONS ARE IN INCHES.
  7
SLDTEXTSTYLE0
 73
     1
 44
1.0
  0
MTEXT
  5
119
330
1F
100
AcDbEntity
  8
NOTES
100
AcDbMText
 10
71.4300699279
 20
3.0830627776
 30
0.0
 40
0.25
 41
0.0
 71
     1
 72
     1
  1
DATE:
  7
SLDTEXTSTYLE0
 73
     1
 44
1.0
  0
MTEXT
  5
11A
330
1F
100
AcDbEntity
  8
NOTES
100
AcDbMText
 10
73.538701188
 20
2.1930329637
 30
0.0
 40
0.25
 41
0.0
 71
     2
 72
     1
  1
DO NOT SCALE DRAWING
  7
SLDTEXTSTYLE0
 73
     1
 44
1.0
  0
MTEXT
  5
11C
330
1F
100
AcDbEntity
  8
NOTES
100
AcDbMText
 10
77.8307373075
 20
3.2712065527
 30
0.0
 40
0.25
 41
0.0
 71
     1
 72
     1
  1
TITLE:
  7
SLDTEXTSTYLE1
 73
     1
 44
1.0
  0
MTEXT
  5
11D
330
1F
100
AcDbEntity
  8
NOTES
100
AcDbMText
 10
85.1561831052
 20
3.2712065527
 30
0.0
 40
0.25
 41
0.0
 71
     1
 72
     1
  1
DWG NO.
  7
SLDTEXTSTYLE1
 73
     1
 44
1.0
  0
MTEXT
  5
11F
330
1F
100
AcDbEntity
  8
NOTES
100
AcDbMText
 10
85.1831753203
 20
1.0675125551
 30
0.0
 40
0.25
 41
0.0
 71
     1
 72
     1
  1
SCALE:     1:1
  7
SLDTEXTSTYLE2
 73
     1
 44
1.0
  0
MTEXT
  5
120
330
1F
100
AcDbEntity
  8
NOTES
100
AcDbMText
 10
89.1850822902
 20
2.6539654269
 30
0.0
 40
0.25
 41
0.0
 71
     2
 72
     1
  1
941-1836 FT CAD
  7
SLDTEXTSTYLE1
 73
     1
 44
1.0
  0
MTEXT
  5
121
330
1F
100
AcDbEntity
  8
NOTES
100
AcDbMText
 10
81.4458326571
 20
2.6539654269
 30
0.0
 40
0.25
 41
0.0
 71
     2
 72
     1
  1
941-1836 FT Mirror
  7
SLDTEXTSTYLE1
 73
     1
 44
1.0
  0
INSERT
  5
127
330
1F
100
AcDbEntity
  8
NOTES
100
AcDbBlockReference
  2
SW_NOTE_0
 10
85.266131557
 20
4.6105227838
 30
0.0
  0
INSERT
  5
12F
330
1F
100
AcDbEntity
  8
NOTES
100
AcDbBlockReference
  2
SW_NOTE_0_1
 10
71.6159726246
 20
5.1481526848
 30
0.0
  0
MTEXT
  5
130
330
1F
100
AcDbEntity
  8
NOTES
100
AcDbMText
 10
74.5033157999
 20
3.0894043242
 30
0.0
 40
0.25
 41
0.0
 71
     2
 72
     1
  1
January 29, 2025
  7
SLDTEXTSTYLE1
 73
     1
 44
1.0
  0
MTEXT
  5
131
330
1F
100
AcDbEntity
  8
TITLE
100
AcDbMText
 10
0.3276279776
 20
2.0045717897
 30
0.0
 40
0.125
 41
0.0
 71
     2
 72
     1
  1
A
  7
SLDTEXTSTYLE1
 73
     1
 44
1.0
  0
MTEXT
  5
132
330
1F
100
AcDbEntity
  8
TITLE
100
AcDbMText
 10
94.6622736469
 20
2.0045717897
 30
0.0
 40
0.125
 41
0.0
 71
     2
 72
     1
  1
A
  7
SLDTEXTSTYLE1
 73
     1
 44
1.0
  0
MTEXT
  5
133
330
1F
100
AcDbEntity
  8
TITLE
100
AcDbMText
 10
0.3317512413
 20
4.4120521047
 30
0.0
 40
0.125
 41
0.0
 71
     2
 72
     1
  1
B
  7
SLDTEXTSTYLE1
 73
     1
 44
1.0
  0
MTEXT
  5
134
330
1F
100
AcDbEntity
  8
TITLE
100
AcDbMText
 10
94.6663969106
 20
4.4120521047
 30
0.0
 40
0.125
 41
0.0
 71
     2
 72
     1
  1
B
  7
SLDTEXTSTYLE1
 73
     1
 44
1.0
  0
MTEXT
  5
135
330
1F
100
AcDbEntity
  8
TITLE
100
AcDbMText
 10
0.3313750817
 20
6.3805560417
 30
0.0
 40
0.125
 41
0.0
 71
     2
 72
     1
  1
C
  7
SLDTEXTSTYLE1
 73
     1
 44
1.0
  0
MTEXT
  5
136
330
1F
100
AcDbEntity
  8
TITLE
100
AcDbMText
 10
94.666020751
 20
6.3805560417
 30
0.0
 40
0.125
 41
0.0
 71
     2
 72
     1
  1
C
  7
SLDTEXTSTYLE1
 73
     1
 44
1.0
  0
MTEXT
  5
137
330
1F
100
AcDbEntity
  8
TITLE
100
AcDbMText
 10
0.3311870028
 20
8.3490599787
 30
0.0
 40
0.125
 41
0.0
 71
     2
 72
     1
  1
D
  7
SLDTEXTSTYLE1
 73
     1
 44
1.0
  0
MTEXT
  5
138
330
1F
100
AcDbEntity
  8
TITLE
100
AcDbMText
 10
94.6658326721
 20
8.3490599787
 30
0.0
 40
0.125
 41
0.0
 71
     2
 72
     1
  1
D
  7
SLDTEXTSTYLE1
 73
     1
 44
1.0
  0
MTEXT
  5
139
330
1F
100
AcDbEntity
  8
TITLE
100
AcDbMText
 10
0.332923116
 20
10.3175639157
 30
0.0
 40
0.125
 41
0.0
 71
     2
 72
     1
  1
E
  7
SLDTEXTSTYLE1
 73
     1
 44
1.0
  0
MTEXT
  5
13A
330
1F
100
AcDbEntity
  8
TITLE
100
AcDbMText
 10
94.6675687853
 20
10.3175639157
 30
0.0
 40
0.125
 41
0.0
 71
     2
 72
     1
  1
E
  7
SLDTEXTSTYLE1
 73
     1
 44
1.0
  0
MTEXT
  5
13B
330
1F
100
AcDbEntity
  8
TITLE
100
AcDbMText
 10
0.3313461474
 20
12.2860678527
 30
0.0
 40
0.125
 41
0.0
 71
     2
 72
     1
  1
F
  7
SLDTEXTSTYLE1
 73
     1
 44
1.0
  0
MTEXT
  5
13C
330
1F
100
AcDbEntity
  8
TITLE
100
AcDbMText
 10
94.6659918167
 20
12.2860678527
 30
0.0
 40
0.125
 41
0.0
 71
     2
 72
     1
  1
F
  7
SLDTEXTSTYLE1
 73
     1
 44
1.0
  0
MTEXT
  5
13D
330
1F
100
AcDbEntity
  8
TITLE
100
AcDbMText
 10
0.3322576054
 20
14.2545717897
 30
0.0
 40
0.125
 41
0.0
 71
     2
 72
     1
  1
G
  7
SLDTEXTSTYLE1
 73
     1
 44
1.0
  0
MTEXT
  5
13E
330
1F
100
AcDbEntity
  8
TITLE
100
AcDbMText
 10
94.6669032747
 20
14.2545717897
 30
0.0
 40
0.125
 41
0.0
 71
     2
 72
     1
  1
G
  7
SLDTEXTSTYLE1
 73
     1
 44
1.0
  0
MTEXT
  5
13F
330
1F
100
AcDbEntity
  8
TITLE
100
AcDbMText
 10
0.3323733457
 20
16.2230757267
 30
0.0
 40
0.125
 41
0.0
 71
     2
 72
     1
  1
H
  7
SLDTEXTSTYLE1
 73
     1
 44
1.0
  0
MTEXT
  5
140
330
1F
100
AcDbEntity
  8
TITLE
100
AcDbMText
 10
94.667019015
 20
16.2230757267
 30
0.0
 40
0.125
 41
0.0
 71
     2
 72
     1
  1
H
  7
SLDTEXTSTYLE1
 73
     1
 44
1.0
  0
MTEXT
  5
141
330
1F
100
AcDbEntity
  8
TITLE
100
AcDbMText
 10
0.3315776306
 20
18.1915796637
 30
0.0
 40
0.125
 41
0.0
 71
     2
 72
     1
  1
J
  7
SLDTEXTSTYLE1
 73
     1
 44
1.0
  0
MTEXT
  5
142
330
1F
100
AcDbEntity
  8
TITLE
100
AcDbMText
 10
94.6662232999
 20
18.1915796637
 30
0.0
 40
0.125
 41
0.0
 71
     2
 72
     1
  1
J
  7
SLDTEXTSTYLE1
 73
     1
 44
1.0
  0
MTEXT
  5
143
330
1F
100
AcDbEntity
  8
TITLE
100
AcDbMText
 10
0.3323154765
 20
20.1600836007
 30
0.0
 40
0.125
 41
0.0
 71
     2
 72
     1
  1
K
  7
SLDTEXTSTYLE1
 73
     1
 44
1.0
  0
MTEXT
  5
144
330
1F
100
AcDbEntity
  8
TITLE
100
AcDbMText
 10
94.6669611458
 20
20.1600836007
 30
0.0
 40
0.125
 41
0.0
 71
     2
 72
     1
  1
K
  7
SLDTEXTSTYLE1
 73
     1
 44
1.0
  0
MTEXT
  5
145
330
1F
100
AcDbEntity
  8
TITLE
100
AcDbMText
 10
0.3312448739
 20
22.1285875377
 30
0.0
 40
0.125
 41
0.0
 71
     2
 72
     1
  1
L
  7
SLDTEXTSTYLE1
 73
     1
 44
1.0
  0
MTEXT
  5
146
330
1F
100
AcDbEntity
  8
TITLE
100
AcDbMText
 10
94.6658905432
 20
22.1285875377
 30
0.0
 40
0.125
 41
0.0
 71
     2
 72
     1
  1
L
  7
SLDTEXTSTYLE1
 73
     1
 44
1.0
  0
MTEXT
  5
147
330
1F
100
AcDbEntity
  8
TITLE
100
AcDbMText
 10
0.3283224192
 20
24.0970914747
 30
0.0
 40
0.125
 41
0.0
 71
     2
 72
     1
  1
M
  7
SLDTEXTSTYLE1
 73
     1
 44
1.0
  0
MTEXT
  5
148
330
1F
100
AcDbEntity
  8
TITLE
100
AcDbMText
 10
94.6629680885
 20
24.0970914747
 30
0.0
 40
0.125
 41
0.0
 71
     2
 72
     1
  1
M
  7
SLDTEXTSTYLE1
 73
     1
 44
1.0
  0
MTEXT
  5
149
330
1F
100
AcDbEntity
  8
TITLE
100
AcDbMText
 10
0.3315342276
 20
26.0655954117
 30
0.0
 40
0.125
 41
0.0
 71
     2
 72
     1
  1
N
  7
SLDTEXTSTYLE1
 73
     1
 44
1.0
  0
MTEXT
  5
14A
330
1F
100
AcDbEntity
  8
TITLE
100
AcDbMText
 10
94.6661798969
 20
26.0655954117
 30
0.0
 40
0.125
 41
0.0
 71
     2
 72
     1
  1
N
  7
SLDTEXTSTYLE1
 73
     1
 44
1.0
  0
MTEXT
  5
14B
330
1F
100
AcDbEntity
  8
TITLE
100
AcDbMText
 10
0.3321997349
 20
28.0340993488
 30
0.0
 40
0.125
 41
0.0
 71
     2
 72
     1
  1
P
  7
SLDTEXTSTYLE1
 73
     1
 44
1.0
  0
MTEXT
  5
14C
330
1F
100
AcDbEntity
  8
TITLE
100
AcDbMText
 10
94.6668454042
 20
28.0340993488
 30
0.0
 40
0.125
 41
0.0
 71
     2
 72
     1
  1
P
  7
SLDTEXTSTYLE1
 73
     1
 44
1.0
  0
MTEXT
  5
14D
330
1F
100
AcDbEntity
  8
TITLE
100
AcDbMText
 10
0.3309265867
 20
30.0026032858
 30
0.0
 40
0.125
 41
0.0
 71
     2
 72
     1
  1
R
  7
SLDTEXTSTYLE1
 73
     1
 44
1.0
  0
MTEXT
  5
14E
330
1F
100
AcDbEntity
  8
TITLE
100
AcDbMText
 10
94.665572256
 20
30.0026032858
 30
0.0
 40
0.125
 41
0.0
 71
     2
 72
     1
  1
R
  7
SLDTEXTSTYLE1
 73
     1
 44
1.0
  0
MTEXT
  5
14F
330
1F
100
AcDbEntity
  8
TITLE
100
AcDbMText
 10
0.3323010071
 20
31.9711072228
 30
0.0
 40
0.125
 41
0.0
 71
     2
 72
     1
  1
T
  7
SLDTEXTSTYLE1
 73
     1
 44
1.0
  0
MTEXT
  5
150
330
1F
100
AcDbEntity
  8
TITLE
100
AcDbMText
 10
94.6669466764
 20
31.9711072228
 30
0.0
 40
0.125
 41
0.0
 71
     2
 72
     1
  1
T
  7
SLDTEXTSTYLE1
 73
     1
 44
1.0
  0
MTEXT
  5
151
330
1F
100
AcDbEntity
  8
TITLE
100
AcDbMText
 10
0.3328507755
 20
33.9396111598
 30
0.0
 40
0.125
 41
0.0
 71
     2
 72
     1
  1
U
  7
SLDTEXTSTYLE1
 73
     1
 44
1.0
  0
MTEXT
  5
152
330
1F
100
AcDbEntity
  8
TITLE
100
AcDbMText
 10
94.6674964448
 20
33.9396111598
 30
0.0
 40
0.125
 41
0.0
 71
     2
 72
     1
  1
U
  7
SLDTEXTSTYLE1
 73
     1
 44
1.0
  0
MTEXT
  5
153
330
1F
100
AcDbEntity
  8
TITLE
100
AcDbMText
 10
0.3307529773
 20
35.9081150968
 30
0.0
 40
0.125
 41
0.0
 71
     2
 72
     1
  1
V
  7
SLDTEXTSTYLE1
 73
     1
 44
1.0
  0
MTEXT
  5
154
330
1F
100
AcDbEntity
  8
TITLE
100
AcDbMText
 10
94.6653986466
 20
35.9081150968
 30
0.0
 40
0.125
 41
0.0
 71
     2
 72
     1
  1
V
  7
SLDTEXTSTYLE1
 73
     1
 44
1.0
  0
MTEXT
  5
155
330
1F
100
AcDbEntity
  8
TITLE
100
AcDbMText
 10
0.3327784409
 20
37.8766190338
 30
0.0
 40
0.125
 41
0.0
 71
     2
 72
     1
  1
W
  7
SLDTEXTSTYLE1
 73
     1
 44
1.0
  0
MTEXT
  5
156
330
1F
100
AcDbEntity
  8
TITLE
100
AcDbMText
 10
94.6674241102
 20
37.8766190338
 30
0.0
 40
0.125
 41
0.0
 71
     2
 72
     1
  1
W
  7
SLDTEXTSTYLE1
 73
     1
 44
1.0
  0
MTEXT
  5
157
330
1F
100
AcDbEntity
  8
TITLE
100
AcDbMText
 10
0.3321997349
 20
39.8451229708
 30
0.0
 40
0.125
 41
0.0
 71
     2
 72
     1
  1
Y
  7
SLDTEXTSTYLE1
 73
     1
 44
1.0
  0
MTEXT
  5
158
330
1F
100
AcDbEntity
  8
TITLE
100
AcDbMText
 10
94.6668454042
 20
39.8451229708
 30
0.0
 40
0.125
 41
0.0
 71
     2
 72
     1
  1
Y
  7
SLDTEXTSTYLE1
 73
     1
 44
1.0
  0
MTEXT
  5
159
330
1F
100
AcDbEntity
  8
TITLE
100
AcDbMText
 10
0.3225787898
 20
41.8136269078
 30
0.0
 40
0.125
 41
0.0
 71
     2
 72
     1
  1
AA
  7
SLDTEXTSTYLE1
 73
     1
 44
1.0
  0
MTEXT
  5
15A
330
1F
100
AcDbEntity
  8
TITLE
100
AcDbMText
 10
94.6572244591
 20
41.8136269078
 30
0.0
 40
0.125
 41
0.0
 71
     2
 72
     1
  1
AA
  7
SLDTEXTSTYLE1
 73
     1
 44
1.0
  0
MTEXT
  5
15B
330
1F
100
AcDbEntity
  8
TITLE
100
AcDbMText
 10
0.3267020535
 20
43.7821308448
 30
0.0
 40
0.125
 41
0.0
 71
     2
 72
     1
  1
AB
  7
SLDTEXTSTYLE1
 73
     1
 44
1.0
  0
MTEXT
  5
15C
330
1F
100
AcDbEntity
  8
TITLE
100
AcDbMText
 10
94.6613477228
 20
43.7821308448
 30
0.0
 40
0.125
 41
0.0
 71
     2
 72
     1
  1
AB
  7
SLDTEXTSTYLE1
 73
     1
 44
1.0
  0
MTEXT
  5
15D
330
1F
100
AcDbEntity
  8
TITLE
100
AcDbMText
 10
0.3263258985
 20
45.7506347818
 30
0.0
 40
0.125
 41
0.0
 71
     2
 72
     1
  1
AC
  7
SLDTEXTSTYLE1
 73
     1
 44
1.0
  0
MTEXT
  5
15E
330
1F
100
AcDbEntity
  8
TITLE
100
AcDbMText
 10
94.6609715678
 20
45.7506347818
 30
0.0
 40
0.125
 41
0.0
 71
     2
 72
     1
  1
AC
  7
SLDTEXTSTYLE1
 73
     1
 44
1.0
  0
MTEXT
  5
15F
330
1F
100
AcDbEntity
  8
TITLE
100
AcDbMText
 10
0.3261378197
 20
48.1581150968
 30
0.0
 40
0.125
 41
0.0
 71
     2
 72
     1
  1
AD
  7
SLDTEXTSTYLE1
 73
     1
 44
1.0
  0
MTEXT
  5
160
330
1F
100
AcDbEntity
  8
TITLE
100
AcDbMText
 10
94.6607834889
 20
48.1581150968
 30
0.0
 40
0.125
 41
0.0
 71
     2
 72
     1
  1
AD
  7
SLDTEXTSTYLE1
 73
     1
 44
1.0
  0
MTEXT
  5
161
330
1F
100
AcDbEntity
  8
TITLE
100
AcDbMText
 10
1.359687363
 20
0.4140206086
 30
0.0
 40
0.125
 41
0.0
 71
     2
 72
     1
  1
48
  7
SLDTEXTSTYLE1
 73
     1
 44
1.0
  0
MTEXT
  5
162
330
1F
100
AcDbEntity
  8
TITLE
100
AcDbMText
 10
1.359687363
 20
49.7486662779
 30
0.0
 40
0.125
 41
0.0
 71
     2
 72
     1
  1
48
  7
SLDTEXTSTYLE1
 73
     1
 44
1.0
  0
MTEXT
  5
163
330
1F
100
AcDbEntity
  8
TITLE
100
AcDbMText
 10
3.206144056
 20
0.4140206086
 30
0.0
 40
0.125
 41
0.0
 71
     2
 72
     1
  1
47
  7
SLDTEXTSTYLE1
 73
     1
 44
1.0
  0
MTEXT
  5
164
330
1F
100
AcDbEntity
  8
TITLE
100
AcDbMText
 10
3.206144056
 20
49.7486662779
 30
0.0
 40
0.125
 41
0.0
 71
     2
 72
     1
  1
47
  7
SLDTEXTSTYLE1
 73
     1
 44
1.0
  0
MTEXT
  5
165
330
1F
100
AcDbEntity
  8
TITLE
100
AcDbMText
 10
5.174647993
 20
0.4140206086
 30
0.0
 40
0.125
 41
0.0
 71
     2
 72
     1
  1
46
  7
SLDTEXTSTYLE1
 73
     1
 44
1.0
  0
MTEXT
  5
166
330
1F
100
AcDbEntity
  8
TITLE
100
AcDbMText
 10
5.174647993
 20
49.7486662779
 30
0.0
 40
0.125
 41
0.0
 71
     2
 72
     1
  1
46
  7
SLDTEXTSTYLE1
 73
     1
 44
1.0
  0
MTEXT
  5
167
330
1F
100
AcDbEntity
  8
TITLE
100
AcDbMText
 10
7.14315193
 20
0.4140206086
 30
0.0
 40
0.125
 41
0.0
 71
     2
 72
     1
  1
45
  7
SLDTEXTSTYLE1
 73
     1
 44
1.0
  0
MTEXT
  5
168
330
1F
100
AcDbEntity
  8
TITLE
100
AcDbMText
 10
7.14315193
 20
49.7486662779
 30
0.0
 40
0.125
 41
0.0
 71
     2
 72
     1
  1
45
  7
SLDTEXTSTYLE1
 73
     1
 44
1.0
  0
MTEXT
  5
169
330
1F
100
AcDbEntity
  8
TITLE
100
AcDbMText
 10
9.111655867
 20
0.4140206086
 30
0.0
 40
0.125
 41
0.0
 71
     2
 72
     1
  1
44
  7
SLDTEXTSTYLE1
 73
     1
 44
1.0
  0
MTEXT
  5
16A
330
1F
100
AcDbEntity
  8
TITLE
100
AcDbMText
 10
9.111655867
 20
49.7486662779
 30
0.0
 40
0.125
 41
0.0
 71
     2
 72
     1
  1
44
  7
SLDTEXTSTYLE1
 73
     1
 44
1.0
  0
MTEXT
  5
16B
330
1F
100
AcDbEntity
  8
TITLE
100
AcDbMText
 10
11.080159804
 20
0.4140206086
 30
0.0
 40
0.125
 41
0.0
 71
     2
 72
     1
  1
43
  7
SLDTEXTSTYLE1
 73
     1
 44
1.0
  0
MTEXT
  5
16C
330
1F
100
AcDbEntity
  8
TITLE
100
AcDbMText
 10
11.080159804
 20
49.7486662779
 30
0.0
 40
0.125
 41
0.0
 71
     2
 72
     1
  1
43
  7
SLDTEXTSTYLE1
 73
     1
 44
1.0
  0
MTEXT
  5
16D
330
1F
100
AcDbEntity
  8
TITLE
100
AcDbMText
 10
13.048663741
 20
0.4140206086
 30
0.0
 40
0.125
 41
0.0
 71
     2
 72
     1
  1
42
  7
SLDTEXTSTYLE1
 73
     1
 44
1.0
  0
MTEXT
  5
16E
330
1F
100
AcDbEntity
  8
TITLE
100
AcDbMText
 10
13.048663741
 20
49.7486662779
 30
0.0
 40
0.125
 41
0.0
 71
     2
 72
     1
  1
42
  7
SLDTEXTSTYLE1
 73
     1
 44
1.0
  0
MTEXT
  5
16F
330
1F
100
AcDbEntity
  8
TITLE
100
AcDbMText
 10
15.017167678
 20
0.4140206086
 30
0.0
 40
0.125
 41
0.0
 71
     2
 72
     1
  1
41
  7
SLDTEXTSTYLE1
 73
     1
 44
1.0
  0
MTEXT
  5
170
330
1F
100
AcDbEntity
  8
TITLE
100
AcDbMText
 10
15.017167678
 20
49.7486662779
 30
0.0
 40
0.125
 41
0.0
 71
     2
 72
     1
  1
41
  7
SLDTEXTSTYLE1
 73
     1
 44
1.0
  0
MTEXT
  5
171
330
1F
100
AcDbEntity
  8
TITLE
100
AcDbMText
 10
16.985671615
 20
0.4140206086
 30
0.0
 40
0.125
 41
0.0
 71
     2
 72
     1
  1
40
  7
SLDTEXTSTYLE1
 73
     1
 44
1.0
  0
MTEXT
  5
172
330
1F
100
AcDbEntity
  8
TITLE
100
AcDbMText
 10
16.985671615
 20
49.7486662779
 30
0.0
 40
0.125
 41
0.0
 71
     2
 72
     1
  1
40
  7
SLDTEXTSTYLE1
 73
     1
 44
1.0
  0
MTEXT
  5
173
330
1F
100
AcDbEntity
  8
TITLE
100
AcDbMText
 10
18.954175552
 20
0.4140206086
 30
0.0
 40
0.125
 41
0.0
 71
     2
 72
     1
  1
39
  7
SLDTEXTSTYLE1
 73
     1
 44
1.0
  0
MTEXT
  5
174
330
1F
100
AcDbEntity
  8
TITLE
100
AcDbMText
 10
18.954175552
 20
49.7486662779
 30
0.0
 40
0.125
 41
0.0
 71
     2
 72
     1
  1
39
  7
SLDTEXTSTYLE1
 73
     1
 44
1.0
  0
MTEXT
  5
175
330
1F
100
AcDbEntity
  8
TITLE
100
AcDbMText
 10
20.922679489
 20
0.4140206086
 30
0.0
 40
0.125
 41
0.0
 71
     2
 72
     1
  1
38
  7
SLDTEXTSTYLE1
 73
     1
 44
1.0
  0
MTEXT
  5
176
330
1F
100
AcDbEntity
  8
TITLE
100
AcDbMText
 10
20.922679489
 20
49.7486662779
 30
0.0
 40
0.125
 41
0.0
 71
     2
 72
     1
  1
38
  7
SLDTEXTSTYLE1
 73
     1
 44
1.0
  0
MTEXT
  5
177
330
1F
100
AcDbEntity
  8
TITLE
100
AcDbMText
 10
22.891183426
 20
0.4140206086
 30
0.0
 40
0.125
 41
0.0
 71
     2
 72
     1
  1
37
  7
SLDTEXTSTYLE1
 73
     1
 44
1.0
  0
MTEXT
  5
178
330
1F
100
AcDbEntity
  8
TITLE
100
AcDbMText
 10
22.891183426
 20
49.7486662779
 30
0.0
 40
0.125
 41
0.0
 71
     2
 72
     1
  1
37
  7
SLDTEXTSTYLE1
 73
     1
 44
1.0
  0
MTEXT
  5
179
330
1F
100
AcDbEntity
  8
TITLE
100
AcDbMText
 10
24.859687363
 20
0.4140206086
 30
0.0
 40
0.125
 41
0.0
 71
     2
 72
     1
  1
36
  7
SLDTEXTSTYLE1
 73
     1
 44
1.0
  0
MTEXT
  5
17A
330
1F
100
AcDbEntity
  8
TITLE
100
AcDbMText
 10
24.859687363
 20
49.7486662779
 30
0.0
 40
0.125
 41
0.0
 71
     2
 72
     1
  1
36
  7
SLDTEXTSTYLE1
 73
     1
 44
1.0
  0
MTEXT
  5
17B
330
1F
100
AcDbEntity
  8
TITLE
100
AcDbMText
 10
26.8281913
 20
0.4140206086
 30
0.0
 40
0.125
 41
0.0
 71
     2
 72
     1
  1
35
  7
SLDTEXTSTYLE1
 73
     1
 44
1.0
  0
MTEXT
  5
17C
330
1F
100
AcDbEntity
  8
TITLE
100
AcDbMText
 10
26.8281913
 20
49.7486662779
 30
0.0
 40
0.125
 41
0.0
 71
     2
 72
     1
  1
35
  7
SLDTEXTSTYLE1
 73
     1
 44
1.0
  0
MTEXT
  5
17D
330
1F
100
AcDbEntity
  8
TITLE
100
AcDbMText
 10
28.7966952371
 20
0.4140206086
 30
0.0
 40
0.125
 41
0.0
 71
     2
 72
     1
  1
34
  7
SLDTEXTSTYLE1
 73
     1
 44
1.0
  0
MTEXT
  5
17E
330
1F
100
AcDbEntity
  8
TITLE
100
AcDbMText
 10
28.7966952371
 20
49.7486662779
 30
0.0
 40
0.125
 41
0.0
 71
     2
 72
     1
  1
34
  7
SLDTEXTSTYLE1
 73
     1
 44
1.0
  0
MTEXT
  5
17F
330
1F
100
AcDbEntity
  8
TITLE
100
AcDbMText
 10
30.7651991741
 20
0.4140206086
 30
0.0
 40
0.125
 41
0.0
 71
     2
 72
     1
  1
33
  7
SLDTEXTSTYLE1
 73
     1
 44
1.0
  0
MTEXT
  5
180
330
1F
100
AcDbEntity
  8
TITLE
100
AcDbMText
 10
30.7651991741
 20
49.7486662779
 30
0.0
 40
0.125
 41
0.0
 71
     2
 72
     1
  1
33
  7
SLDTEXTSTYLE1
 73
     1
 44
1.0
  0
MTEXT
  5
181
330
1F
100
AcDbEntity
  8
TITLE
100
AcDbMText
 10
32.7337031111
 20
0.4140206086
 30
0.0
 40
0.125
 41
0.0
 71
     2
 72
     1
  1
32
  7
SLDTEXTSTYLE1
 73
     1
 44
1.0
  0
MTEXT
  5
182
330
1F
100
AcDbEntity
  8
TITLE
100
AcDbMText
 10
32.7337031111
 20
49.7486662779
 30
0.0
 40
0.125
 41
0.0
 71
     2
 72
     1
  1
32
  7
SLDTEXTSTYLE1
 73
     1
 44
1.0
  0
MTEXT
  5
183
330
1F
100
AcDbEntity
  8
TITLE
100
AcDbMText
 10
34.7022070481
 20
0.4140206086
 30
0.0
 40
0.125
 41
0.0
 71
     2
 72
     1
  1
31
  7
SLDTEXTSTYLE1
 73
     1
 44
1.0
  0
MTEXT
  5
184
330
1F
100
AcDbEntity
  8
TITLE
100
AcDbMText
 10
34.7022070481
 20
49.7486662779
 30
0.0
 40
0.125
 41
0.0
 71
     2
 72
     1
  1
31
  7
SLDTEXTSTYLE1
 73
     1
 44
1.0
  0
MTEXT
  5
185
330
1F
100
AcDbEntity
  8
TITLE
100
AcDbMText
 10
36.6707109851
 20
0.4140206086
 30
0.0
 40
0.125
 41
0.0
 71
     2
 72
     1
  1
30
  7
SLDTEXTSTYLE1
 73
     1
 44
1.0
  0
MTEXT
  5
186
330
1F
100
AcDbEntity
  8
TITLE
100
AcDbMText
 10
36.6707109851
 20
49.7486662779
 30
0.0
 40
0.125
 41
0.0
 71
     2
 72
     1
  1
30
  7
SLDTEXTSTYLE1
 73
     1
 44
1.0
  0
MTEXT
  5
187
330
1F
100
AcDbEntity
  8
TITLE
100
AcDbMText
 10
38.6392149221
 20
0.4140206086
 30
0.0
 40
0.125
 41
0.0
 71
     2
 72
     1
  1
29
  7
SLDTEXTSTYLE1
 73
     1
 44
1.0
  0
MTEXT
  5
188
330
1F
100
AcDbEntity
  8
TITLE
100
AcDbMText
 10
38.6392149221
 20
49.7486662779
 30
0.0
 40
0.125
 41
0.0
 71
     2
 72
     1
  1
29
  7
SLDTEXTSTYLE1
 73
     1
 44
1.0
  0
MTEXT
  5
189
330
1F
100
AcDbEntity
  8
TITLE
100
AcDbMText
 10
40.6077188591
 20
0.4140206086
 30
0.0
 40
0.125
 41
0.0
 71
     2
 72
     1
  1
28
  7
SLDTEXTSTYLE1
 73
     1
 44
1.0
  0
MTEXT
  5
18A
330
1F
100
AcDbEntity
  8
TITLE
100
AcDbMText
 10
40.6077188591
 20
49.7486662779
 30
0.0
 40
0.125
 41
0.0
 71
     2
 72
     1
  1
28
  7
SLDTEXTSTYLE1
 73
     1
 44
1.0
  0
MTEXT
  5
18B
330
1F
100
AcDbEntity
  8
TITLE
100
AcDbMText
 10
42.5762227961
 20
0.4140206086
 30
0.0
 40
0.125
 41
0.0
 71
     2
 72
     1
  1
27
  7
SLDTEXTSTYLE1
 73
     1
 44
1.0
  0
MTEXT
  5
18C
330
1F
100
AcDbEntity
  8
TITLE
100
AcDbMText
 10
42.5762227961
 20
49.7486662779
 30
0.0
 40
0.125
 41
0.0
 71
     2
 72
     1
  1
27
  7
SLDTEXTSTYLE1
 73
     1
 44
1.0
  0
MTEXT
  5
18D
330
1F
100
AcDbEntity
  8
TITLE
100
AcDbMText
 10
44.5447267331
 20
0.4140206086
 30
0.0
 40
0.125
 41
0.0
 71
     2
 72
     1
  1
26
  7
SLDTEXTSTYLE1
 73
     1
 44
1.0
  0
MTEXT
  5
18E
330
1F
100
AcDbEntity
  8
TITLE
100
AcDbMText
 10
44.5447267331
 20
49.7486662779
 30
0.0
 40
0.125
 41
0.0
 71
     2
 72
     1
  1
26
  7
SLDTEXTSTYLE1
 73
     1
 44
1.0
  0
MTEXT
  5
18F
330
1F
100
AcDbEntity
  8
TITLE
100
AcDbMText
 10
46.5132306701
 20
0.4140206086
 30
0.0
 40
0.125
 41
0.0
 71
     2
 72
     1
  1
25
  7
SLDTEXTSTYLE1
 73
     1
 44
1.0
  0
MTEXT
  5
190
330
1F
100
AcDbEntity
  8
TITLE
100
AcDbMText
 10
46.5132306701
 20
49.7486662779
 30
0.0
 40
0.125
 41
0.0
 71
     2
 72
     1
  1
25
  7
SLDTEXTSTYLE1
 73
     1
 44
1.0
  0
MTEXT
  5
191
330
1F
100
AcDbEntity
  8
TITLE
100
AcDbMText
 10
48.4817346071
 20
0.4140206086
 30
0.0
 40
0.125
 41
0.0
 71
     2
 72
     1
  1
24
  7
SLDTEXTSTYLE1
 73
     1
 44
1.0
  0
MTEXT
  5
192
330
1F
100
AcDbEntity
  8
TITLE
100
AcDbMText
 10
48.4817346071
 20
49.7486662779
 30
0.0
 40
0.125
 41
0.0
 71
     2
 72
     1
  1
24
  7
SLDTEXTSTYLE1
 73
     1
 44
1.0
  0
MTEXT
  5
193
330
1F
100
AcDbEntity
  8
TITLE
100
AcDbMText
 10
50.4502385441
 20
0.4140206086
 30
0.0
 40
0.125
 41
0.0
 71
     2
 72
     1
  1
23
  7
SLDTEXTSTYLE1
 73
     1
 44
1.0
  0
MTEXT
  5
194
330
1F
100
AcDbEntity
  8
TITLE
100
AcDbMText
 10
50.4502385441
 20
49.7486662779
 30
0.0
 40
0.125
 41
0.0
 71
     2
 72
     1
  1
23
  7
SLDTEXTSTYLE1
 73
     1
 44
1.0
  0
MTEXT
  5
195
330
1F
100
AcDbEntity
  8
TITLE
100
AcDbMText
 10
52.4187424811
 20
0.4140206086
 30
0.0
 40
0.125
 41
0.0
 71
     2
 72
     1
  1
22
  7
SLDTEXTSTYLE1
 73
     1
 44
1.0
  0
MTEXT
  5
196
330
1F
100
AcDbEntity
  8
TITLE
100
AcDbMText
 10
52.4187424811
 20
49.7486662779
 30
0.0
 40
0.125
 41
0.0
 71
     2
 72
     1
  1
22
  7
SLDTEXTSTYLE1
 73
     1
 44
1.0
  0
MTEXT
  5
197
330
1F
100
AcDbEntity
  8
TITLE
100
AcDbMText
 10
54.3872464182
 20
0.4140206086
 30
0.0
 40
0.125
 41
0.0
 71
     2
 72
     1
  1
21
  7
SLDTEXTSTYLE1
 73
     1
 44
1.0
  0
MTEXT
  5
198
330
1F
100
AcDbEntity
  8
TITLE
100
AcDbMText
 10
54.3872464182
 20
49.7486662779
 30
0.0
 40
0.125
 41
0.0
 71
     2
 72
     1
  1
21
  7
SLDTEXTSTYLE1
 73
     1
 44
1.0
  0
MTEXT
  5
199
330
1F
100
AcDbEntity
  8
TITLE
100
AcDbMText
 10
56.3557503552
 20
0.4140206086
 30
0.0
 40
0.125
 41
0.0
 71
     2
 72
     1
  1
20
  7
SLDTEXTSTYLE1
 73
     1
 44
1.0
  0
MTEXT
  5
19A
330
1F
100
AcDbEntity
  8
TITLE
100
AcDbMText
 10
56.3557503552
 20
49.7486662779
 30
0.0
 40
0.125
 41
0.0
 71
     2
 72
     1
  1
20
  7
SLDTEXTSTYLE1
 73
     1
 44
1.0
  0
MTEXT
  5
19B
330
1F
100
AcDbEntity
  8
TITLE
100
AcDbMText
 10
58.3242542922
 20
0.4140206086
 30
0.0
 40
0.125
 41
0.0
 71
     2
 72
     1
  1
19
  7
SLDTEXTSTYLE1
 73
     1
 44
1.0
  0
MTEXT
  5
19C
330
1F
100
AcDbEntity
  8
TITLE
100
AcDbMText
 10
58.3242542922
 20
49.7486662779
 30
0.0
 40
0.125
 41
0.0
 71
     2
 72
     1
  1
19
  7
SLDTEXTSTYLE1
 73
     1
 44
1.0
  0
MTEXT
  5
19D
330
1F
100
AcDbEntity
  8
TITLE
100
AcDbMText
 10
60.2927582292
 20
0.4140206086
 30
0.0
 40
0.125
 41
0.0
 71
     2
 72
     1
  1
18
  7
SLDTEXTSTYLE1
 73
     1
 44
1.0
  0
MTEXT
  5
19E
330
1F
100
AcDbEntity
  8
TITLE
100
AcDbMText
 10
60.2927582292
 20
49.7486662779
 30
0.0
 40
0.125
 41
0.0
 71
     2
 72
     1
  1
18
  7
SLDTEXTSTYLE1
 73
     1
 44
1.0
  0
MTEXT
  5
19F
330
1F
100
AcDbEntity
  8
TITLE
100
AcDbMText
 10
62.2612621662
 20
0.4140206086
 30
0.0
 40
0.125
 41
0.0
 71
     2
 72
     1
  1
17
  7
SLDTEXTSTYLE1
 73
     1
 44
1.0
  0
MTEXT
  5
1A0
330
1F
100
AcDbEntity
  8
TITLE
100
AcDbMText
 10
62.2612621662
 20
49.7486662779
 30
0.0
 40
0.125
 41
0.0
 71
     2
 72
     1
  1
17
  7
SLDTEXTSTYLE1
 73
     1
 44
1.0
  0
MTEXT
  5
1A1
330
1F
100
AcDbEntity
  8
TITLE
100
AcDbMText
 10
64.2297661032
 20
0.4140206086
 30
0.0
 40
0.125
 41
0.0
 71
     2
 72
     1
  1
16
  7
SLDTEXTSTYLE1
 73
     1
 44
1.0
  0
MTEXT
  5
1A2
330
1F
100
AcDbEntity
  8
TITLE
100
AcDbMText
 10
64.2297661032
 20
49.7486662779
 30
0.0
 40
0.125
 41
0.0
 71
     2
 72
     1
  1
16
  7
SLDTEXTSTYLE1
 73
     1
 44
1.0
  0
MTEXT
  5
1A3
330
1F
100
AcDbEntity
  8
TITLE
100
AcDbMText
 10
66.1982700402
 20
0.4140206086
 30
0.0
 40
0.125
 41
0.0
 71
     2
 72
     1
  1
15
  7
SLDTEXTSTYLE1
 73
     1
 44
1.0
  0
MTEXT
  5
1A4
330
1F
100
AcDbEntity
  8
TITLE
100
AcDbMText
 10
66.1982700402
 20
49.7486662779
 30
0.0
 40
0.125
 41
0.0
 71
     2
 72
     1
  1
15
  7
SLDTEXTSTYLE1
 73
     1
 44
1.0
  0
MTEXT
  5
1A5
330
1F
100
AcDbEntity
  8
TITLE
100
AcDbMText
 10
68.1667739772
 20
0.4140206086
 30
0.0
 40
0.125
 41
0.0
 71
     2
 72
     1
  1
14
  7
SLDTEXTSTYLE1
 73
     1
 44
1.0
  0
MTEXT
  5
1A6
330
1F
100
AcDbEntity
  8
TITLE
100
AcDbMText
 10
68.1667739772
 20
49.7486662779
 30
0.0
 40
0.125
 41
0.0
 71
     2
 72
     1
  1
14
  7
SLDTEXTSTYLE1
 73
     1
 44
1.0
  0
MTEXT
  5
1A7
330
1F
100
AcDbEntity
  8
TITLE
100
AcDbMText
 10
70.1352779142
 20
0.4140206086
 30
0.0
 40
0.125
 41
0.0
 71
     2
 72
     1
  1
13
  7
SLDTEXTSTYLE1
 73
     1
 44
1.0
  0
MTEXT
  5
1A8
330
1F
100
AcDbEntity
  8
TITLE
100
AcDbMText
 10
70.1352779142
 20
49.7486662779
 30
0.0
 40
0.125
 41
0.0
 71
     2
 72
     1
  1
13
  7
SLDTEXTSTYLE1
 73
     1
 44
1.0
  0
MTEXT
  5
1A9
330
1F
100
AcDbEntity
  8
TITLE
100
AcDbMText
 10
72.1037818512
 20
0.4140206086
 30
0.0
 40
0.125
 41
0.0
 71
     2
 72
     1
  1
12
  7
SLDTEXTSTYLE1
 73
     1
 44
1.0
  0
MTEXT
  5
1AA
330
1F
100
AcDbEntity
  8
TITLE
100
AcDbMText
 10
72.1037818512
 20
49.7486662779
 30
0.0
 40
0.125
 41
0.0
 71
     2
 72
     1
  1
12
  7
SLDTEXTSTYLE1
 73
     1
 44
1.0
  0
MTEXT
  5
1AB
330
1F
100
AcDbEntity
  8
TITLE
100
AcDbMText
 10
74.0722857882
 20
0.4140206086
 30
0.0
 40
0.125
 41
0.0
 71
     2
 72
     1
  1
11
  7
SLDTEXTSTYLE1
 73
     1
 44
1.0
  0
MTEXT
  5
1AC
330
1F
100
AcDbEntity
  8
TITLE
100
AcDbMText
 10
74.0722857882
 20
49.7486662779
 30
0.0
 40
0.125
 41
0.0
 71
     2
 72
     1
  1
11
  7
SLDTEXTSTYLE1
 73
     1
 44
1.0
  0
MTEXT
  5
1AD
330
1F
100
AcDbEntity
  8
TITLE
100
AcDbMText
 10
76.0407897252
 20
0.4140206086
 30
0.0
 40
0.125
 41
0.0
 71
     2
 72
     1
  1
10
  7
SLDTEXTSTYLE1
 73
     1
 44
1.0
  0
MTEXT
  5
1AE
330
1F
100
AcDbEntity
  8
TITLE
100
AcDbMText
 10
76.0407897252
 20
49.7486662779
 30
0.0
 40
0.125
 41
0.0
 71
     2
 72
     1
  1
10
  7
SLDTEXTSTYLE1
 73
     1
 44
1.0
  0
MTEXT
  5
1AF
330
1F
100
AcDbEntity
  8
TITLE
100
AcDbMText
 10
78.0105523429
 20
0.4140206086
 30
0.0
 40
0.125
 41
0.0
 71
     2
 72
     1
  1
9
  7
SLDTEXTSTYLE1
 73
     1
 44
1.0
  0
MTEXT
  5
1B0
330
1F
100
AcDbEntity
  8
TITLE
100
AcDbMText
 10
78.0105523429
 20
49.7486662779
 30
0.0
 40
0.125
 41
0.0
 71
     2
 72
     1
  1
9
  7
SLDTEXTSTYLE1
 73
     1
 44
1.0
  0
MTEXT
  5
1B1
330
1F
100
AcDbEntity
  8
TITLE
100
AcDbMText
 10
79.9790562799
 20
0.4140206086
 30
0.0
 40
0.125
 41
0.0
 71
     2
 72
     1
  1
8
  7
SLDTEXTSTYLE1
 73
     1
 44
1.0
  0
MTEXT
  5
1B2
330
1F
100
AcDbEntity
  8
TITLE
100
AcDbMText
 10
79.9790562799
 20
49.7486662779
 30
0.0
 40
0.125
 41
0.0
 71
     2
 72
     1
  1
8
  7
SLDTEXTSTYLE1
 73
     1
 44
1.0
  0
MTEXT
  5
1B3
330
1F
100
AcDbEntity
  8
TITLE
100
AcDbMText
 10
81.947560217
 20
0.4140206086
 30
0.0
 40
0.125
 41
0.0
 71
     2
 72
     1
  1
7
  7
SLDTEXTSTYLE1
 73
     1
 44
1.0
  0
MTEXT
  5
1B4
330
1F
100
AcDbEntity
  8
TITLE
100
AcDbMText
 10
81.947560217
 20
49.7486662779
 30
0.0
 40
0.125
 41
0.0
 71
     2
 72
     1
  1
7
  7
SLDTEXTSTYLE1
 73
     1
 44
1.0
  0
MTEXT
  5
1B5
330
1F
100
AcDbEntity
  8
TITLE
100
AcDbMText
 10
83.916064154
 20
0.4140206086
 30
0.0
 40
0.125
 41
0.0
 71
     2
 72
     1
  1
6
  7
SLDTEXTSTYLE1
 73
     1
 44
1.0
  0
MTEXT
  5
1B6
330
1F
100
AcDbEntity
  8
TITLE
100
AcDbMText
 10
83.916064154
 20
49.7486662779
 30
0.0
 40
0.125
 41
0.0
 71
     2
 72
     1
  1
6
  7
SLDTEXTSTYLE1
 73
     1
 44
1.0
  0
MTEXT
  5
1B7
330
1F
100
AcDbEntity
  8
TITLE
100
AcDbMText
 10
85.884568091
 20
0.4140206086
 30
0.0
 40
0.125
 41
0.0
 71
     2
 72
     1
  1
5
  7
SLDTEXTSTYLE1
 73
     1
 44
1.0
  0
MTEXT
  5
1B8
330
1F
100
AcDbEntity
  8
TITLE
100
AcDbMText
 10
85.884568091
 20
49.7486662779
 30
0.0
 40
0.125
 41
0.0
 71
     2
 72
     1
  1
5
  7
SLDTEXTSTYLE1
 73
     1
 44
1.0
  0
MTEXT
  5
1B9
330
1F
100
AcDbEntity
  8
TITLE
100
AcDbMText
 10
87.853072028
 20
0.4140206086
 30
0.0
 40
0.125
 41
0.0
 71
     2
 72
     1
  1
4
  7
SLDTEXTSTYLE1
 73
     1
 44
1.0
  0
MTEXT
  5
1BA
330
1F
100
AcDbEntity
  8
TITLE
100
AcDbMText
 10
87.853072028
 20
49.7486662779
 30
0.0
 40
0.125
 41
0.0
 71
     2
 72
     1
  1
4
  7
SLDTEXTSTYLE1
 73
     1
 44
1.0
  0
MTEXT
  5
1BB
330
1F
100
AcDbEntity
  8
TITLE
100
AcDbMText
 10
89.821575965
 20
0.4140206086
 30
0.0
 40
0.125
 41
0.0
 71
     2
 72
     1
  1
3
  7
SLDTEXTSTYLE1
 73
     1
 44
1.0
  0
MTEXT
  5
1BC
330
1F
100
AcDbEntity
  8
TITLE
100
AcDbMText
 10
89.821575965
 20
49.7486662779
 30
0.0
 40
0.125
 41
0.0
 71
     2
 72
     1
  1
3
  7
SLDTEXTSTYLE1
 73
     1
 44
1.0
  0
MTEXT
  5
1BD
330
1F
100
AcDbEntity
  8
TITLE
100
AcDbMText
 10
91.790079902
 20
0.4140206086
 30
0.0
 40
0.125
 41
0.0
 71
     2
 72
     1
  1
2
  7
SLDTEXTSTYLE1
 73
     1
 44
1.0
  0
MTEXT
  5
1BE
330
1F
100
AcDbEntity
  8
TITLE
100
AcDbMText
 10
91.790079902
 20
49.7486662779
 30
0.0
 40
0.125
 41
0.0
 71
     2
 72
     1
  1
2
  7
SLDTEXTSTYLE1
 73
     1
 44
1.0
  0
MTEXT
  5
1BF
330
1F
100
AcDbEntity
  8
TITLE
100
AcDbMText
 10
93.6365365949
 20
0.4140206086
 30
0.0
 40
0.125
 41
0.0
 71
     2
 72
     1
  1
1
  7
SLDTEXTSTYLE1
 73
     1
 44
1.0
  0
MTEXT
  5
1C0
330
1F
100
AcDbEntity
  8
TITLE
100
AcDbMText
 10
93.6365365949
 20
49.7486662779
 30
0.0
 40
0.125
 41
0.0
 71
     2
 72
     1
  1
1
  7
SLDTEXTSTYLE1
 73
     1
 44
1.0
  0
LINE
  5
1C1
330
1F
100
AcDbEntity
  8
0
  6
Continuous
 62
     7
370
    25
100
AcDbLine
 10
21.6970946487
 20
45.5228611542
 30
0.0
 11
3.8369946487
 21
45.5228611542
 31
0.0
  0
LINE
  5
1C2
330
1F
100
AcDbEntity
  8
0
  6
Continuous
 62
     7
370
    25
100
AcDbLine
 10
21.7651696487
 20
45.2008288167
 30
0.0
 11
3.7689196487
 21
45.2008288167
 31
0.0
  0
LINE
  5
1C3
330
1F
100
AcDbEntity
  8
0
  6
Continuous
 62
     7
370
    25
100
AcDbLine
 10
3.7252919446
 20
9.2588816491
 30
0.0
 11
3.7422158983
 21
9.259233006
 31
0.0
  0
LINE
  5
1C4
330
1F
100
AcDbEntity
  8
0
  6
Continuous
 62
     7
370
    25
100
AcDbLine
 10
3.7413202393
 20
9.2340554735
 30
0.0
 11
21.7651696487
 21
9.2340554735
 31
0.0
  0
LINE
  5
1C5
330
1F
100
AcDbEntity
  8
0
  6
Continuous
 62
     7
370
    25
100
AcDbLine
 10
21.7357946487
 20
45.0817735735
 30
0.0
 11
21.7357946487
 21
45.0835945975
 31
0.0
  0
LINE
  5
1C6
330
1F
100
AcDbEntity
  8
0
  6
Continuous
 62
     7
370
    25
100
AcDbLine
 10
3.7982946487
 20
9.311196602
 30
0.0
 11
3.8030837632
 21
9.311196602
 31
0.0
  0
LINE
  5
1C7
330
1F
100
AcDbEntity
  8
0
  6
Continuous
 62
     7
370
    25
100
AcDbLine
 10
21.7292377673
 20
9.311196602
 30
0.0
 11
21.7310669553
 21
9.311196602
 31
0.0
  0
LINE
  5
1C8
330
1F
100
AcDbEntity
  8
0
  6
Continuous
 62
     7
370
    25
100
AcDbLine
 10
3.7982946487
 20
45.0835945975
 30
0.0
 11
3.7982946487
 21
45.0817735735
 31
0.0
  0
LINE
  5
1C9
330
1F
100
AcDbEntity
  8
0
  6
Continuous
 62
     7
370
    25
100
AcDbLine
 10
3.7982946487
 20
9.3116988897
 30
0.0
 11
3.7982946487
 21
9.311196602
 31
0.0
  0
LINE
  5
1CA
330
1F
100
AcDbEntity
  8
0
  6
Continuous
 62
     7
370
    25
100
AcDbLine
 10
17.8006196487
 20
45.2049577868
 30
0.0
 11
7.8006196487
 21
45.2049577868
 31
0.0
  0
LINE
  5
1CB
330
1F
100
AcDbEntity
  8
0
  6
Continuous
 62
     7
370
    25
100
AcDbLine
 10
18.2049990471
 20
45.2008288167
 30
0.0
 11
17.8006196487
 21
45.2049577868
 31
0.0
  0
ARC
  5
1CC
330
1F
100
AcDbEntity
  8
0
  6
Continuous
 62
     7
370
    25
100
AcDbCircle
 10
21.7010250301
 20
45.0653586208
 30
0.0
 40
0.0996493415917502
100
AcDbArc
 50
29.0722889764
 51
49.9314707137
  0
LINE
  5
1CD
330
1F
100
AcDbEntity
  8
0
  6
Continuous
 62
     7
370
    25
100
AcDbLine
 10
21.8256196487
 20
41.1829890205
 30
0.0
 11
21.8106696487
 21
43.5047799999
 31
0.0
  0
LINE
  5
1CE
330
1F
100
AcDbEntity
  8
0
  6
Continuous
 62
     7
370
    25
100
AcDbLine
 10
21.8256196487
 20
13.3079579673
 30
0.0
 11
21.8256196487
 21
41.1829890205
 31
0.0
  0
LINE
  5
1CF
330
1F
100
AcDbEntity
  8
0
  6
Continuous
 62
     7
370
    25
100
AcDbLine
 10
21.8106696487
 20
10.9861669879
 30
0.0
 11
21.8256196487
 21
13.3079579673
 31
0.0
  0
LINE
  5
1D0
330
1F
100
AcDbEntity
  8
0
  6
Continuous
 62
     7
370
    25
100
AcDbLine
 10
7.8006196487
 20
45.2049577868
 30
0.0
 11
7.3962402504
 21
45.2008288167
 31
0.0
  0
LINE
  5
1D1
330
1F
100
AcDbEntity
  8
0
  6
Continuous
 62
     7
370
    25
100
AcDbLine
 10
7.8006196487
 20
45.206656517
 30
0.0
 11
7.8006196487
 21
45.2049577868
 31
0.0
  0
LINE
  5
1D2
330
1F
100
AcDbEntity
  8
0
  6
Continuous
 62
     7
370
    25
100
AcDbLine
 10
17.8006196487
 20
45.206656517
 30
0.0
 11
7.8006196487
 21
45.206656517
 31
0.0
  0
LINE
  5
1D3
330
1F
100
AcDbEntity
  8
0
  6
Continuous
 62
     7
370
    25
100
AcDbLine
 10
17.8006196487
 20
45.206656517
 30
0.0
 11
17.8006196487
 21
45.2049577868
 31
0.0
  0
LINE
  5
1D4
330
1F
100
AcDbEntity
  8
0
  6
Continuous
 62
     7
370
    25
100
AcDbLine
 10
7.8006196487
 20
45.206656517
 30
0.0
 11
7.2298715192
 21
45.2008288167
 31
0.0
  0
LINE
  5
1D5
330
1F
100
AcDbEntity
  8
0
  6
Continuous
 62
     7
370
    25
100
AcDbLine
 10
18.3713677783
 20
45.2008288167
 30
0.0
 11
17.8006196487
 21
45.206656517
 31
0.0
  0
ARC
  5
1D6
330
1F
100
AcDbEntity
  8
0
  6
Continuous
 62
     7
370
    25
100
AcDbCircle
 10
21.7010336937
 20
45.0670649026
 30
0.0
 40
0.0996378524432225
100
AcDbArc
 50
28.0394015115
 51
49.4290132907
  0
LINE
  5
1D7
330
1F
100
AcDbEntity
  8
0
  6
Continuous
 62
     7
370
    25
100
AcDbLine
 10
21.8256196487
 20
41.1846877507
 30
0.0
 11
21.8106696487
 21
43.5064787301
 31
0.0
  0
LINE
  5
1D8
330
1F
100
AcDbEntity
  8
0
  6
Continuous
 62
     7
370
    25
100
AcDbLine
 10
21.8256196487
 20
41.1846877507
 30
0.0
 11
21.8256196487
 21
41.1829890205
 31
0.0
  0
LINE
  5
1D9
330
1F
100
AcDbEntity
  8
0
  6
Continuous
 62
     7
370
    25
100
AcDbLine
 10
3.8369946487
 20
45.2131886291
 30
0.0
 11
3.8369946487
 21
45.2008288167
 31
0.0
  0
LINE
  5
1DA
330
1F
100
AcDbEntity
  8
0
  6
Continuous
 62
     7
370
    25
100
AcDbLine
 10
3.8369946487
 20
45.2131886291
 30
0.0
 11
21.6970946487
 21
45.2131886291
 31
0.0
  0
LINE
  5
1DB
330
1F
100
AcDbEntity
  8
0
  6
Continuous
 62
     7
370
    25
100
AcDbLine
 10
21.6970946487
 20
45.2008288167
 30
0.0
 11
21.6970946487
 21
45.2131886291
 31
0.0
  0
ARC
  5
1DC
330
1F
100
AcDbEntity
  8
0
  6
Continuous
 62
     7
370
    25
100
AcDbCircle
 10
3.7202802985
 20
45.1274849099
 30
0.0
 40
0.0654230373868938
100
AcDbArc
 50
244.1573728721
 51
272.7504167921
  0
LWPOLYLINE
  5
1DD
330
1F
100
AcDbEntity
  8
0
  6
Continuous
 62
     7
370
    25
100
AcDbPolyline
 90
        3
 70
   128
 43
0.0
 10
3.7038721259
 20
9.4088173481
 10
3.7116435779
 20
9.3768539355
 10
3.7234196487
 20
9.3578890516
  0
LINE
  5
1DE
330
1F
100
AcDbEntity
  8
0
  6
Continuous
 62
     7
370
    25
100
AcDbLine
 10
3.6917623441
 20
9.727191014
 30
0.0
 11
3.7038721259
 21
9.4088173481
 31
0.0
  0
LINE
  5
1DF
330
1F
100
AcDbEntity
  8
0
  6
Continuous
 62
     7
370
    25
100
AcDbLine
 10
3.6917623441
 20
9.727191014
 30
0.0
 11
3.6917623441
 21
45.0686045218
 31
0.0
  0
LWPOLYLINE
  5
1E0
330
1F
100
AcDbEntity
  8
0
  6
Continuous
 62
     7
370
    25
100
AcDbPolyline
 90
        3
 70
   128
 43
0.0
 10
21.8106696487
 20
9.3576347231
 10
21.8212406945
 20
9.3750129257
 10
21.830217394
 20
9.4088176139
  0
ARC
  5
1E1
330
1F
100
AcDbEntity
  8
0
  6
Continuous
 62
     7
370
    25
100
AcDbCircle
 10
21.8116983019
 20
45.1378167549
 30
0.0
 40
0.0756865080784583
100
AcDbArc
 50
269.2212707222
 51
293.8709396135
  0
LINE
  5
1E2
330
1F
100
AcDbEntity
  8
0
  6
Continuous
 62
     7
370
    25
100
AcDbLine
 10
21.8423269534
 20
45.0686045218
 30
0.0
 11
21.8423269534
 21
9.7271883137
 31
0.0
  0
LINE
  5
1E3
330
1F
100
AcDbEntity
  8
0
  6
Continuous
 62
     7
370
    25
100
AcDbLine
 10
21.830217394
 20
9.4088176139
 30
0.0
 11
21.8423269534
 21
9.7271883137
 31
0.0
  0
LINE
  5
1E4
330
1F
100
AcDbEntity
  8
0
  6
Continuous
 62
     7
370
    25
100
AcDbLine
 10
3.8369946487
 20
45.5224594683
 30
0.0
 11
3.8369946487
 21
45.518454916
 31
0.0
  0
LINE
  5
1E5
330
1F
100
AcDbEntity
  8
0
  6
Continuous
 62
     7
370
    25
100
AcDbLine
 10
3.8369946487
 20
45.5224594683
 30
0.0
 11
21.6970946487
 21
45.5224594683
 31
0.0
  0
LINE
  5
1E6
330
1F
100
AcDbEntity
  8
0
  6
Continuous
 62
     7
370
    25
100
AcDbLine
 10
21.6970946487
 20
45.518454916
 30
0.0
 11
21.6970946487
 21
45.5224594683
 31
0.0
  0
LINE
  5
1E7
330
1F
100
AcDbEntity
  8
0
  6
Continuous
 62
     7
370
    25
100
AcDbLine
 10
21.7523269534
 20
45.518454916
 30
0.0
 11
21.6970946487
 21
45.518454916
 31
0.0
  0
LINE
  5
1E8
330
1F
100
AcDbEntity
  8
0
  6
Continuous
 62
     7
370
    25
100
AcDbLine
 10
21.7523269534
 20
45.2184860311
 30
0.0
 11
21.7523269534
 21
45.518454916
 31
0.0
  0
LINE
  5
1E9
330
1F
100
AcDbEntity
  8
0
  6
Continuous
 62
     7
370
    25
100
AcDbLine
 10
21.6970946487
 20
45.2184860311
 30
0.0
 11
21.7523269534
 21
45.2184860311
 31
0.0
  0
LINE
  5
1EA
330
1F
100
AcDbEntity
  8
0
  6
Continuous
 62
     7
370
    25
100
AcDbLine
 10
21.6970946487
 20
45.2131886291
 30
0.0
 11
21.6970946487
 21
45.2184860311
 31
0.0
  0
LINE
  5
1EB
330
1F
100
AcDbEntity
  8
0
  6
Continuous
 62
     7
370
    25
100
AcDbLine
 10
3.8369946487
 20
45.2184860311
 30
0.0
 11
3.8369946487
 21
45.2131886291
 31
0.0
  0
LINE
  5
1EC
330
1F
100
AcDbEntity
  8
0
  6
Continuous
 62
     7
370
    25
100
AcDbLine
 10
3.7817623441
 20
45.2184860311
 30
0.0
 11
3.8369946487
 21
45.2184860311
 31
0.0
  0
LINE
  5
1ED
330
1F
100
AcDbEntity
  8
0
  6
Continuous
 62
     7
370
    25
100
AcDbLine
 10
3.7817623441
 20
45.518454916
 30
0.0
 11
3.7817623441
 21
45.2184860311
 31
0.0
  0
LINE
  5
1EE
330
1F
100
AcDbEntity
  8
0
  6
Continuous
 62
     7
370
    25
100
AcDbLine
 10
3.8369946487
 20
45.518454916
 30
0.0
 11
3.7817623441
 21
45.518454916
 31
0.0
  0
LINE
  5
1EF
330
1F
100
AcDbEntity
  8
0
  6
Continuous
 62
     7
370
    25
100
AcDbLine
 10
3.6917623441
 20
45.0739019238
 30
0.0
 11
3.7234196487
 21
45.0739019238
 31
0.0
  0
LINE
  5
1F0
330
1F
100
AcDbEntity
  8
0
  6
Continuous
 62
     7
370
    25
100
AcDbLine
 10
3.6917623441
 20
45.0686045218
 30
0.0
 11
3.6917623441
 21
45.0739019238
 31
0.0
  0
LINE
  5
1F1
330
1F
100
AcDbEntity
  8
0
  6
Continuous
 62
     7
370
    25
100
AcDbLine
 10
21.8423269534
 20
45.0739019238
 30
0.0
 11
21.8106696487
 21
45.0739019238
 31
0.0
  0
LINE
  5
1F2
330
1F
100
AcDbEntity
  8
0
  6
Continuous
 62
     7
370
    25
100
AcDbLine
 10
21.8423269534
 20
45.0739019238
 30
0.0
 11
21.8423269534
 21
45.0686045218
 31
0.0
  0
ARC
  5
1F3
330
1F
100
AcDbEntity
  8
0
  6
Continuous
 62
     7
370
    25
100
AcDbCircle
 10
3.7815619493
 20
45.4286553088
 30
0.0
 40
0.0897998308558621
100
AcDbArc
 50
89.87214026
 51
179.8715670402
  0
ARC
  5
1F4
330
1F
100
AcDbEntity
  8
0
  6
Continuous
 62
     7
370
    25
100
AcDbCircle
 10
3.7815619493
 20
45.1286864238
 30
0.0
 40
0.0897998308558919
100
AcDbArc
 50
89.8721402601
 51
179.8715670401
  0
LINE
  5
1F5
330
1F
100
AcDbEntity
  8
0
  6
Continuous
 62
     7
370
    25
100
AcDbLine
 10
3.6917623441
 20
45.4288566019
 30
0.0
 11
3.6917623441
 21
45.128887717
 31
0.0
  0
ARC
  5
1F6
330
1F
100
AcDbEntity
  8
0
  6
Continuous
 62
     7
370
    25
100
AcDbCircle
 10
21.7525273482
 20
45.1286864238
 30
0.0
 40
0.0897998308560615
100
AcDbArc
 50
0.1284329601
 51
90.1278597398
  0
ARC
  5
1F7
330
1F
100
AcDbEntity
  8
0
  6
Continuous
 62
     7
370
    25
100
AcDbCircle
 10
21.7525273482
 20
45.4286553088
 30
0.0
 40
0.089799830855819
100
AcDbArc
 50
0.1284329599
 51
90.12785974
  0
LINE
  5
1F8
330
1F
100
AcDbEntity
  8
0
  6
Continuous
 62
     7
370
    25
100
AcDbLine
 10
21.8423269534
 20
45.128887717
 30
0.0
 11
21.8423269534
 21
45.4288566019
 31
0.0
  0
LINE
  5
1F9
330
1F
100
AcDbEntity
  8
0
  6
Continuous
 62
     7
370
    25
100
AcDbLine
 10
3.6917623441
 20
45.0739019238
 30
0.0
 11
3.6917623441
 21
45.128887717
 31
0.0
  0
LINE
  5
1FA
330
1F
100
AcDbEntity
  8
0
  6
Continuous
 62
     7
370
    25
100
AcDbLine
 10
21.8423269534
 20
45.128887717
 30
0.0
 11
21.8423269534
 21
45.0739019238
 31
0.0
  0
LINE
  5
1FB
330
1F
100
AcDbEntity
  8
0
  6
Continuous
 62
     7
370
    25
100
AcDbLine
 10
3.6917623441
 20
15.4520634217
 30
0.0
 11
3.6917623441
 21
15.452064023
 31
0.0
  0
LINE
  5
1FC
330
1F
100
AcDbEntity
  8
0
  6
Continuous
 62
     7
370
    25
100
AcDbLine
 10
21.8423269534
 20
15.452064023
 30
0.0
 11
21.8423269534
 21
15.4520634217
 31
0.0
  0
LINE
  5
1FD
330
1F
100
AcDbEntity
  8
0
  6
Continuous
 62
     7
370
    25
100
AcDbLine
 10
21.6970946487
 20
45.5224594683
 30
0.0
 11
21.6970946487
 21
45.5228611542
 31
0.0
  0
LINE
  5
1FE
330
1F
100
AcDbEntity
  8
0
  6
Continuous
 62
     7
370
    25
100
AcDbLine
 10
3.8369946487
 20
45.5228611542
 30
0.0
 11
3.8369946487
 21
45.5224594683
 31
0.0
  0
LINE
  5
1FF
330
1F
100
AcDbEntity
  8
0
  6
Continuous
 62
     7
370
    25
100
AcDbLine
 10
21.7651696487
 20
45.1135674566
 30
0.0
 11
3.7689196487
 21
45.1135674566
 31
0.0
  0
LINE
  5
200
330
1F
100
AcDbEntity
  8
0
  6
Continuous
 62
     7
370
    25
100
AcDbLine
 10
3.7689196487
 20
45.1604336178
 30
0.0
 11
3.7689196487
 21
45.1135674566
 31
0.0
  0
LINE
  5
201
330
1F
100
AcDbEntity
  8
0
  6
Continuous
 62
     7
370
    25
100
AcDbLine
 10
3.7689196487
 20
45.1604336178
 30
0.0
 11
21.7651696487
 21
45.1604336178
 31
0.0
  0
LINE
  5
202
330
1F
100
AcDbEntity
  8
0
  6
Continuous
 62
     7
370
    25
100
AcDbLine
 10
21.7651696487
 20
45.1135674566
 30
0.0
 11
21.7651696487
 21
45.1604336178
 31
0.0
  0
LINE
  5
203
330
1F
100
AcDbEntity
  8
0
  6
Continuous
 62
     7
370
    25
100
AcDbLine
 10
21.3319018818
 20
44.6815044753
 30
0.0
 11
21.7651696487
 21
45.1128384917
 31
0.0
  0
LINE
  5
204
330
1F
100
AcDbEntity
  8
0
  6
Continuous
 62
     7
370
    25
100
AcDbLine
 10
21.3319018818
 20
44.6815044753
 30
0.0
 11
4.2021874157
 21
44.6815044753
 31
0.0
  0
LINE
  5
205
330
1F
100
AcDbEntity
  8
0
  6
Continuous
 62
     7
370
    25
100
AcDbLine
 10
3.7689196487
 20
45.1128384917
 30
0.0
 11
4.2021874157
 21
44.6815044753
 31
0.0
  0
LINE
  5
206
330
1F
100
AcDbEntity
  8
0
  6
Continuous
 62
     7
370
    25
100
AcDbLine
 10
3.7689196487
 20
45.1135674566
 30
0.0
 11
3.7689196487
 21
45.1128384917
 31
0.0
  0
LINE
  5
207
330
1F
100
AcDbEntity
  8
0
  6
Continuous
 62
     7
370
    25
100
AcDbLine
 10
21.7651696487
 20
45.1128384917
 30
0.0
 11
21.7651696487
 21
45.1135674566
 31
0.0
  0
LINE
  5
208
330
1F
100
AcDbEntity
  8
0
  6
Continuous
 62
     7
370
    25
100
AcDbLine
 10
3.7664196487
 20
45.1110786146
 30
0.0
 11
3.7664196487
 21
9.2799661535
 31
0.0
  0
ARC
  5
209
330
1F
100
AcDbEntity
  8
0
  6
Continuous
 62
     7
370
    25
100
AcDbCircle
 10
3.7145664733
 20
9.3322089304
 30
0.0
 40
0.0736074693683192
100
AcDbArc
 50
276.9080029169
 51
314.7855591936
  0
LINE
  5
20A
330
1F
100
AcDbEntity
  8
0
  6
Continuous
 62
     7
370
    25
100
AcDbLine
 10
3.7234196487
 20
9.2591358107
 30
0.0
 11
3.7234196487
 21
45.1151366923
 31
0.0
  0
ARC
  5
20B
330
1F
100
AcDbEntity
  8
0
  6
Continuous
 62
     7
370
    25
100
AcDbCircle
 10
3.7557653929
 20
45.2280307828
 30
0.0
 40
0.1174364629627014
100
AcDbArc
 50
254.0122477828
 51
275.2052352277
  0
LINE
  5
20C
330
1F
100
AcDbEntity
  8
0
  6
Continuous
 62
     7
370
    25
100
AcDbLine
 10
4.2004196487
 20
44.6797445982
 30
0.0
 11
3.7671518818
 21
45.1110786146
 31
0.0
  0
LINE
  5
20D
330
1F
100
AcDbEntity
  8
0
  6
Continuous
 62
     7
370
    25
100
AcDbLine
 10
4.2004196487
 20
44.6797445982
 30
0.0
 11
4.2004196487
 21
9.7120291348
 31
0.0
  0
LINE
  5
20E
330
1F
100
AcDbEntity
  8
0
  6
Continuous
 62
     7
370
    25
100
AcDbLine
 10
3.7664196487
 20
9.2799661535
 30
0.0
 11
4.2004196487
 21
9.7120291348
 31
0.0
  0
LINE
  5
20F
330
1F
100
AcDbEntity
  8
0
  6
Continuous
 62
     7
370
    25
100
AcDbLine
 10
3.7671518818
 20
45.1110786146
 30
0.0
 11
3.7664196487
 21
45.1110786146
 31
0.0
  0
LINE
  5
210
330
1F
100
AcDbEntity
  8
0
  6
Continuous
 62
     7
370
    25
100
AcDbLine
 10
21.7676696487
 20
9.2754862378
 30
0.0
 11
21.7676696487
 21
45.1110786146
 31
0.0
  0
ARC
  5
211
330
1F
100
AcDbEntity
  8
0
  6
Continuous
 62
     7
370
    25
100
AcDbCircle
 10
21.7783239046
 20
45.2280307828
 30
0.0
 40
0.1174364629526697
100
AcDbArc
 50
264.7947647714
 51
285.9877522181
  0
LINE
  5
212
330
1F
100
AcDbEntity
  8
0
  6
Continuous
 62
     7
370
    25
100
AcDbLine
 10
21.8106696487
 20
45.1151366923
 30
0.0
 11
21.8106696487
 21
9.2795443156
 31
0.0
  0
ARC
  5
213
330
1F
100
AcDbEntity
  8
0
  6
Continuous
 62
     7
370
    25
100
AcDbCircle
 10
21.7783239046
 20
9.392438406
 30
0.0
 40
0.1174364629582583
100
AcDbArc
 50
264.7947647721
 51
285.9877522178
  0
LINE
  5
214
330
1F
100
AcDbEntity
  8
0
  6
Continuous
 62
     7
370
    25
100
AcDbLine
 10
21.7676696487
 20
45.1127773448
 30
0.0
 11
21.7676696487
 21
45.1110786146
 31
0.0
  0
ARC
  5
215
330
1F
100
AcDbEntity
  8
0
  6
Continuous
 62
     7
370
    25
100
AcDbCircle
 10
21.7738639835
 20
45.1807727915
 30
0.0
 40
0.0682770133472017
100
AcDbArc
 50
264.794764772
 51
285.9877522179
  0
LINE
  5
216
330
1F
100
AcDbEntity
  8
0
  6
Continuous
 62
     7
370
    25
100
AcDbLine
 10
21.7926696487
 20
45.1151366923
 30
0.0
 11
21.8106696487
 21
45.1151366923
 31
0.0
  0
LINE
  5
217
330
1F
100
AcDbEntity
  8
0
  6
Continuous
 62
     7
370
    25
100
AcDbLine
 10
3.7414196487
 20
45.1151366923
 30
0.0
 11
3.7234196487
 21
45.1151366923
 31
0.0
  0
ARC
  5
218
330
1F
100
AcDbEntity
  8
0
  6
Continuous
 62
     7
370
    25
100
AcDbCircle
 10
3.760225314
 20
45.1807727915
 30
0.0
 40
0.0682770133473912
100
AcDbArc
 50
254.0122477821
 51
275.205235228
  0
LINE
  5
219
330
1F
100
AcDbEntity
  8
0
  6
Continuous
 62
     7
370
    25
100
AcDbLine
 10
3.7664196487
 20
45.1127773448
 30
0.0
 11
3.7664196487
 21
45.1110786146
 31
0.0
  0
LINE
  5
21A
330
1F
100
AcDbEntity
  8
0
  6
Continuous
 62
     7
370
    25
100
AcDbLine
 10
21.3336696487
 20
9.7068202541
 30
0.0
 11
21.7669374157
 21
9.2754862378
 31
0.0
  0
LINE
  5
21B
330
1F
100
AcDbEntity
  8
0
  6
Continuous
 62
     7
370
    25
100
AcDbLine
 10
21.3336696487
 20
9.7068202541
 30
0.0
 11
21.3336696487
 21
44.6797445982
 31
0.0
  0
LINE
  5
21C
330
1F
100
AcDbEntity
  8
0
  6
Continuous
 62
     7
370
    25
100
AcDbLine
 10
21.7669374157
 20
45.1110786146
 30
0.0
 11
21.3336696487
 21
44.6797445982
 31
0.0
  0
LINE
  5
21D
330
1F
100
AcDbEntity
  8
0
  6
Continuous
 62
     7
370
    25
100
AcDbLine
 10
21.7676696487
 20
45.1110786146
 30
0.0
 11
21.7669374157
 21
45.1110786146
 31
0.0
  0
LINE
  5
21E
330
1F
100
AcDbEntity
  8
0
  6
Continuous
 62
     7
370
    25
100
AcDbLine
 10
21.7669374157
 20
9.2754862378
 30
0.0
 11
21.7676696487
 21
9.2754862378
 31
0.0
  0
LINE
  5
21F
330
1F
100
AcDbEntity
  8
0
  6
Continuous
 62
     7
370
    25
100
AcDbLine
 10
3.7671518818
 20
45.1127773448
 30
0.0
 11
3.7671518818
 21
45.1110786146
 31
0.0
  0
LINE
  5
220
330
1F
100
AcDbEntity
  8
0
  6
Continuous
 62
     7
370
    25
100
AcDbLine
 10
4.2004196487
 20
44.6814433284
 30
0.0
 11
3.7671518818
 21
45.1127773448
 31
0.0
  0
LINE
  5
221
330
1F
100
AcDbEntity
  8
0
  6
Continuous
 62
     7
370
    25
100
AcDbLine
 10
4.2004196487
 20
44.6814433284
 30
0.0
 11
4.2004196487
 21
44.6797445982
 31
0.0
  0
LINE
  5
222
330
1F
100
AcDbEntity
  8
0
  6
Continuous
 62
     7
370
    25
100
AcDbLine
 10
21.3336696487
 20
44.6814433284
 30
0.0
 11
21.3336696487
 21
44.6797445982
 31
0.0
  0
LINE
  5
223
330
1F
100
AcDbEntity
  8
0
  6
Continuous
 62
     7
370
    25
100
AcDbLine
 10
21.7669374157
 20
45.1127773448
 30
0.0
 11
21.3336696487
 21
44.6814433284
 31
0.0
  0
LINE
  5
224
330
1F
100
AcDbEntity
  8
0
  6
Continuous
 62
     7
370
    25
100
AcDbLine
 10
21.7669374157
 20
45.1127773448
 30
0.0
 11
21.7669374157
 21
45.1110786146
 31
0.0
  0
LINE
  5
225
330
1F
100
AcDbEntity
  8
0
  6
Continuous
 62
     7
370
    25
100
AcDbLine
 10
3.7671518818
 20
45.1127773448
 30
0.0
 11
3.7664196487
 21
45.1127773448
 31
0.0
  0
LINE
  5
226
330
1F
100
AcDbEntity
  8
0
  6
Continuous
 62
     7
370
    25
100
AcDbLine
 10
21.7676696487
 20
45.1127773448
 30
0.0
 11
21.7669374157
 21
45.1127773448
 31
0.0
  0
ARC
  5
227
330
1F
100
AcDbEntity
  8
0
  6
Continuous
 62
     7
370
    25
100
AcDbCircle
 10
3.7291701415
 20
9.2948324597
 30
0.0
 40
0.0377399149063237
100
AcDbArc
 50
288.9399479141
 51
328.8334731152
  0
LINE
  5
228
330
1F
100
AcDbEntity
  8
0
  6
Continuous
 62
     7
370
    25
100
AcDbLine
 10
3.7689196487
 20
45.2006369001
 30
0.0
 11
3.7689196487
 21
45.2004009653
 31
0.0
  0
LINE
  5
229
330
1F
100
AcDbEntity
  8
0
  6
Continuous
 62
     7
370
    25
100
AcDbLine
 10
21.7651696487
 20
45.2006369001
 30
0.0
 11
3.7689196487
 21
45.2006369001
 31
0.0
  0
LINE
  5
22A
330
1F
100
AcDbEntity
  8
0
  6
Continuous
 62
     7
370
    25
100
AcDbLine
 10
21.7651696487
 20
45.2004009653
 30
0.0
 11
21.7651696487
 21
45.2006369001
 31
0.0
  0
LINE
  5
22B
330
1F
100
AcDbEntity
  8
0
  6
Continuous
 62
     7
370
    25
100
AcDbLine
 10
21.7651696487
 20
45.2004009653
 30
0.0
 11
21.7676696487
 21
45.2004009653
 31
0.0
  0
LINE
  5
22C
330
1F
100
AcDbEntity
  8
0
  6
Continuous
 62
     7
370
    25
100
AcDbLine
 10
21.7676696487
 20
45.1606695526
 30
0.0
 11
21.7676696487
 21
45.2004009653
 31
0.0
  0
LINE
  5
22D
330
1F
100
AcDbEntity
  8
0
  6
Continuous
 62
     7
370
    25
100
AcDbLine
 10
21.7651696487
 20
45.1606695526
 30
0.0
 11
21.7676696487
 21
45.1606695526
 31
0.0
  0
LINE
  5
22E
330
1F
100
AcDbEntity
  8
0
  6
Continuous
 62
     7
370
    25
100
AcDbLine
 10
3.7664196487
 20
45.1606695526
 30
0.0
 11
3.7689196487
 21
45.1606695526
 31
0.0
  0
LINE
  5
22F
330
1F
100
AcDbEntity
  8
0
  6
Continuous
 62
     7
370
    25
100
AcDbLine
 10
3.7664196487
 20
45.2004009653
 30
0.0
 11
3.7664196487
 21
45.1606695526
 31
0.0
  0
LINE
  5
230
330
1F
100
AcDbEntity
  8
0
  6
Continuous
 62
     7
370
    25
100
AcDbLine
 10
3.7664196487
 20
45.2004009653
 30
0.0
 11
3.7689196487
 21
45.2004009653
 31
0.0
  0
LINE
  5
231
330
1F
100
AcDbEntity
  8
0
  6
Continuous
 62
     7
370
    25
100
AcDbLine
 10
3.7689196487
 20
45.1606695526
 30
0.0
 11
3.7689196487
 21
45.1604336178
 31
0.0
  0
LINE
  5
232
330
1F
100
AcDbEntity
  8
0
  6
Continuous
 62
     7
370
    25
100
AcDbLine
 10
21.7651696487
 20
45.1604336178
 30
0.0
 11
21.7651696487
 21
45.1606695526
 31
0.0
  0
ARC
  5
233
330
1F
100
AcDbEntity
  8
0
  6
Continuous
 62
     7
370
    25
100
AcDbCircle
 10
21.7677653929
 20
45.1177652958
 30
0.0
 40
0.0429043636311591
100
AcDbArc
 50
0.1284329599
 51
90.1278597399
  0
LINE
  5
234
330
1F
100
AcDbEntity
  8
0
  6
Continuous
 62
     7
370
    25
100
AcDbLine
 10
21.7926696487
 20
45.1178614692
 30
0.0
 11
21.8106696487
 21
45.1178614692
 31
0.0
  0
ARC
  5
235
330
1F
100
AcDbEntity
  8
0
  6
Continuous
 62
     7
370
    25
100
AcDbCircle
 10
21.767725314
 20
45.1178055544
 30
0.0
 40
0.0249443974599461
100
AcDbArc
 50
0.1284329598
 51
90.12785974
  0
LINE
  5
236
330
1F
100
AcDbEntity
  8
0
  6
Continuous
 62
     7
370
    25
100
AcDbLine
 10
21.7676696487
 20
45.1427498897
 30
0.0
 11
21.7676696487
 21
45.1606695526
 31
0.0
  0
ARC
  5
237
330
1F
100
AcDbEntity
  8
0
  6
Continuous
 62
     7
370
    25
100
AcDbCircle
 10
3.7663239046
 20
45.1177652958
 30
0.0
 40
0.0429043636311217
100
AcDbArc
 50
89.87214026
 51
179.8715670401
  0
LINE
  5
238
330
1F
100
AcDbEntity
  8
0
  6
Continuous
 62
     7
370
    25
100
AcDbLine
 10
3.7664196487
 20
45.1427498897
 30
0.0
 11
3.7664196487
 21
45.1606695526
 31
0.0
  0
ARC
  5
239
330
1F
100
AcDbEntity
  8
0
  6
Continuous
 62
     7
370
    25
100
AcDbCircle
 10
3.7663639835
 20
45.1178055544
 30
0.0
 40
0.0249443974600501
100
AcDbArc
 50
89.8721402602
 51
179.87156704
  0
LINE
  5
23A
330
1F
100
AcDbEntity
  8
0
  6
Continuous
 62
     7
370
    25
100
AcDbLine
 10
3.7414196487
 20
45.1178614692
 30
0.0
 11
3.7234196487
 21
45.1178614692
 31
0.0
  0
LINE
  5
23B
330
1F
100
AcDbEntity
  8
0
  6
Continuous
 62
     7
370
    25
100
AcDbLine
 10
21.7651696487
 20
45.1427498897
 30
0.0
 11
21.7676696487
 21
45.1427498897
 31
0.0
  0
LINE
  5
23C
330
1F
100
AcDbEntity
  8
0
  6
Continuous
 62
     7
370
    25
100
AcDbLine
 10
3.7664196487
 20
45.1427498897
 30
0.0
 11
3.7689196487
 21
45.1427498897
 31
0.0
  0
LINE
  5
23D
330
1F
100
AcDbEntity
  8
0
  6
Continuous
 62
     7
370
    25
100
AcDbLine
 10
3.7234196487
 20
45.1178614692
 30
0.0
 11
3.7234196487
 21
45.1575928819
 31
0.0
  0
ARC
  5
23E
330
1F
100
AcDbEntity
  8
0
  6
Continuous
 62
     7
370
    25
100
AcDbCircle
 10
3.7663239046
 20
45.1574967085
 30
0.0
 40
0.04290436363115
100
AcDbArc
 50
89.8721402601
 51
179.8715670401
  0
LINE
  5
23F
330
1F
100
AcDbEntity
  8
0
  6
Continuous
 62
     7
370
    25
100
AcDbLine
 10
21.8106696487
 20
45.1575928819
 30
0.0
 11
21.8106696487
 21
45.1178614692
 31
0.0
  0
ARC
  5
240
330
1F
100
AcDbEntity
  8
0
  6
Continuous
 62
     7
370
    25
100
AcDbCircle
 10
21.7677653929
 20
45.1574967085
 30
0.0
 40
0.0429043636311697
100
AcDbArc
 50
0.1284329599
 51
90.1278597399
  0
LINE
  5
241
330
1F
100
AcDbEntity
  8
0
  6
Continuous
 62
     7
370
    25
100
AcDbLine
 10
3.7414196487
 20
45.1153726271
 30
0.0
 11
3.7234196487
 21
45.1153726271
 31
0.0
  0
LINE
  5
242
330
1F
100
AcDbEntity
  8
0
  6
Continuous
 62
     7
370
    25
100
AcDbLine
 10
3.7414196487
 20
45.1151366923
 30
0.0
 11
3.7414196487
 21
45.1153726271
 31
0.0
  0
LINE
  5
243
330
1F
100
AcDbEntity
  8
0
  6
Continuous
 62
     7
370
    25
100
AcDbLine
 10
3.7234196487
 20
45.1151366923
 30
0.0
 11
3.7234196487
 21
45.1153726271
 31
0.0
  0
LINE
  5
244
330
1F
100
AcDbEntity
  8
0
  6
Continuous
 62
     7
370
    25
100
AcDbLine
 10
21.7926696487
 20
45.1153726271
 30
0.0
 11
21.8106696487
 21
45.1153726271
 31
0.0
  0
LINE
  5
245
330
1F
100
AcDbEntity
  8
0
  6
Continuous
 62
     7
370
    25
100
AcDbLine
 10
21.8106696487
 20
45.1153726271
 30
0.0
 11
21.8106696487
 21
45.1151366923
 31
0.0
  0
LINE
  5
246
330
1F
100
AcDbEntity
  8
0
  6
Continuous
 62
     7
370
    25
100
AcDbLine
 10
21.7926696487
 20
45.1153726271
 30
0.0
 11
21.7926696487
 21
45.1151366923
 31
0.0
  0
LINE
  5
247
330
1F
100
AcDbEntity
  8
0
  6
Continuous
 62
     7
370
    25
100
AcDbLine
 10
21.8106696487
 20
45.1178614692
 30
0.0
 11
21.8106696487
 21
45.1153726271
 31
0.0
  0
LINE
  5
248
330
1F
100
AcDbEntity
  8
0
  6
Continuous
 62
     7
370
    25
100
AcDbLine
 10
21.7926696487
 20
45.1178614692
 30
0.0
 11
21.7926696487
 21
45.1153726271
 31
0.0
  0
LINE
  5
249
330
1F
100
AcDbEntity
  8
0
  6
Continuous
 62
     7
370
    25
100
AcDbLine
 10
3.7414196487
 20
45.1153726271
 30
0.0
 11
3.7414196487
 21
45.1178614692
 31
0.0
  0
LINE
  5
24A
330
1F
100
AcDbEntity
  8
0
  6
Continuous
 62
     7
370
    25
100
AcDbLine
 10
3.7234196487
 20
45.1153726271
 30
0.0
 11
3.7234196487
 21
45.1178614692
 31
0.0
  0
LINE
  5
24B
330
1F
100
AcDbEntity
  8
0
  6
Continuous
 62
     7
370
    25
100
AcDbLine
 10
21.7651696487
 20
45.2006369001
 30
0.0
 11
21.7651696487
 21
45.2008288167
 31
0.0
  0
LINE
  5
24C
330
1F
100
AcDbEntity
  8
0
  6
Continuous
 62
     7
370
    25
100
AcDbLine
 10
3.7689196487
 20
45.2008288167
 30
0.0
 11
3.7689196487
 21
45.2006369001
 31
0.0
  0
LINE
  5
24D
330
1F
100
AcDbEntity
  8
0
  6
Continuous
 62
     7
370
    25
100
AcDbLine
 10
4.2004196487
 20
9.705060377
 30
0.0
 11
3.7664196487
 21
9.2729973957
 31
0.0
  0
LINE
  5
24E
330
1F
100
AcDbEntity
  8
0
  6
Continuous
 62
     7
370
    25
100
AcDbLine
 10
3.7664196487
 20
9.2746961259
 30
0.0
 11
3.7664196487
 21
9.2729973957
 31
0.0
  0
LINE
  5
24F
330
1F
100
AcDbEntity
  8
0
  6
Continuous
 62
     7
370
    25
100
AcDbLine
 10
4.2004196487
 20
9.7067591073
 30
0.0
 11
3.7664196487
 21
9.2746961259
 31
0.0
  0
LINE
  5
250
330
1F
100
AcDbEntity
  8
0
  6
Continuous
 62
     7
370
    25
100
AcDbLine
 10
4.2004196487
 20
9.7067591073
 30
0.0
 11
4.2004196487
 21
9.705060377
 31
0.0
  0
LINE
  5
251
330
1F
100
AcDbEntity
  8
0
  6
Continuous
 62
     7
370
    25
100
AcDbLine
 10
4.2004196487
 20
9.705060377
 30
0.0
 11
21.3319018818
 21
9.705060377
 31
0.0
  0
LINE
  5
252
330
1F
100
AcDbEntity
  8
0
  6
Continuous
 62
     7
370
    25
100
AcDbLine
 10
21.7651696487
 20
9.2737263607
 30
0.0
 11
21.3319018818
 21
9.705060377
 31
0.0
  0
LINE
  5
253
330
1F
100
AcDbEntity
  8
0
  6
Continuous
 62
     7
370
    25
100
AcDbLine
 10
21.7651696487
 20
9.2729973957
 30
0.0
 11
21.7651696487
 21
9.2737263607
 31
0.0
  0
LINE
  5
254
330
1F
100
AcDbEntity
  8
0
  6
Continuous
 62
     7
370
    25
100
AcDbLine
 10
3.7664196487
 20
9.2729973957
 30
0.0
 11
21.7651696487
 21
9.2729973957
 31
0.0
  0
LINE
  5
255
330
1F
100
AcDbEntity
  8
0
  6
Continuous
 62
     7
370
    25
100
AcDbLine
 10
21.3319018818
 20
9.7067591073
 30
0.0
 11
21.3319018818
 21
9.705060377
 31
0.0
  0
LINE
  5
256
330
1F
100
AcDbEntity
  8
0
  6
Continuous
 62
     7
370
    25
100
AcDbLine
 10
21.7651696487
 20
9.2754250909
 30
0.0
 11
21.3319018818
 21
9.7067591073
 31
0.0
  0
LINE
  5
257
330
1F
100
AcDbEntity
  8
0
  6
Continuous
 62
     7
370
    25
100
AcDbLine
 10
21.7651696487
 20
9.2754250909
 30
0.0
 11
21.7651696487
 21
9.2737263607
 31
0.0
  0
LINE
  5
258
330
1F
100
AcDbEntity
  8
0
  6
Continuous
 62
     7
370
    25
100
AcDbLine
 10
4.2004196487
 20
9.7067591073
 30
0.0
 11
21.3319018818
 21
9.7067591073
 31
0.0
  0
ARC
  5
259
330
1F
100
AcDbEntity
  8
0
  6
Continuous
 62
     7
370
    25
100
AcDbCircle
 10
3.4438431791
 20
9.4536716992
 30
0.0
 40
0.3697279847391304
100
AcDbArc
 50
323.5960067893
 51
330.7469171905
  0
LINE
  5
25A
330
1F
100
AcDbEntity
  8
0
  6
Continuous
 62
     7
370
    25
100
AcDbLine
 10
3.7414196487
 20
9.2521670529
 30
0.0
 11
3.7414196487
 21
9.2342473901
 31
0.0
  0
ARC
  5
25B
330
1F
100
AcDbEntity
  8
0
  6
Continuous
 62
     7
370
    25
100
AcDbCircle
 10
3.5758100696
 20
9.461075739
 30
0.0
 40
0.2665883940185279
100
AcDbArc
 50
308.4051531996
 51
315.6428540724
  0
LINE
  5
25C
330
1F
100
AcDbEntity
  8
0
  6
Continuous
 62
     7
370
    25
100
AcDbLine
 10
21.7651696487
 20
9.2340554735
 30
0.0
 11
21.7651696487
 21
9.2729973957
 31
0.0
  0
LINE
  5
25D
330
1F
100
AcDbEntity
  8
0
  6
Continuous
 62
     7
370
    25
100
AcDbLine
 10
21.7676696487
 20
9.2524029877
 30
0.0
 11
21.7651696487
 21
9.2524029877
 31
0.0
  0
LINE
  5
25E
330
1F
100
AcDbEntity
  8
0
  6
Continuous
 62
     7
370
    25
100
AcDbLine
 10
3.7414196487
 20
9.2591358107
 30
0.0
 11
3.7414196487
 21
9.2521670529
 31
0.0
  0
LINE
  5
25F
330
1F
100
AcDbEntity
  8
0
  6
Continuous
 62
     7
370
    25
100
AcDbLine
 10
21.8106696487
 20
9.2795443156
 30
0.0
 11
21.8106696487
 21
9.2772914082
 31
0.0
  0
ARC
  5
260
330
1F
100
AcDbEntity
  8
0
  6
Continuous
 62
     7
370
    25
100
AcDbCircle
 10
21.7677653929
 20
9.2773875816
 30
0.0
 40
0.0429043636311536
100
AcDbArc
 50
269.8721402601
 51
359.8715670401
  0
LINE
  5
261
330
1F
100
AcDbEntity
  8
0
  6
Continuous
 62
     7
370
    25
100
AcDbLine
 10
21.7676696487
 20
9.2524029877
 30
0.0
 11
21.7676696487
 21
9.2344833248
 31
0.0
  0
ARC
  5
262
330
1F
100
AcDbEntity
  8
0
  6
Continuous
 62
     7
370
    25
100
AcDbCircle
 10
21.7677237208
 20
9.2773513
 30
0.0
 40
0.0249483709587191
100
AcDbArc
 50
269.8758193444
 51
357.4494466596
  0
LINE
  5
263
330
1F
100
AcDbEntity
  8
0
  6
Continuous
 62
     7
370
    25
100
AcDbLine
 10
21.7676696487
 20
9.2344833248
 30
0.0
 11
21.7651696487
 21
9.2344833248
 31
0.0
  0
LINE
  5
264
330
1F
100
AcDbEntity
  8
0
  6
Continuous
 62
     8
370
    25
100
AcDbLine
 10
3.6917623441
 20
45.0686045218
 30
0.0
 11
3.7234196487
 21
45.0686045218
 31
0.0
  0
LINE
  5
265
330
1F
100
AcDbEntity
  8
0
  6
Continuous
 62
     8
370
    25
100
AcDbLine
 10
21.8106696487
 20
45.0686045218
 30
0.0
 11
21.8423269534
 21
45.0686045218
 31
0.0
  0
LINE
  5
266
330
1F
100
AcDbEntity
  8
0
  6
Continuous
 62
     8
370
    25
100
AcDbLine
 10
3.7817623441
 20
45.2184860311
 30
0.0
 11
3.7817623441
 21
45.2008288167
 31
0.0
  0
LINE
  5
267
330
1F
100
AcDbEntity
  8
0
  6
Continuous
 62
     8
370
    25
100
AcDbLine
 10
3.6917623441
 20
45.128887717
 30
0.0
 11
3.7234196487
 21
45.128887717
 31
0.0
  0
LINE
  5
268
330
1F
100
AcDbEntity
  8
0
  6
Continuous
 62
     8
370
    25
100
AcDbLine
 10
21.8106696487
 20
45.128887717
 30
0.0
 11
21.8423269534
 21
45.128887717
 31
0.0
  0
LINE
  5
269
330
1F
100
AcDbEntity
  8
0
  6
Continuous
 62
     8
370
    25
100
AcDbLine
 10
21.7523269534
 20
45.2008288167
 30
0.0
 11
21.7523269534
 21
45.2184860311
 31
0.0
  0
LINE
  5
26A
330
1F
100
AcDbEntity
  8
0
  6
Continuous
 62
     8
370
    25
100
AcDbLine
 10
3.7664196487
 20
45.1127773448
 30
0.0
 11
3.7664196487
 21
45.1427498897
 31
0.0
  0
LINE
  5
26B
330
1F
100
AcDbEntity
  8
0
  6
Continuous
 62
     8
370
    25
100
AcDbLine
 10
21.7676696487
 20
45.1427498897
 30
0.0
 11
21.7676696487
 21
45.1411411874
 31
0.0
  0
LINE
  5
26C
330
1F
100
AcDbEntity
  8
0
  6
Continuous
 62
     8
370
    25
100
AcDbLine
 10
21.7676696487
 20
9.2754862378
 30
0.0
 11
21.7676696487
 21
9.2524029877
 31
0.0
  0
LINE
  5
26D
330
1F
100
AcDbEntity
  8
0
  6
Continuous
 62
     8
370
    25
100
AcDbLine
 10
3.7788794407
 20
9.2923703352
 30
0.0
 11
3.7841730948
 21
9.2923703352
 31
0.0
  0
LINE
  5
26E
330
1F
100
AcDbEntity
  8
0
  6
Continuous
 62
     8
370
    25
100
AcDbLine
 10
21.7481484358
 20
9.2923703352
 30
0.0
 11
21.7499776237
 21
9.2923703352
 31
0.0
  0
LINE
  5
26F
330
1F
100
AcDbEntity
  8
0
  6
Continuous
 62
     8
370
    25
100
AcDbLine
 10
21.8034344468
 20
9.2772914082
 30
0.0
 11
21.8106696487
 21
9.2772914082
 31
0.0
  0
LINE
  5
270
330
1F
100
AcDbEntity
  8
DIMS
100
AcDbLine
 10
2.3535531742
 20
5.7119389851
 30
0.0
 11
2.3535531742
 21
5.4911741983
 31
0.0
  0
LINE
  5
271
330
1F
100
AcDbEntity
  8
DIMS
100
AcDbLine
 10
2.3535531742
 20
5.4911741983
 30
0.0
 11
1.8999372629
 21
5.3223868825
 31
0.0
  0
LINE
  5
272
330
1F
100
AcDbEntity
  8
DIMS
100
AcDbLine
 10
1.8999372629
 20
5.3223868825
 30
0.0
 11
2.7327766228
 21
5.1088383287
 31
0.0
  0
LINE
  5
273
330
1F
100
AcDbEntity
  8
DIMS
100
AcDbLine
 10
2.7327766228
 20
5.1088383287
 30
0.0
 11
2.3535531742
 21
4.9677319292
 31
0.0
  0
LINE
  5
274
330
1F
100
AcDbEntity
  8
DIMS
100
AcDbLine
 10
2.3535531742
 20
4.9677319292
 30
0.0
 11
2.3535531742
 21
4.5984397929
 31
0.0
  0
LINE
  5
275
330
1F
100
AcDbEntity
  8
DIMS
100
AcDbLine
 10
2.4230628151
 20
3.2340554735
 30
0.0
 11
58.2110297791
 21
3.2340554735
 31
0.0
  0
DIMENSION
  5
276
330
1F
100
AcDbEntity
  8
DIMS
100
AcDbDimension
  2
_D
 10
2.3530536826
 20
3.2340554735
 30
0.0
 11
2.3530536826
 21
5.760750638
 31
0.0
 70
   160
  1
48"\P 
 71
     2
 42
-1.0
  3
SLDDIMSTYLE0
100
AcDbAlignedDimension
 13
3.7415248519
 23
9.2340554735
 33
0.0
 14
2.4230628151
 24
3.2340554735
 34
0.0
 50
90.0
100
AcDbRotatedDimension
  0
DIMENSION
  5
289
330
1F
100
AcDbEntity
  8
DIMS
100
AcDbDimension
  2
_D_1
 10
3.7234196487
 20
46.6349757322
 30
0.0
 11
12.8597876689
 21
46.6349757322
 31
0.0
 70
   160
  1
<>
 71
     2
 42
-1.0
  3
SLDDIMSTYLE1
100
AcDbAlignedDimension
 13
21.8106696487
 23
45.1151366923
 33
0.0
 14
3.7234196487
 24
45.1151366923
 34
0.0
100
AcDbRotatedDimension
  0
DIMENSION
  5
299
330
1F
100
AcDbEntity
  8
DIMS
100
AcDbDimension
  2
_D_2
 10
2.3530536826
 20
9.2342473901
 30
0.0
 11
2.3530536826
 21
27.4397423329
 31
0.0
 70
   160
  1
<>
 71
     2
 42
-1.0
  3
SLDDIMSTYLE1
100
AcDbAlignedDimension
 13
3.8369946487
 23
45.5224594683
 33
0.0
 14
3.7414196487
 24
9.2342473901
 34
0.0
 50
90.0
100
AcDbRotatedDimension
  0
INSERT
  5
2AD
330
1F
100
AcDbEntity
  8
NOTES
100
AcDbBlockReference
  2
SW_NOTE_0_2
 10
3.8284127165
 20
5.4656911903
 30
0.0
  0
MTEXT
  5
2AE
330
1F
100
AcDbEntity
  8
NOTES
100
AcDbMText
 10
3.7651588775
 20
3.8672774048
 30
0.0
 40
0.5
 41
0.0
 71
     1
 72
     1
  1
Floor
  7
SLDTEXTSTYLE1
 73
     1
 44
1.0
  0
MTEXT
  5
2AF
330
1F
100
AcDbEntity
  8
NOTES
100
AcDbMText
 10
3.8284127165
 20
8.8928338202
 30
0.0
 40
0.5
 41
0.0
 71
     1
 72
     1
  1
Front view
  7
SLDTEXTSTYLE1
 73
     1
 44
1.0
  0
LINE
  5
2B0
330
1F
100
AcDbEntity
  8
0
  6
Continuous
 62
     7
370
    25
100
AcDbLine
 10
29.2774934336
 20
41.1846877507
 30
0.0
 11
29.2595737708
 21
41.1829890205
 31
0.0
  0
LINE
  5
2B1
330
1F
100
AcDbEntity
  8
0
  6
Continuous
 62
     7
370
    25
100
AcDbLine
 10
29.2774934336
 20
41.1846877507
 30
0.0
 11
28.9394056263
 21
44.7511277759
 31
0.0
  0
LINE
  5
2B2
330
1F
100
AcDbEntity
  8
0
  6
Continuous
 62
     7
370
    25
100
AcDbLine
 10
29.2595737708
 20
41.1829890205
 30
0.0
 11
29.0310303286
 21
43.593861173
 31
0.0
  0
LINE
  5
2B3
330
1F
100
AcDbEntity
  8
0
  6
Continuous
 62
     7
370
    25
100
AcDbLine
 10
31.9199626919
 20
13.3096566975
 30
0.0
 11
31.902043029
 21
13.3079579673
 31
0.0
  0
LINE
  5
2B4
330
1F
100
AcDbEntity
  8
0
  6
Continuous
 62
     7
370
    25
100
AcDbLine
 10
31.9199626919
 20
13.3096566975
 30
0.0
 11
29.2774934336
 21
41.1846877507
 31
0.0
  0
LINE
  5
2B5
330
1F
100
AcDbEntity
  8
0
  6
Continuous
 62
     7
370
    25
100
AcDbLine
 10
31.902043029
 20
13.3079579673
 30
0.0
 11
29.2595737708
 21
41.1829890205
 31
0.0
  0
LINE
  5
2B6
330
1F
100
AcDbEntity
  8
0
  6
Continuous
 62
     7
370
    25
100
AcDbLine
 10
32.258050498
 20
9.7432166848
 30
0.0
 11
31.9199626919
 21
13.3096566975
 31
0.0
  0
LINE
  5
2B7
330
1F
100
AcDbEntity
  8
0
  6
Continuous
 62
     7
370
    25
100
AcDbLine
 10
32.1305864701
 20
10.8970858273
 30
0.0
 11
31.902043029
 21
13.3079579673
 31
0.0
  0
LINE
  5
2B8
330
1F
100
AcDbEntity
  8
0
  6
Continuous
 62
     7
370
    25
100
AcDbLine
 10
28.8990938261
 20
45.1667493477
 30
0.0
 11
28.8820781625
 21
45.1651363138
 31
0.0
  0
LINE
  5
2B9
330
1F
100
AcDbEntity
  8
0
  6
Continuous
 62
     7
370
    25
100
AcDbLine
 10
28.8829442015
 20
45.1560005919
 30
0.0
 11
28.8820781625
 21
45.1651363138
 31
0.0
  0
LINE
  5
2BA
330
1F
100
AcDbEntity
  8
0
  6
Continuous
 62
     7
370
    25
100
AcDbLine
 10
28.8962228692
 20
45.206656517
 30
0.0
 11
28.8783032064
 21
45.2049577868
 31
0.0
  0
LINE
  5
2BB
330
1F
100
AcDbEntity
  8
0
  6
Continuous
 62
     7
370
    25
100
AcDbLine
 10
28.8973261915
 20
45.1950177282
 30
0.0
 11
28.8962228692
 21
45.206656517
 31
0.0
  0
LINE
  5
2BC
330
1F
100
AcDbEntity
  8
0
  6
Continuous
 62
     7
370
    25
100
AcDbLine
 10
28.8820781625
 20
45.1651363138
 30
0.0
 11
28.8804432931
 21
45.1823823178
 31
0.0
  0
LINE
  5
2BD
330
1F
100
AcDbEntity
  8
0
  6
Continuous
 62
     7
370
    25
100
AcDbLine
 10
28.8787043212
 20
45.2007264843
 30
0.0
 11
28.8783032064
 21
45.2049577868
 31
0.0
  0
LINE
  5
2BE
330
1F
100
AcDbEntity
  8
0
  6
Continuous
 62
     7
370
    25
100
AcDbLine
 10
32.300043769
 20
45.3797519491
 30
0.0
 11
32.300043769
 21
15.5020638185
 31
0.0
  0
ARC
  5
2BF
330
1F
100
AcDbEntity
  8
0
  6
Continuous
 62
     7
370
    25
100
AcDbCircle
 10
32.2967767285
 20
45.8958000134
 30
0.0
 40
0.516058405874504
100
AcDbArc
 50
270.3627280908
 51
280.4122610798
  0
LINE
  5
2C0
330
1F
100
AcDbEntity
  8
0
  6
Continuous
 62
     7
370
    25
100
AcDbLine
 10
32.390043769
 20
45.3882396353
 30
0.0
 11
32.390043769
 21
15.5020640877
 31
0.0
  0
LWPOLYLINE
  5
2C1
330
1F
100
AcDbEntity
  8
0
  6
Continuous
 62
     7
370
    25
100
AcDbPolyline
 90
        5
 70
   128
 43
0.0
 10
32.300043769
 20
15.5020638185
 10
32.3344852779
 20
15.5020638858
 10
32.3636833793
 20
15.5020639531
 10
32.3831929269
 20
15.5020640204
 10
32.390043769
 20
15.5020640877
  0
LINE
  5
2C2
330
1F
100
AcDbEntity
  8
0
  6
Continuous
 62
     7
370
    25
100
AcDbLine
 10
32.2380044596
 20
45.3738708088
 30
0.0
 11
32.2327919714
 21
45.4288566019
 31
0.0
  0
LINE
  5
2C3
330
1F
100
AcDbEntity
  8
0
  6
Continuous
 62
     7
370
    25
100
AcDbLine
 10
32.300043769
 20
45.3797519491
 30
0.0
 11
32.2380044596
 21
45.3738708088
 31
0.0
  0
LINE
  5
2C4
330
1F
100
AcDbEntity
  8
0
  6
Continuous
 62
     7
370
    25
100
AcDbLine
 10
32.300043769
 20
15.5020638185
 30
0.0
 11
32.1680548769
 21
15.5020634217
 31
0.0
  0
LINE
  5
2C5
330
1F
100
AcDbEntity
  8
0
  6
Continuous
 62
     7
370
    25
100
AcDbLine
 10
32.1680550272
 20
15.4520634217
 30
0.0
 11
32.1680548769
 21
15.5020634217
 31
0.0
  0
LINE
  5
2C6
330
1F
100
AcDbEntity
  8
0
  6
Continuous
 62
     7
370
    25
100
AcDbLine
 10
32.3680550272
 20
15.452064023
 30
0.0
 11
32.1680550272
 21
15.4520634217
 31
0.0
  0
LINE
  5
2C7
330
1F
100
AcDbEntity
  8
0
  6
Continuous
 62
     7
370
    25
100
AcDbLine
 10
32.3680550272
 20
15.452064023
 30
0.0
 11
32.3680541235
 21
9.7271883137
 31
0.0
  0
LINE
  5
2C8
330
1F
100
AcDbEntity
  8
0
  6
Continuous
 62
     7
370
    25
100
AcDbLine
 10
29.017793968
 20
45.0686045218
 30
0.0
 11
32.3680541235
 21
9.7271883137
 31
0.0
  0
LINE
  5
2C9
330
1F
100
AcDbEntity
  8
0
  6
Continuous
 62
     7
370
    25
100
AcDbLine
 10
29.0736755056
 20
45.0739019238
 30
0.0
 11
29.017793968
 21
45.0686045218
 31
0.0
  0
LINE
  5
2CA
330
1F
100
AcDbEntity
  8
0
  6
Continuous
 62
     7
370
    25
100
AcDbLine
 10
29.0684630175
 20
45.128887717
 30
0.0
 11
29.0736755056
 21
45.0739019238
 31
0.0
  0
LINE
  5
2CB
330
1F
100
AcDbEntity
  8
0
  6
Continuous
 62
     7
370
    25
100
AcDbLine
 10
29.0684630175
 20
45.128887717
 30
0.0
 11
32.2327919714
 21
45.4288566019
 31
0.0
  0
ARC
  5
2CC
330
1F
100
AcDbEntity
  8
0
  6
Continuous
 62
     7
370
    25
100
AcDbCircle
 10
32.2977008479
 20
45.4892914898
 30
0.0
 40
0.1095645939793104
100
AcDbArc
 50
271.2253020479
 51
292.7347422306
  0
LINE
  5
2CD
330
1F
100
AcDbEntity
  8
0
  6
Continuous
 62
     7
370
    25
100
AcDbLine
 10
32.340043769
 20
45.3882396353
 30
0.0
 11
32.390043769
 21
45.3882396353
 31
0.0
  0
LWPOLYLINE
  5
2CE
330
1F
100
AcDbEntity
  8
0
  6
Continuous
 62
     7
370
    25
100
AcDbPolyline
 90
        5
 70
   128
 43
0.0
 10
32.3159998102
 20
9.322648357
 10
32.3213910301
 20
9.33702284
 10
32.332113171
 20
9.3523088852
 10
32.3432928484
 20
9.3750129257
 10
32.3529428844
 20
9.4088176139
  0
LINE
  5
2CF
330
1F
100
AcDbEntity
  8
0
  6
Continuous
 62
     7
370
    25
100
AcDbLine
 10
32.3158900999
 20
9.3238056756
 30
0.0
 11
32.3159998102
 21
9.322648357
 31
0.0
  0
LINE
  5
2D0
330
1F
100
AcDbEntity
  8
0
  6
Continuous
 62
     7
370
    25
100
AcDbLine
 10
29.017793968
 20
45.0686045218
 30
0.0
 11
28.9281956539
 21
45.0601108706
 31
0.0
  0
LINE
  5
2D1
330
1F
100
AcDbEntity
  8
0
  6
Continuous
 62
     7
370
    25
100
AcDbLine
 10
32.3529428844
 20
9.4088176139
 30
0.0
 11
32.3680541235
 21
9.7271883137
 31
0.0
  0
LINE
  5
2D2
330
1F
100
AcDbEntity
  8
0
  6
Continuous
 62
     7
370
    25
100
AcDbLine
 10
32.377880905
 20
9.4111816634
 30
0.0
 11
32.3680541235
 21
9.7271883137
 31
0.0
  0
LINE
  5
2D3
330
1F
100
AcDbEntity
  8
0
  6
Continuous
 62
     7
370
    25
100
AcDbLine
 10
32.377880905
 20
9.4111816634
 30
0.0
 11
32.3529428844
 21
9.4088176139
 31
0.0
  0
LINE
  5
2D4
330
1F
100
AcDbEntity
  8
0
  6
Continuous
 62
     7
370
    25
100
AcDbLine
 10
29.0599693663
 20
45.2184860311
 30
0.0
 11
32.2242983203
 21
45.518454916
 31
0.0
  0
LINE
  5
2D5
330
1F
100
AcDbEntity
  8
0
  6
Continuous
 62
     7
370
    25
100
AcDbLine
 10
32.2327919714
 20
45.4288566019
 30
0.0
 11
32.2242983203
 21
45.518454916
 31
0.0
  0
LINE
  5
2D6
330
1F
100
AcDbEntity
  8
0
  6
Continuous
 62
     7
370
    25
100
AcDbLine
 10
29.0599693663
 20
45.2184860311
 30
0.0
 11
29.0684630175
 21
45.128887717
 31
0.0
  0
ARC
  5
2D7
330
1F
100
AcDbEntity
  8
0
  6
Continuous
 62
     7
370
    25
100
AcDbCircle
 10
32.8176940024
 20
9.3048838457
 30
0.0
 40
0.4524762831051577
100
AcDbArc
 50
166.4128207203
 51
177.1518429286
  0
LINE
  5
2D8
330
1F
100
AcDbEntity
  8
0
  6
Continuous
 62
     7
370
    25
100
AcDbLine
 10
32.3657766514
 20
9.3273670521
 30
0.0
 11
32.3159998102
 21
9.322648357
 31
0.0
  0
LINE
  5
2D9
330
1F
100
AcDbEntity
  8
0
  6
Continuous
 62
     7
370
    25
100
AcDbLine
 10
32.390043769
 20
45.3888209088
 30
0.0
 11
32.340043769
 21
45.3888209088
 31
0.0
  0
LINE
  5
2DA
330
1F
100
AcDbEntity
  8
0
  6
Continuous
 62
     7
370
    25
100
AcDbLine
 10
32.390043769
 20
45.3888209088
 30
0.0
 11
32.390043769
 21
45.3882396353
 31
0.0
  0
LINE
  5
2DB
330
1F
100
AcDbEntity
  8
0
  6
Continuous
 62
     7
370
    25
100
AcDbLine
 10
32.340043769
 20
45.3888209088
 30
0.0
 11
32.340043769
 21
45.3882396353
 31
0.0
  0
LINE
  5
2DC
330
1F
100
AcDbEntity
  8
0
  6
Continuous
 62
     7
370
    25
100
AcDbLine
 10
32.3167849858
 20
9.3143656513
 30
0.0
 11
32.366561827
 21
9.3190843464
 31
0.0
  0
LINE
  5
2DD
330
1F
100
AcDbEntity
  8
0
  6
Continuous
 62
     7
370
    25
100
AcDbLine
 10
32.3657766514
 20
9.3273670521
 30
0.0
 11
32.366561827
 21
9.3190843464
 31
0.0
  0
LINE
  5
2DE
330
1F
100
AcDbEntity
  8
0
  6
Continuous
 62
     7
370
    25
100
AcDbLine
 10
32.3161260346
 20
9.3213168336
 30
0.0
 11
32.3167849858
 21
9.3143656513
 31
0.0
  0
LINE
  5
2DF
330
1F
100
AcDbEntity
  8
0
  6
Continuous
 62
     7
370
    25
100
AcDbLine
 10
28.9759330409
 20
45.0863434766
 30
0.0
 11
28.972760007
 21
45.1198153589
 31
0.0
  0
LINE
  5
2E0
330
1F
100
AcDbEntity
  8
0
  6
Continuous
 62
     7
370
    25
100
AcDbLine
 10
28.9261561997
 20
45.0816247815
 30
0.0
 11
28.9759330409
 21
45.0863434766
 31
0.0
  0
LINE
  5
2E1
330
1F
100
AcDbEntity
  8
0
  6
Continuous
 62
     7
370
    25
100
AcDbLine
 10
28.9229831658
 20
45.1150966638
 30
0.0
 11
28.972760007
 21
45.1198153589
 31
0.0
  0
LINE
  5
2E2
330
1F
100
AcDbEntity
  8
0
  6
Continuous
 62
     7
370
    25
100
AcDbLine
 10
28.9759330409
 20
45.0863434766
 30
0.0
 11
28.9779724951
 21
45.0648295657
 31
0.0
  0
LINE
  5
2E3
330
1F
100
AcDbEntity
  8
0
  6
Continuous
 62
     7
370
    25
100
AcDbLine
 10
32.3148243784
 20
45.4119777682
 30
0.0
 11
32.3648217748
 21
45.4114675171
 31
0.0
  0
LINE
  5
2E4
330
1F
100
AcDbEntity
  8
0
  6
Continuous
 62
     7
370
    25
100
AcDbLine
 10
32.3650307354
 20
45.4319427022
 30
0.0
 11
32.315033339
 21
45.4324529533
 31
0.0
  0
LINE
  5
2E5
330
1F
100
AcDbEntity
  8
0
  6
Continuous
 62
     7
370
    25
100
AcDbLine
 10
32.3650307354
 20
45.4319427022
 30
0.0
 11
32.3648217748
 21
45.4114675171
 31
0.0
  0
LINE
  5
2E6
330
1F
100
AcDbEntity
  8
0
  6
Continuous
 62
     7
370
    25
100
AcDbLine
 10
32.315033339
 20
45.4324529533
 30
0.0
 11
32.3148243784
 21
45.4119777682
 31
0.0
  0
LINE
  5
2E7
330
1F
100
AcDbEntity
  8
0
  6
Continuous
 62
     7
370
    25
100
AcDbLine
 10
32.3645906536
 20
45.3888209088
 30
0.0
 11
32.3648217748
 21
45.4114675171
 31
0.0
  0
LINE
  5
2E8
330
1F
100
AcDbEntity
  8
0
  6
Continuous
 62
     7
370
    25
100
AcDbLine
 10
32.31451597
 20
45.381758103
 30
0.0
 11
32.3148243784
 21
45.4119777682
 31
0.0
  0
LINE
  5
2E9
330
1F
100
AcDbEntity
  8
0
  6
Continuous
 62
     7
370
    25
100
AcDbLine
 10
32.2665417708
 20
45.5224594683
 30
0.0
 11
32.2712604659
 21
45.4726826272
 31
0.0
  0
LINE
  5
2EA
330
1F
100
AcDbEntity
  8
0
  6
Continuous
 62
     7
370
    25
100
AcDbLine
 10
32.2290170154
 20
45.4686780749
 30
0.0
 11
32.2712604659
 21
45.4726826272
 31
0.0
  0
LINE
  5
2EB
330
1F
100
AcDbEntity
  8
0
  6
Continuous
 62
     7
370
    25
100
AcDbLine
 10
32.2242983203
 20
45.518454916
 30
0.0
 11
32.2665417708
 21
45.5224594683
 31
0.0
  0
ARC
  5
2EC
330
1F
100
AcDbEntity
  8
0
  6
Continuous
 62
     7
370
    25
100
AcDbCircle
 10
32.2750354219
 20
45.4328611542
 30
0.0
 40
0.0900000000000069
100
AcDbArc
 50
359.4152851432
 51
95.4152851431
  0
ARC
  5
2ED
330
1F
100
AcDbEntity
  8
0
  6
Continuous
 62
     7
370
    25
100
AcDbCircle
 10
32.2750354219
 20
45.4328611542
 30
0.0
 40
0.0399999999999932
100
AcDbArc
 50
359.4152851431
 51
95.4152851431
  0
ARC
  5
2EE
330
1F
100
AcDbEntity
  8
0
  6
Continuous
 62
     7
370
    25
100
AcDbCircle
 10
29.0125814799
 20
45.123590315
 30
0.0
 40
0.0900000000000671
100
AcDbArc
 50
95.4152851432
 51
185.4152851431
  0
LINE
  5
2EF
330
1F
100
AcDbEntity
  8
0
  6
Continuous
 62
     7
370
    25
100
AcDbLine
 10
29.0040878287
 20
45.2131886291
 30
0.0
 11
29.0088065238
 21
45.1634117879
 31
0.0
  0
ARC
  5
2F0
330
1F
100
AcDbEntity
  8
0
  6
Continuous
 62
     7
370
    25
100
AcDbCircle
 10
29.0125814799
 20
45.123590315
 30
0.0
 40
0.040000000000094
100
AcDbArc
 50
95.4152851433
 51
185.415285143
  0
LINE
  5
2F1
330
1F
100
AcDbEntity
  8
0
  6
Continuous
 62
     7
370
    25
100
AcDbLine
 10
29.0088065238
 20
45.1634117879
 30
0.0
 11
29.0646880614
 21
45.1687091899
 31
0.0
  0
LINE
  5
2F2
330
1F
100
AcDbEntity
  8
0
  6
Continuous
 62
     7
370
    25
100
AcDbLine
 10
29.0040878287
 20
45.2131886291
 30
0.0
 11
29.0599693663
 21
45.2184860311
 31
0.0
  0
LINE
  5
2F3
330
1F
100
AcDbEntity
  8
0
  6
Continuous
 62
     7
370
    25
100
AcDbLine
 10
32.390043769
 20
45.3946567319
 30
0.0
 11
32.3646502114
 21
45.3946567319
 31
0.0
  0
LINE
  5
2F4
330
1F
100
AcDbEntity
  8
0
  6
Continuous
 62
     7
370
    25
100
AcDbLine
 10
32.390043769
 20
45.3888209088
 30
0.0
 11
32.390043769
 21
45.3946567319
 31
0.0
  0
LINE
  5
2F5
330
1F
100
AcDbEntity
  8
0
  6
Continuous
 62
     7
370
    25
100
AcDbLine
 10
32.3680541235
 20
9.7271883137
 30
0.0
 11
32.3778807568
 21
9.4111814178
 31
0.0
  0
LINE
  5
2F6
330
1F
100
AcDbEntity
  8
0
  6
Continuous
 62
     7
370
    25
100
AcDbLine
 10
32.340043769
 20
15.5020640479
 30
0.0
 11
32.3372255756
 21
15.502064023
 31
0.0
  0
LWPOLYLINE
  5
2F7
330
1F
100
AcDbEntity
  8
0
  6
Continuous
 62
     7
370
    25
100
AcDbPolyline
 90
        5
 70
   128
 43
0.0
 10
32.3372255756
 20
15.502064023
 10
32.3312492045
 20
15.5020639719
 10
32.3225167169
 20
15.5020639208
 10
32.3117993806
 20
15.5020638696
 10
32.300043769
 20
15.5020638185
  0
ARC
  5
2F8
330
1F
100
AcDbEntity
  8
0
  6
Continuous
 62
     7
370
    25
100
AcDbCircle
 10
32.3313871391
 20
45.3875306757
 30
0.0
 40
0.0590879083140218
100
AcDbArc
 50
6.9267848173
 51
55.4238588565
  0
LINE
  5
2F9
330
1F
100
AcDbEntity
  8
0
  6
Continuous
 62
     7
370
    25
100
AcDbLine
 10
28.8759754437
 20
45.1553399746
 30
0.0
 11
28.8734866017
 21
45.1551040399
 31
0.0
  0
LINE
  5
2FA
330
1F
100
AcDbEntity
  8
0
  6
Continuous
 62
     7
370
    25
100
AcDbLine
 10
32.2730820165
 20
9.3197475978
 30
0.0
 11
28.8759754437
 21
45.1553399746
 31
0.0
  0
LINE
  5
2FB
330
1F
100
AcDbEntity
  8
0
  6
Continuous
 62
     7
370
    25
100
AcDbLine
 10
32.2705931744
 20
9.3195116631
 30
0.0
 11
32.2730820165
 21
9.3197475978
 31
0.0
  0
LINE
  5
2FC
330
1F
100
AcDbEntity
  8
0
  6
Continuous
 62
     7
370
    25
100
AcDbLine
 10
31.8517081065
 20
9.2772914082
 30
0.0
 11
32.2708291092
 21
9.317022821
 31
0.0
  0
LINE
  5
2FD
330
1F
100
AcDbEntity
  8
0
  6
Continuous
 62
     7
370
    25
100
AcDbLine
 10
31.8514721718
 20
9.2797802503
 30
0.0
 11
31.8517081065
 21
9.2772914082
 31
0.0
  0
LINE
  5
2FE
330
1F
100
AcDbEntity
  8
0
  6
Continuous
 62
     7
370
    25
100
AcDbLine
 10
31.8489833297
 20
9.2795443156
 30
0.0
 11
31.8514721718
 21
9.2797802503
 31
0.0
  0
LINE
  5
2FF
330
1F
100
AcDbEntity
  8
0
  6
Continuous
 62
     7
370
    25
100
AcDbLine
 10
28.451876757
 20
45.1151366923
 30
0.0
 11
31.8489833297
 21
9.2795443156
 31
0.0
  0
LINE
  5
300
330
1F
100
AcDbEntity
  8
0
  6
Continuous
 62
     7
370
    25
100
AcDbLine
 10
28.4543655991
 20
45.1153726271
 30
0.0
 11
28.451876757
 21
45.1151366923
 31
0.0
  0
LINE
  5
301
330
1F
100
AcDbEntity
  8
0
  6
Continuous
 62
     7
370
    25
100
AcDbLine
 10
28.4541296643
 20
45.1178614692
 30
0.0
 11
28.4543655991
 21
45.1153726271
 31
0.0
  0
LINE
  5
302
330
1F
100
AcDbEntity
  8
0
  6
Continuous
 62
     7
370
    25
100
AcDbLine
 10
28.8732506669
 20
45.1575928819
 30
0.0
 11
28.4541296643
 21
45.1178614692
 31
0.0
  0
LINE
  5
303
330
1F
100
AcDbEntity
  8
0
  6
Continuous
 62
     7
370
    25
100
AcDbLine
 10
28.8732506669
 20
45.1575928819
 30
0.0
 11
28.8734866017
 21
45.1551040399
 31
0.0
  0
LINE
  5
304
330
1F
100
AcDbEntity
  8
0
  6
Continuous
 62
     7
370
    25
100
AcDbLine
 10
32.2705931744
 20
9.3195116631
 30
0.0
 11
32.2708291092
 21
9.317022821
 31
0.0
  0
LINE
  5
305
330
1F
100
AcDbEntity
  8
0
  6
Continuous
 62
     7
370
    25
100
AcDbLine
 10
32.274887187
 20
9.2742147376
 30
0.0
 11
31.8557661843
 21
9.2344833248
 31
0.0
  0
LINE
  5
306
330
1F
100
AcDbEntity
  8
0
  6
Continuous
 62
     7
370
    25
100
AcDbLine
 10
31.8517081065
 20
9.2772914082
 30
0.0
 11
31.8557661843
 21
9.2344833248
 31
0.0
  0
LINE
  5
307
330
1F
100
AcDbEntity
  8
0
  6
Continuous
 62
     7
370
    25
100
AcDbLine
 10
32.274887187
 20
9.2742147376
 30
0.0
 11
32.2708291092
 21
9.317022821
 31
0.0
  0
LINE
  5
308
330
1F
100
AcDbEntity
  8
0
  6
Continuous
 62
     7
370
    25
100
AcDbLine
 10
28.9187835271
 20
45.1593980524
 30
0.0
 11
28.8759754437
 21
45.1553399746
 31
0.0
  0
LINE
  5
309
330
1F
100
AcDbEntity
  8
0
  6
Continuous
 62
     7
370
    25
100
AcDbLine
 10
28.9187835271
 20
45.1593980524
 30
0.0
 11
32.3158900999
 21
9.3238056756
 31
0.0
  0
LINE
  5
30A
330
1F
100
AcDbEntity
  8
0
  6
Continuous
 62
     7
370
    25
100
AcDbLine
 10
32.2730820165
 20
9.3197475978
 30
0.0
 11
32.3158900999
 21
9.3238056756
 31
0.0
  0
LINE
  5
30B
330
1F
100
AcDbEntity
  8
0
  6
Continuous
 62
     7
370
    25
100
AcDbLine
 10
31.8061752463
 20
9.2754862378
 30
0.0
 11
28.4090686736
 21
45.1110786146
 31
0.0
  0
LINE
  5
30C
330
1F
100
AcDbEntity
  8
0
  6
Continuous
 62
     7
370
    25
100
AcDbLine
 10
28.451876757
 20
45.1151366923
 30
0.0
 11
28.4090686736
 21
45.1110786146
 31
0.0
  0
LINE
  5
30D
330
1F
100
AcDbEntity
  8
0
  6
Continuous
 62
     7
370
    25
100
AcDbLine
 10
31.8061752463
 20
9.2754862378
 30
0.0
 11
31.8489833297
 21
9.2795443156
 31
0.0
  0
LINE
  5
30E
330
1F
100
AcDbEntity
  8
0
  6
Continuous
 62
     7
370
    25
100
AcDbLine
 10
28.4500715865
 20
45.1606695526
 30
0.0
 11
28.4541296643
 21
45.1178614692
 31
0.0
  0
LINE
  5
30F
330
1F
100
AcDbEntity
  8
0
  6
Continuous
 62
     7
370
    25
100
AcDbLine
 10
28.4500715865
 20
45.1606695526
 30
0.0
 11
28.8691925891
 21
45.2004009653
 31
0.0
  0
LINE
  5
310
330
1F
100
AcDbEntity
  8
0
  6
Continuous
 62
     7
370
    25
100
AcDbLine
 10
28.8732506669
 20
45.1575928819
 30
0.0
 11
28.8691925891
 21
45.2004009653
 31
0.0
  0
LINE
  5
311
330
1F
100
AcDbEntity
  8
0
  6
Continuous
 62
     7
370
    25
100
AcDbLine
 10
32.2982063718
 20
9.3196181033
 30
0.0
 11
32.3161260346
 21
9.3213168336
 31
0.0
  0
LINE
  5
312
330
1F
100
AcDbEntity
  8
0
  6
Continuous
 62
     7
370
    25
100
AcDbLine
 10
32.2756772988
 20
9.2923703352
 30
0.0
 11
32.277376029
 21
9.2744506724
 31
0.0
  0
ARC
  5
313
330
1F
100
AcDbEntity
  8
0
  6
Continuous
 62
     7
370
    25
100
AcDbCircle
 10
32.2733179512
 20
9.3172587558
 30
0.0
 40
0.0430000000000348
100
AcDbArc
 50
275.4152851432
 51
5.4152851432
  0
ARC
  5
314
330
1F
100
AcDbEntity
  8
0
  6
Continuous
 62
     7
370
    25
100
AcDbCircle
 10
32.2733179512
 20
9.3172587558
 30
0.0
 40
0.0250000000000075
100
AcDbArc
 50
275.4152851431
 51
5.4152851432
  0
LINE
  5
315
330
1F
100
AcDbEntity
  8
0
  6
Continuous
 62
     7
370
    25
100
AcDbLine
 10
32.2981372681
 20
9.3203470683
 30
0.0
 11
32.3160569309
 21
9.3220457985
 31
0.0
  0
LINE
  5
316
330
1F
100
AcDbEntity
  8
0
  6
Continuous
 62
     7
370
    25
100
AcDbLine
 10
32.3160569309
 20
9.3220457985
 30
0.0
 11
32.3161260346
 21
9.3213168336
 31
0.0
  0
LINE
  5
317
330
1F
100
AcDbEntity
  8
0
  6
Continuous
 62
     7
370
    25
100
AcDbLine
 10
32.2981372681
 20
9.3203470683
 30
0.0
 11
32.2982063718
 21
9.3196181033
 31
0.0
  0
LINE
  5
318
330
1F
100
AcDbEntity
  8
0
  6
Continuous
 62
     7
370
    25
100
AcDbLine
 10
32.2756772988
 20
9.2923703352
 30
0.0
 11
32.2731884567
 21
9.2921344004
 31
0.0
  0
LINE
  5
319
330
1F
100
AcDbEntity
  8
0
  6
Continuous
 62
     7
370
    25
100
AcDbLine
 10
32.277376029
 20
9.2744506724
 30
0.0
 11
32.274887187
 21
9.2742147376
 31
0.0
  0
LINE
  5
31A
330
1F
100
AcDbEntity
  8
0
  6
Continuous
 62
     7
370
    25
100
AcDbLine
 10
32.3159998102
 20
9.322648357
 30
0.0
 11
32.3160569309
 21
9.3220457985
 31
0.0
  0
LINE
  5
31B
330
1F
100
AcDbEntity
  8
0
  6
Continuous
 62
     7
370
    25
100
AcDbLine
 10
32.2979704371
 20
9.3221069454
 30
0.0
 11
32.2981372681
 21
9.3203470683
 31
0.0
  0
LINE
  5
31C
330
1F
100
AcDbEntity
  8
0
  6
Continuous
 62
     7
370
    25
100
AcDbLine
 10
31.8242617402
 20
9.2754250909
 30
0.0
 11
31.8063420774
 21
9.2737263607
 31
0.0
  0
LINE
  5
31D
330
1F
100
AcDbEntity
  8
0
  6
Continuous
 62
     7
370
    25
100
AcDbLine
 10
31.8063420774
 20
9.2737263607
 30
0.0
 11
31.8061752463
 21
9.2754862378
 31
0.0
  0
LINE
  5
31E
330
1F
100
AcDbEntity
  8
0
  6
Continuous
 62
     7
370
    25
100
AcDbLine
 10
31.8242617402
 20
9.2754250909
 30
0.0
 11
31.8240949091
 21
9.277184968
 31
0.0
  0
LINE
  5
31F
330
1F
100
AcDbEntity
  8
0
  6
Continuous
 62
     7
370
    25
100
AcDbLine
 10
31.8243308439
 20
9.2746961259
 30
0.0
 11
31.8064111811
 21
9.2729973957
 31
0.0
  0
LINE
  5
320
330
1F
100
AcDbEntity
  8
0
  6
Continuous
 62
     7
370
    25
100
AcDbLine
 10
31.851578612
 20
9.2521670529
 30
0.0
 11
31.8532773423
 21
9.2342473901
 31
0.0
  0
ARC
  5
321
330
1F
100
AcDbEntity
  8
0
  6
Continuous
 62
     7
370
    25
100
AcDbCircle
 10
31.8492192645
 20
9.2770554735
 30
0.0
 40
0.043000000000002
100
AcDbArc
 50
185.4152851432
 51
275.4152851432
  0
ARC
  5
322
330
1F
100
AcDbEntity
  8
0
  6
Continuous
 62
     7
370
    25
100
AcDbCircle
 10
31.8492192645
 20
9.2770554735
 30
0.0
 40
0.0250000000000096
100
AcDbArc
 50
185.4152851432
 51
275.4152851431
  0
LINE
  5
323
330
1F
100
AcDbEntity
  8
0
  6
Continuous
 62
     7
370
    25
100
AcDbLine
 10
31.8064111811
 20
9.2729973957
 30
0.0
 11
31.8063420774
 21
9.2737263607
 31
0.0
  0
LINE
  5
324
330
1F
100
AcDbEntity
  8
0
  6
Continuous
 62
     7
370
    25
100
AcDbLine
 10
31.8243308439
 20
9.2746961259
 30
0.0
 11
31.8242617402
 21
9.2754250909
 31
0.0
  0
LINE
  5
325
330
1F
100
AcDbEntity
  8
0
  6
Continuous
 62
     7
370
    25
100
AcDbLine
 10
31.8540674541
 20
9.2524029877
 30
0.0
 11
31.851578612
 21
9.2521670529
 31
0.0
  0
LINE
  5
326
330
1F
100
AcDbEntity
  8
0
  6
Continuous
 62
     7
370
    25
100
AcDbLine
 10
31.8557661843
 20
9.2344833248
 30
0.0
 11
31.8532773423
 21
9.2342473901
 31
0.0
  0
LINE
  5
327
330
1F
100
AcDbEntity
  8
0
  6
Continuous
 62
     7
370
    25
100
AcDbLine
 10
28.9186166961
 20
45.1611579295
 30
0.0
 11
28.9187835271
 21
45.1593980524
 31
0.0
  0
LINE
  5
328
330
1F
100
AcDbEntity
  8
0
  6
Continuous
 62
     7
370
    25
100
AcDbLine
 10
28.9006970333
 20
45.1594591993
 30
0.0
 11
28.9008638643
 21
45.1576993222
 31
0.0
  0
LINE
  5
329
330
1F
100
AcDbEntity
  8
0
  6
Continuous
 62
     7
370
    25
100
AcDbLine
 10
28.9006970333
 20
45.1594591993
 30
0.0
 11
28.9186166961
 21
45.1611579295
 31
0.0
  0
LINE
  5
32A
330
1F
100
AcDbEntity
  8
0
  6
Continuous
 62
     7
370
    25
100
AcDbLine
 10
28.9185475924
 20
45.1618868945
 30
0.0
 11
28.9186166961
 21
45.1611579295
 31
0.0
  0
LINE
  5
32B
330
1F
100
AcDbEntity
  8
0
  6
Continuous
 62
     7
370
    25
100
AcDbLine
 10
28.9006279296
 20
45.1601881642
 30
0.0
 11
28.9006970333
 21
45.1594591993
 31
0.0
  0
LINE
  5
32C
330
1F
100
AcDbEntity
  8
0
  6
Continuous
 62
     7
370
    25
100
AcDbLine
 10
28.9006279296
 20
45.1601881642
 30
0.0
 11
28.9185475924
 21
45.1618868945
 31
0.0
  0
ARC
  5
32D
330
1F
100
AcDbEntity
  8
0
  6
Continuous
 62
     7
370
    25
100
AcDbCircle
 10
28.875739509
 20
45.1578288167
 30
0.0
 40
0.0250000000000126
100
AcDbArc
 50
5.4152851432
 51
95.4152851431
  0
LINE
  5
32E
330
1F
100
AcDbEntity
  8
0
  6
Continuous
 62
     7
370
    25
100
AcDbLine
 10
28.8733801614
 20
45.1827172373
 30
0.0
 11
28.8716814312
 21
45.2006369001
 31
0.0
  0
ARC
  5
32F
330
1F
100
AcDbEntity
  8
0
  6
Continuous
 62
     7
370
    25
100
AcDbCircle
 10
28.875739509
 20
45.1578288167
 30
0.0
 40
0.0430000000001287
100
AcDbArc
 50
5.4152851431
 51
95.415285143
  0
LINE
  5
330
330
1F
100
AcDbEntity
  8
0
  6
Continuous
 62
     7
370
    25
100
AcDbLine
 10
28.8708913194
 20
45.1824813025
 30
0.0
 11
28.8733801614
 21
45.1827172373
 31
0.0
  0
LINE
  5
331
330
1F
100
AcDbEntity
  8
0
  6
Continuous
 62
     7
370
    25
100
AcDbLine
 10
28.8691925891
 20
45.2004009653
 30
0.0
 11
28.8716814312
 21
45.2006369001
 31
0.0
  0
LINE
  5
332
330
1F
100
AcDbEntity
  8
0
  6
Continuous
 62
     7
370
    25
100
AcDbLine
 10
28.4492814747
 20
45.142513955
 30
0.0
 11
28.4475827445
 21
45.1604336178
 31
0.0
  0
LINE
  5
333
330
1F
100
AcDbEntity
  8
0
  6
Continuous
 62
     7
370
    25
100
AcDbLine
 10
28.4492814747
 20
45.142513955
 30
0.0
 11
28.4517703168
 21
45.1427498897
 31
0.0
  0
LINE
  5
334
330
1F
100
AcDbEntity
  8
0
  6
Continuous
 62
     7
370
    25
100
AcDbLine
 10
28.4475827445
 20
45.1604336178
 30
0.0
 11
28.4500715865
 21
45.1606695526
 31
0.0
  0
LINE
  5
335
330
1F
100
AcDbEntity
  8
0
  6
Continuous
 62
     7
370
    25
100
AcDbLine
 10
28.4268215054
 20
45.1145372219
 30
0.0
 11
28.4089018425
 21
45.1128384917
 31
0.0
  0
LINE
  5
336
330
1F
100
AcDbEntity
  8
0
  6
Continuous
 62
     7
370
    25
100
AcDbLine
 10
28.4269883364
 20
45.1127773448
 30
0.0
 11
28.4268215054
 21
45.1145372219
 31
0.0
  0
LINE
  5
337
330
1F
100
AcDbEntity
  8
0
  6
Continuous
 62
     7
370
    25
100
AcDbLine
 10
28.4090686736
 20
45.1110786146
 30
0.0
 11
28.4089018425
 21
45.1128384917
 31
0.0
  0
LINE
  5
338
330
1F
100
AcDbEntity
  8
0
  6
Continuous
 62
     7
370
    25
100
AcDbLine
 10
28.4267524017
 20
45.1152661869
 30
0.0
 11
28.4088327388
 21
45.1135674566
 31
0.0
  0
LINE
  5
339
330
1F
100
AcDbEntity
  8
0
  6
Continuous
 62
     7
370
    25
100
AcDbLine
 10
28.4268215054
 20
45.1145372219
 30
0.0
 11
28.4267524017
 21
45.1152661869
 31
0.0
  0
LINE
  5
33A
330
1F
100
AcDbEntity
  8
0
  6
Continuous
 62
     7
370
    25
100
AcDbLine
 10
28.4089018425
 20
45.1128384917
 30
0.0
 11
28.4088327388
 21
45.1135674566
 31
0.0
  0
ARC
  5
33B
330
1F
100
AcDbEntity
  8
0
  6
Continuous
 62
     7
370
    25
100
AcDbCircle
 10
28.4516408222
 20
45.1176255344
 30
0.0
 40
0.043000000000012
100
AcDbArc
 50
95.4152851431
 51
185.4152851431
  0
ARC
  5
33C
330
1F
100
AcDbEntity
  8
0
  6
Continuous
 62
     7
370
    25
100
AcDbCircle
 10
28.4516408222
 20
45.1176255344
 30
0.0
 40
0.0249999999999987
100
AcDbArc
 50
95.4152851432
 51
185.4152851432
  0
ARC
  5
33D
330
1F
100
AcDbEntity
  8
0
  6
Continuous
 62
     7
370
    25
100
AcDbCircle
 10
32.2742997764
 20
9.3228695049
 30
0.0
 40
0.0235413304016217
100
AcDbArc
 50
271.7451005462
 51
9.0854697401
  0
ARC
  5
33E
330
1F
100
AcDbEntity
  8
0
  6
Continuous
 62
     7
370
    25
100
AcDbCircle
 10
32.269384236
 20
9.371504118
 30
0.0
 40
0.0723844961086221
100
AcDbArc
 50
274.4628604999
 51
289.5305560628
  0
ARC
  5
33F
330
1F
100
AcDbEntity
  8
0
  6
Continuous
 62
     7
370
    25
100
AcDbCircle
 10
31.8472006385
 20
9.2823817888
 30
0.0
 40
0.0235413304016751
100
AcDbArc
 50
181.7451005463
 51
279.08546974
  0
ARC
  5
340
330
1F
100
AcDbEntity
  8
0
  6
Continuous
 62
     7
370
    25
100
AcDbCircle
 10
31.8428957484
 20
9.3311799158
 30
0.0
 40
0.0724893752590281
100
AcDbArc
 50
261.2050939187
 51
276.3538180246
  0
LINE
  5
341
330
1F
100
AcDbEntity
  8
0
  6
Continuous
 62
     7
370
    25
100
AcDbLine
 10
32.2750166815
 20
9.299339093
 30
0.0
 11
32.2725278394
 21
9.2991031582
 31
0.0
  0
LINE
  5
342
330
1F
100
AcDbEntity
  8
0
  6
Continuous
 62
     7
370
    25
100
AcDbLine
 10
31.8534068368
 20
9.2593717454
 30
0.0
 11
31.8509179947
 21
9.2591358107
 31
0.0
  0
LINE
  5
343
330
1F
100
AcDbEntity
  8
0
  6
Continuous
 62
     8
370
    25
100
AcDbLine
 10
32.2730820165
 20
9.3197475978
 30
0.0
 11
32.2750166815
 21
9.299339093
 31
0.0
  0
LINE
  5
344
330
1F
100
AcDbEntity
  8
0
  6
Continuous
 62
     8
370
    25
100
AcDbLine
 10
31.8509179947
 20
9.2591358107
 30
0.0
 11
31.8489833297
 21
9.2795443156
 31
0.0
  0
DIMENSION
  5
345
330
1F
100
AcDbEntity
  8
DIMS
100
AcDbDimension
  2
_D_3
 10
27.734145501
 20
8.8437660579
 30
0.0
 11
26.0481789121
 21
26.6287869712
 31
0.0
 70
   160
  1
<>
 71
     2
 42
-1.0
  3
SLDDIMSTYLE1
100
AcDbAlignedDimension
 13
28.4475827445
 23
45.1604336178
 33
0.0
 14
31.8532773423
 24
9.2342473901
 34
0.0
 50
-84.5847148568
100
AcDbRotatedDimension
  0
DIMENSION
  5
354
330
1F
100
AcDbEntity
  8
DIMS
100
AcDbDimension
  2
_D_4
 10
28.4086408222
 20
46.6349757322
 30
0.0
 11
30.5145351153
 21
46.6349757322
 31
0.0
 70
   160
  1
<>
 71
     2
 42
-1.0
  3
SLDDIMSTYLE0
100
AcDbAlignedDimension
 13
32.390043769
 23
45.3888209088
 33
0.0
 14
28.4086408222
 24
45.1176255344
 34
0.0
100
AcDbRotatedDimension
  0
MTEXT
  5
35F
330
1F
100
AcDbEntity
  8
NOTES
100
AcDbMText
 10
30.2194523613
 20
8.7338804722
 30
0.0
 40
0.5
 41
0.0
 71
     1
 72
     1
  1
Side view
  7
SLDTEXTSTYLE1
 73
     1
 44
1.0
  0
LINE
  5
360
330
1F
100
AcDbEntity
  8
0
  6
Continuous
 62
     7
370
    25
100
AcDbLine
 10
57.4190099563
 20
10.0156078768
 30
0.0
 11
57.4190099563
 21
10.0178728504
 31
0.0
  0
LINE
  5
361
330
1F
100
AcDbEntity
  8
0
  6
Continuous
 62
     7
370
    25
100
AcDbLine
 10
57.1650099563
 20
10.0178728504
 30
0.0
 11
57.1650099563
 21
10.0156078768
 31
0.0
  0
LINE
  5
362
330
1F
100
AcDbEntity
  8
0
  6
Continuous
 62
     7
370
    25
100
AcDbLine
 10
56.9311062773
 20
9.5298817981
 30
0.0
 11
56.9311062773
 21
9.5321467717
 31
0.0
  0
LINE
  5
363
330
1F
100
AcDbEntity
  8
0
  6
Continuous
 62
     7
370
    25
100
AcDbLine
 10
56.6771062773
 20
9.5321467717
 30
0.0
 11
56.6771062773
 21
9.5298817981
 31
0.0
  0
LINE
  5
364
330
1F
100
AcDbEntity
  8
0
  6
Continuous
 62
     7
370
    25
100
AcDbLine
 10
56.1338349563
 20
26.1835209825
 30
0.0
 11
56.1338349563
 21
26.1855972084
 31
0.0
  0
LINE
  5
365
330
1F
100
AcDbEntity
  8
0
  6
Continuous
 62
     7
370
    25
100
AcDbLine
 10
55.8798349563
 20
26.1855972084
 30
0.0
 11
55.8798349563
 21
26.1835209825
 31
0.0
  0
LINE
  5
366
330
1F
100
AcDbEntity
  8
0
  6
Continuous
 62
     7
370
    25
100
AcDbLine
 10
56.1338349563
 20
10.255884538
 30
0.0
 11
56.1338349563
 21
10.2579607638
 31
0.0
  0
LINE
  5
367
330
1F
100
AcDbEntity
  8
0
  6
Continuous
 62
     7
370
    25
100
AcDbLine
 10
55.8798349563
 20
10.2579607638
 30
0.0
 11
55.8798349563
 21
10.255884538
 31
0.0
  0
LINE
  5
368
330
1F
100
AcDbEntity
  8
0
  6
Continuous
 62
     7
370
    25
100
AcDbLine
 10
56.1538349563
 20
42.111114619
 30
0.0
 11
56.1538349563
 21
42.1131908448
 31
0.0
  0
LINE
  5
369
330
1F
100
AcDbEntity
  8
0
  6
Continuous
 62
     7
370
    25
100
AcDbLine
 10
55.8998349563
 20
42.1131908448
 30
0.0
 11
55.8998349563
 21
42.111114619
 31
0.0
  0
LINE
  5
36A
330
1F
100
AcDbEntity
  8
0
  6
Continuous
 62
     7
370
    25
100
AcDbLine
 10
41.1019349563
 20
42.111114619
 30
0.0
 11
41.1019349563
 21
42.1131908448
 31
0.0
  0
LINE
  5
36B
330
1F
100
AcDbEntity
  8
0
  6
Continuous
 62
     7
370
    25
100
AcDbLine
 10
40.8479349563
 20
42.1131908448
 30
0.0
 11
40.8479349563
 21
42.111114619
 31
0.0
  0
LINE
  5
36C
330
1F
100
AcDbEntity
  8
0
  6
Continuous
 62
     7
370
    25
100
AcDbLine
 10
41.1219349563
 20
10.255884538
 30
0.0
 11
41.1219349563
 21
10.2579607638
 31
0.0
  0
LINE
  5
36D
330
1F
100
AcDbEntity
  8
0
  6
Continuous
 62
     7
370
    25
100
AcDbLine
 10
40.8679349563
 20
10.2579607638
 30
0.0
 11
40.8679349563
 21
10.255884538
 31
0.0
  0
LINE
  5
36E
330
1F
100
AcDbEntity
  8
0
  6
Continuous
 62
     7
370
    25
100
AcDbLine
 10
41.1219349563
 20
26.1835209825
 30
0.0
 11
41.1219349563
 21
26.1855972084
 31
0.0
  0
LINE
  5
36F
330
1F
100
AcDbEntity
  8
0
  6
Continuous
 62
     7
370
    25
100
AcDbLine
 10
40.8679349563
 20
26.1855972084
 30
0.0
 11
40.8679349563
 21
26.1835209825
 31
0.0
  0
LINE
  5
370
330
1F
100
AcDbEntity
  8
0
  6
Continuous
 62
     7
370
    25
100
AcDbLine
 10
57.4309349563
 20
45.5228611542
 30
0.0
 11
39.5708349563
 21
45.5228611542
 31
0.0
  0
LINE
  5
371
330
1F
100
AcDbEntity
  8
0
  6
Continuous
 62
     7
370
    25
100
AcDbLine
 10
39.5027599563
 20
9.2340554735
 30
0.0
 11
57.5266093657
 21
9.2340554735
 31
0.0
  0
LINE
  5
372
330
1F
100
AcDbEntity
  8
0
  6
Continuous
 62
     7
370
    25
100
AcDbLine
 10
57.5303953553
 20
9.2591358107
 30
0.0
 11
57.5426376604
 21
9.2588816491
 31
0.0
  0
ARC
  5
373
330
1F
100
AcDbEntity
  8
0
  6
Continuous
 62
     7
370
    25
100
AcDbCircle
 10
55.9678520475
 20
42.1204928463
 30
0.0
 40
0.066956543225072
100
AcDbArc
 50
326.6126952717
 51
12.6527876656
  0
LWPOLYLINE
  5
374
330
1F
100
AcDbEntity
  8
0
  6
Continuous
 62
     7
370
    25
100
AcDbPolyline
 90
        3
 70
   128
 43
0.0
 10
56.0348099563
 20
26.1919031914
 10
56.0296718247
 20
26.1661873486
 10
56.0293588537
 20
26.1654476674
  0
LINE
  5
375
330
1F
100
AcDbEntity
  8
0
  6
Continuous
 62
     7
370
    25
100
AcDbLine
 10
56.0348099563
 20
10.26327121
 30
0.0
 11
56.0300971967
 21
10.2386025298
 31
0.0
  0
LINE
  5
376
330
1F
100
AcDbEntity
  8
0
  6
Continuous
 62
     7
370
    25
100
AcDbLine
 10
56.0331825757
 20
42.1334604299
 30
0.0
 11
56.0348099563
 21
42.1187936344
 31
0.0
  0
CIRCLE
  5
377
330
1F
100
AcDbEntity
  8
0
  6
Continuous
 62
     7
370
    25
100
AcDbCircle
 10
57.292250581
 20
10.0191972656
 30
0.0
 40
0.0776978715370254
  0
CIRCLE
  5
378
330
1F
100
AcDbEntity
  8
0
  6
Continuous
 62
     7
370
    25
100
AcDbCircle
 10
57.2924188537
 20
10.0175283136
 30
0.0
 40
0.126672342891659
  0
CIRCLE
  5
379
330
1F
100
AcDbEntity
  8
0
  6
Continuous
 62
     7
370
    25
100
AcDbCircle
 10
57.2919178706
 20
10.0193802795
 30
0.0
 40
0.0311800016680762
  0
ARC
  5
37A
330
1F
100
AcDbEntity
  8
0
  6
Continuous
 62
     7
370
    25
100
AcDbCircle
 10
57.2920099563
 20
10.0168113301
 30
0.0
 40
0.0312544677388188
100
AcDbArc
 50
2.3791818648
 51
177.6208181334
  0
ARC
  5
37B
330
1F
100
AcDbEntity
  8
0
  6
Continuous
 62
     7
370
    25
100
AcDbCircle
 10
57.2920099563
 20
10.0159840222
 30
0.0
 40
0.1270005570278322
100
AcDbArc
 50
180.1696967101
 51
359.8303032899
  0
CIRCLE
  5
37C
330
1F
100
AcDbEntity
  8
0
  6
Continuous
 62
     7
370
    25
100
AcDbCircle
 10
56.804336792
 20
9.5335316385
 30
0.0
 40
0.077698980337429
  0
CIRCLE
  5
37D
330
1F
100
AcDbEntity
  8
0
  6
Continuous
 62
     7
370
    25
100
AcDbCircle
 10
56.8045254929
 20
9.5318689273
 30
0.0
 40
0.1266294732612319
  0
CIRCLE
  5
37E
330
1F
100
AcDbEntity
  8
0
  6
Continuous
 62
     7
370
    25
100
AcDbCircle
 10
56.8040151172
 20
9.5336388491
 30
0.0
 40
0.0311725301049922
  0
ARC
  5
37F
330
1F
100
AcDbEntity
  8
0
  6
Continuous
 62
     7
370
    25
100
AcDbCircle
 10
56.8041062773
 20
9.5310998649
 30
0.0
 40
0.0312538645063576
100
AcDbArc
 50
2.3524162564
 51
177.6475837619
  0
ARC
  5
380
330
1F
100
AcDbEntity
  8
0
  6
Continuous
 62
     7
370
    25
100
AcDbCircle
 10
56.8041062773
 20
9.5302589974
 30
0.0
 40
0.1270005601537685
100
AcDbArc
 50
180.1701721954
 51
359.8298278046
  0
CIRCLE
  5
381
330
1F
100
AcDbEntity
  8
0
  6
Continuous
 62
     7
370
    25
100
AcDbCircle
 10
56.0070582936
 20
26.1870642748
 30
0.0
 40
0.0777079391108712
  0
CIRCLE
  5
382
330
1F
100
AcDbEntity
  8
0
  6
Continuous
 62
     7
370
    25
100
AcDbCircle
 10
56.0072613723
 20
26.1854245494
 30
0.0
 40
0.1265856605252326
  0
CIRCLE
  5
383
330
1F
100
AcDbEntity
  8
0
  6
Continuous
 62
     7
370
    25
100
AcDbCircle
 10
56.0069244649
 20
26.186962872
 30
0.0
 40
0.03116404158038
  0
ARC
  5
384
330
1F
100
AcDbEntity
  8
0
  6
Continuous
 62
     7
370
    25
100
AcDbCircle
 10
56.0068349563
 20
26.1838981534
 30
0.0
 40
0.1270005600689331
100
AcDbArc
 50
180.1701593097
 51
359.8298406903
  0
CIRCLE
  5
385
330
1F
100
AcDbEntity
  8
0
  6
Continuous
 62
     7
370
    25
100
AcDbCircle
 10
56.0070602552
 20
10.2593948516
 30
0.0
 40
0.0777033943334021
  0
CIRCLE
  5
386
330
1F
100
AcDbEntity
  8
0
  6
Continuous
 62
     7
370
    25
100
AcDbCircle
 10
56.0072588951
 20
10.2577437716
 30
0.0
 40
0.1266013807448631
  0
CIRCLE
  5
387
330
1F
100
AcDbEntity
  8
0
  6
Continuous
 62
     7
370
    25
100
AcDbCircle
 10
56.006925027
 20
10.2593150212
 30
0.0
 40
0.031167231551539
  0
ARC
  5
388
330
1F
100
AcDbEntity
  8
0
  6
Continuous
 62
     7
370
    25
100
AcDbCircle
 10
56.0068349563
 20
10.2562632019
 30
0.0
 40
0.1270005645117911
100
AcDbArc
 50
180.1708328842
 51
359.8291671158
  0
CIRCLE
  5
389
330
1F
100
AcDbEntity
  8
0
  6
Continuous
 62
     7
370
    25
100
AcDbCircle
 10
56.0270578235
 20
42.1146721088
 30
0.0
 40
0.0777102906796529
  0
CIRCLE
  5
38A
330
1F
100
AcDbEntity
  8
0
  6
Continuous
 62
     7
370
    25
100
AcDbCircle
 10
56.0272623975
 20
42.1130382462
 30
0.0
 40
0.1265796652388775
  0
CIRCLE
  5
38B
330
1F
100
AcDbEntity
  8
0
  6
Continuous
 62
     7
370
    25
100
AcDbCircle
 10
56.0269243077
 20
42.1145617465
 30
0.0
 40
0.0311627581545466
  0
ARC
  5
38C
330
1F
100
AcDbEntity
  8
0
  6
Continuous
 62
     7
370
    25
100
AcDbCircle
 10
56.0268349563
 20
42.1114905268
 30
0.0
 40
0.1270005563242657
100
AcDbArc
 50
180.1695895071
 51
359.8304104929
  0
CIRCLE
  5
38D
330
1F
100
AcDbEntity
  8
0
  6
Continuous
 62
     7
370
    25
100
AcDbCircle
 10
40.9751580173
 20
42.1146654143
 30
0.0
 40
0.0777091516266468
  0
CIRCLE
  5
38E
330
1F
100
AcDbEntity
  8
0
  6
Continuous
 62
     7
370
    25
100
AcDbCircle
 10
40.9753619138
 20
42.1130287102
 30
0.0
 40
0.1265824329988075
  0
CIRCLE
  5
38F
330
1F
100
AcDbEntity
  8
0
  6
Continuous
 62
     7
370
    25
100
AcDbCircle
 10
40.9750243742
 20
42.1145592514
 30
0.0
 40
0.0311633564287941
  0
ARC
  5
390
330
1F
100
AcDbEntity
  8
0
  6
Continuous
 62
     7
370
    25
100
AcDbCircle
 10
40.9749349563
 20
42.1114911702
 30
0.0
 40
0.1270005582302186
100
AcDbArc
 50
180.1698797634
 51
359.8301202366
  0
CIRCLE
  5
391
330
1F
100
AcDbEntity
  8
0
  6
Continuous
 62
     7
370
    25
100
AcDbCircle
 10
40.9951645757
 20
10.2593525199
 30
0.0
 40
0.0776994226464393
  0
CIRCLE
  5
392
330
1F
100
AcDbEntity
  8
0
  6
Continuous
 62
     7
370
    25
100
AcDbCircle
 10
40.9953549599
 20
10.2576910753
 30
0.0
 40
0.1266251988093605
  0
CIRCLE
  5
393
330
1F
100
AcDbEntity
  8
0
  6
Continuous
 62
     7
370
    25
100
AcDbCircle
 10
40.9950259621
 20
10.2593018827
 30
0.0
 40
0.0311717488378843
  0
ARC
  5
394
330
1F
100
AcDbEntity
  8
0
  6
Continuous
 62
     7
370
    25
100
AcDbCircle
 10
40.9949349563
 20
10.2562622166
 30
0.0
 40
0.1270005615779083
100
AcDbArc
 50
180.1703883809
 51
359.8296116191
  0
CIRCLE
  5
395
330
1F
100
AcDbEntity
  8
0
  6
Continuous
 62
     7
370
    25
100
AcDbCircle
 10
40.9951594933
 20
26.1870418644
 30
0.0
 40
0.0777047129195316
  0
CIRCLE
  5
396
330
1F
100
AcDbEntity
  8
0
  6
Continuous
 62
     7
370
    25
100
AcDbCircle
 10
40.9953597188
 20
26.1853940941
 30
0.0
 40
0.1265960736320676
  0
CIRCLE
  5
397
330
1F
100
AcDbEntity
  8
0
  6
Continuous
 62
     7
370
    25
100
AcDbCircle
 10
40.9950248224
 20
26.1869550077
 30
0.0
 40
0.0311661779702688
  0
ARC
  5
398
330
1F
100
AcDbEntity
  8
0
  6
Continuous
 62
     7
370
    25
100
AcDbCircle
 10
40.9949349563
 20
26.1838993832
 30
0.0
 40
0.1270005637272053
100
AcDbArc
 50
180.1707141285
 51
359.8292858715
  0
LWPOLYLINE
  5
399
330
1F
100
AcDbEntity
  8
0
  6
Continuous
 62
     7
370
    25
100
AcDbPolyline
 90
        5
 70
   128
 43
0.0
 10
57.5193510048
 20
15.502064023
 10
57.5424721697
 20
15.5020639719
 10
57.5606203903
 20
15.5020639208
 10
57.5721927852
 20
15.5020638696
 10
57.576167261
 20
15.5020638185
  0
LINE
  5
39A
330
1F
100
AcDbEntity
  8
0
  6
Continuous
 62
     7
370
    25
100
AcDbLine
 10
57.486167261
 20
15.5020640479
 30
0.0
 11
57.5193510048
 21
15.502064023
 31
0.0
  0
LINE
  5
39B
330
1F
100
AcDbEntity
  8
0
  6
Continuous
 62
     7
370
    25
100
AcDbLine
 10
57.486167261
 20
45.3946567319
 30
0.0
 11
57.486167261
 21
15.5020640479
 31
0.0
  0
ARC
  5
39C
330
1F
100
AcDbEntity
  8
0
  6
Continuous
 62
     7
370
    25
100
AcDbCircle
 10
57.3240856099
 20
45.6999273163
 30
0.0
 40
0.3456307151781824
100
AcDbArc
 50
297.9658088223
 51
313.7377620037
  0
LINE
  5
39D
330
1F
100
AcDbEntity
  8
0
  6
Continuous
 62
     7
370
    25
100
AcDbLine
 10
57.5573686951
 20
45.383308199
 30
0.0
 11
57.5630404284
 21
45.4502050986
 31
0.0
  0
LWPOLYLINE
  5
39E
330
1F
100
AcDbEntity
  8
0
  6
Continuous
 62
     7
370
    25
100
AcDbPolyline
 90
        3
 70
   128
 43
0.0
 10
57.576167261
 20
45.3797519491
 10
57.5713380572
 20
45.381530074
 10
57.5573686951
 20
45.383308199
  0
LINE
  5
39F
330
1F
100
AcDbEntity
  8
0
  6
Continuous
 62
     7
370
    25
100
AcDbLine
 10
57.576167261
 20
45.3797519491
 30
0.0
 11
57.576167261
 21
15.5020638185
 31
0.0
  0
ARC
  5
3A0
330
1F
100
AcDbEntity
  8
0
  6
Continuous
 62
     7
370
    25
100
AcDbCircle
 10
57.1304510381
 20
18.017263461
 30
0.0
 40
0.0952970000000038
100
AcDbArc
 50
0.0132488568
 51
180.013248857
  0
LINE
  5
3A1
330
1F
100
AcDbEntity
  8
0
  6
Continuous
 62
     7
370
    25
100
AcDbLine
 10
57.0352260842
 20
17.7195466531
 30
0.0
 11
57.0351540407
 21
18.0172414249
 31
0.0
  0
ARC
  5
3A2
330
1F
100
AcDbEntity
  8
0
  6
Continuous
 62
     7
370
    25
100
AcDbCircle
 10
56.9852260856
 20
17.7195350921
 30
0.0
 40
0.0500000000000766
100
AcDbArc
 50
330.0132478569
 51
0.013247857
  0
LINE
  5
3A3
330
1F
100
AcDbEntity
  8
0
  6
Continuous
 62
     7
370
    25
100
AcDbLine
 10
56.9724319622
 20
17.5973215132
 30
0.0
 11
57.0285331351
 21
17.6945451049
 31
0.0
  0
ARC
  5
3A4
330
1F
100
AcDbEntity
  8
0
  6
Continuous
 62
     7
370
    25
100
AcDbCircle
 10
57.130571118
 20
17.5060685755
 30
0.0
 40
0.1825789999999558
100
AcDbArc
 50
150.0132478569
 51
30.0132488568
  0
LINE
  5
3A5
330
1F
100
AcDbEntity
  8
0
  6
Continuous
 62
     7
370
    25
100
AcDbLine
 10
57.2325209166
 20
17.6945921961
 30
0.0
 11
57.2886680565
 21
17.5973946357
 31
0.0
  0
ARC
  5
3A6
330
1F
100
AcDbEntity
  8
0
  6
Continuous
 62
     7
370
    25
100
AcDbCircle
 10
57.2758163795
 20
17.7196022519
 30
0.0
 40
0.0500000000000855
100
AcDbArc
 50
180.0132488568
 51
210.013306652
  0
LINE
  5
3A7
330
1F
100
AcDbEntity
  8
0
  6
Continuous
 62
     7
370
    25
100
AcDbLine
 10
57.2257480356
 20
18.0172854971
 30
0.0
 11
57.2258163809
 21
17.7195906901
 31
0.0
  0
LINE
  5
3A8
330
1F
100
AcDbEntity
  8
0
  6
Continuous
 62
     7
370
    25
100
AcDbLine
 10
56.9457588772
 20
39.4639828281
 30
0.0
 11
56.9458371597
 21
39.5862560951
 31
0.0
  0
ARC
  5
3A9
330
1F
100
AcDbEntity
  8
0
  6
Continuous
 62
     7
370
    25
100
AcDbCircle
 10
56.8957588876
 20
39.4640150752
 30
0.0
 40
0.0500000000000047
100
AcDbArc
 50
340.0173595745
 51
359.9630475747
  0
LINE
  5
3AA
330
1F
100
AcDbEntity
  8
0
  6
Continuous
 62
     7
370
    25
100
AcDbLine
 10
56.8736241438
 20
39.2568312033
 30
0.0
 11
56.9427486978
 21
39.4469283043
 31
0.0
  0
ARC
  5
3AB
330
1F
100
AcDbEntity
  8
0
  6
Continuous
 62
     7
370
    25
100
AcDbCircle
 10
56.9206141268
 20
39.2397443483
 30
0.0
 40
0.0500001911243289
100
AcDbArc
 50
160.0173365983
 51
179.9631398801
  0
LINE
  5
3AC
330
1F
100
AcDbEntity
  8
0
  6
Continuous
 62
     7
370
    25
100
AcDbLine
 10
56.8700029733
 20
38.2893318569
 30
0.0
 11
56.870613946
 21
39.2397765149
 31
0.0
  0
ARC
  5
3AD
330
1F
100
AcDbEntity
  8
0
  6
Continuous
 62
     7
370
    25
100
AcDbCircle
 10
56.8950029856
 20
38.2893157862
 30
0.0
 40
0.0250000174887434
100
AcDbArc
 50
179.9631686576
 51
359.9631686576
  0
LINE
  5
3AE
330
1F
100
AcDbEntity
  8
0
  6
Continuous
 62
     7
370
    25
100
AcDbLine
 10
56.9206083191
 20
39.2309526587
 30
0.0
 11
56.9200029979
 21
38.2892997155
 31
0.0
  0
ARC
  5
3AF
330
1F
100
AcDbEntity
  8
0
  6
Continuous
 62
     7
370
    25
100
AcDbCircle
 10
56.9706083908
 20
39.230920801
 30
0.0
 40
0.0500000818449388
100
AcDbArc
 50
160.017453002
 51
179.9634938403
  0
LINE
  5
3B0
330
1F
100
AcDbEntity
  8
0
  6
Continuous
 62
     7
370
    25
100
AcDbLine
 10
56.9927426732
 20
39.4381036438
 30
0.0
 11
56.9236184758
 21
39.2480075232
 31
0.0
  0
ARC
  5
3B1
330
1F
100
AcDbEntity
  8
0
  6
Continuous
 62
     7
370
    25
100
AcDbCircle
 10
56.9457526876
 20
39.4551904914
 30
0.0
 40
0.050000191124308
100
AcDbArc
 50
340.0173456365
 51
359.963141002
  0
LINE
  5
3B2
330
1F
100
AcDbEntity
  8
0
  6
Continuous
 62
     7
370
    25
100
AcDbLine
 10
56.9958367802
 20
39.5862243156
 30
0.0
 11
56.9957528684
 21
39.4551583258
 31
0.0
  0
ARC
  5
3B3
330
1F
100
AcDbEntity
  8
0
  6
Continuous
 62
     7
370
    25
100
AcDbCircle
 10
57.1333367518
 20
39.5861358628
 30
0.0
 40
0.137499999999997
100
AcDbArc
 50
359.963142002
 51
179.9631420021
  0
LINE
  5
3B4
330
1F
100
AcDbEntity
  8
0
  6
Continuous
 62
     7
370
    25
100
AcDbLine
 10
57.2700028021
 20
38.2890741093
 30
0.0
 11
57.2708367233
 21
39.58604741
 31
0.0
  0
ARC
  5
3B5
330
1F
100
AcDbEntity
  8
0
  6
Continuous
 62
     7
370
    25
100
AcDbCircle
 10
57.2950028143
 20
38.2890578576
 30
0.0
 40
0.0250000174893941
100
AcDbArc
 50
179.9627538418
 51
359.9627538418
  0
LINE
  5
3B6
330
1F
100
AcDbEntity
  8
0
  6
Continuous
 62
     7
370
    25
100
AcDbLine
 10
57.3208365578
 20
39.5860152481
 30
0.0
 11
57.3200028265
 21
38.2890416059
 31
0.0
  0
ARC
  5
3B7
330
1F
100
AcDbEntity
  8
0
  6
Continuous
 62
     7
370
    25
100
AcDbCircle
 10
57.133336577
 20
39.5861358465
 30
0.0
 40
0.1875000195937308
100
AcDbArc
 50
359.9631478569
 51
54.7889588568
  0
ARC
  5
3B8
330
1F
100
AcDbEntity
  8
0
  6
Continuous
 62
     7
370
    25
100
AcDbCircle
 10
57.2587449854
 20
39.7638406767
 30
0.0
 40
0.0300000391876245
100
AcDbArc
 50
179.9631478571
 51
234.7887276431
  0
LINE
  5
3B9
330
1F
100
AcDbEntity
  8
0
  6
Continuous
 62
     7
370
    25
100
AcDbLine
 10
57.2289642162
 20
40.1048745445
 30
0.0
 11
57.2287449524
 21
39.7638599724
 31
0.0
  0
ARC
  5
3BA
330
1F
100
AcDbEntity
  8
0
  6
Continuous
 62
     7
370
    25
100
AcDbCircle
 10
57.1336702359
 20
40.1049358368
 30
0.0
 40
0.0952940000000037
100
AcDbArc
 50
359.9631478569
 51
179.9631478568
  0
LINE
  5
3BB
330
1F
100
AcDbEntity
  8
0
  6
Continuous
 62
     7
370
    25
100
AcDbLine
 10
57.0381569917
 20
39.7639824058
 30
0.0
 11
57.0383762556
 21
40.104997129
 31
0.0
  0
ARC
  5
3BC
330
1F
100
AcDbEntity
  8
0
  6
Continuous
 62
     7
370
    25
100
AcDbCircle
 10
57.0081569979
 20
39.7640016951
 30
0.0
 40
0.0300000000000517
100
AcDbArc
 50
305.1375133389
 51
359.9631602571
  0
ARC
  5
3BD
330
1F
100
AcDbEntity
  8
0
  6
Continuous
 62
     7
370
    25
100
AcDbCircle
 10
57.1333371213
 20
39.5861360527
 30
0.0
 40
0.1875000000000004
100
AcDbArc
 50
125.137513339
 51
179.9633177548
  0
LINE
  5
3BE
330
1F
100
AcDbEntity
  8
0
  6
Continuous
 62
     7
370
    25
100
AcDbLine
 10
57.486167261
 20
15.5020640479
 30
0.0
 11
57.2255314834
 21
15.5020647024
 31
0.0
  0
ARC
  5
3BF
330
1F
100
AcDbEntity
  8
0
  6
Continuous
 62
     7
370
    25
100
AcDbCircle
 10
57.2255319019
 20
15.6020648422
 30
0.0
 40
0.1000001397124685
100
AcDbArc
 50
200.0132488569
 51
269.9997602488
  0
LINE
  5
3C0
330
1F
100
AcDbEntity
  8
0
  6
Continuous
 62
     7
370
    25
100
AcDbLine
 10
57.1315704198
 20
15.5678410518
 30
0.0
 11
56.7313216466
 21
16.666724203
 31
0.0
  0
ARC
  5
3C1
330
1F
100
AcDbEntity
  8
0
  6
Continuous
 62
     7
370
    25
100
AcDbCircle
 10
57.6709351548
 20
17.0089616281
 30
0.0
 40
1.000000000000004
100
AcDbArc
 50
180.0132488568
 51
200.0132488568
  0
LINE
  5
3C2
330
1F
100
AcDbEntity
  8
0
  6
Continuous
 62
     7
370
    25
100
AcDbLine
 10
56.6709351815
 20
17.0087303919
 30
0.0
 11
56.6709351735
 21
41.2307024369
 31
0.0
  0
LINE
  5
3C3
330
1F
100
AcDbEntity
  8
0
  6
Continuous
 62
     7
370
    25
100
AcDbLine
 10
56.6709351735
 20
41.2307024369
 30
0.0
 11
57.0229042457
 21
44.9435739436
 31
0.0
  0
ARC
  5
3C4
330
1F
100
AcDbEntity
  8
0
  6
Continuous
 62
     7
370
    25
100
AcDbCircle
 10
57.0527703504
 20
44.9407427266
 30
0.0
 40
0.0300000000000094
100
AcDbArc
 50
133.5847138569
 51
174.5847148567
  0
LINE
  5
3C5
330
1F
100
AcDbEntity
  8
0
  6
Continuous
 62
     7
370
    25
100
AcDbLine
 10
57.0320875609
 20
44.9624734012
 30
0.0
 11
57.486167261
 21
45.3946567319
 31
0.0
  0
LINE
  5
3C6
330
1F
100
AcDbEntity
  8
0
  6
Continuous
 62
     7
370
    25
100
AcDbLine
 10
39.5217344223
 20
45.3888209088
 30
0.0
 11
39.9696823176
 21
44.9624736583
 31
0.0
  0
ARC
  5
3C7
330
1F
100
AcDbEntity
  8
0
  6
Continuous
 62
     7
370
    25
100
AcDbCircle
 10
39.9489998126
 20
44.9407427589
 30
0.0
 40
0.0299999667082957
100
AcDbArc
 50
5.4152851431
 51
46.4159755256
  0
LINE
  5
3C8
330
1F
100
AcDbEntity
  8
0
  6
Continuous
 62
     7
370
    25
100
AcDbLine
 10
39.9788658841
 20
44.9435739728
 30
0.0
 11
40.3308349563
 21
41.2307024661
 31
0.0
  0
LINE
  5
3C9
330
1F
100
AcDbEntity
  8
0
  6
Continuous
 62
     7
370
    25
100
AcDbLine
 10
40.3308349563
 20
41.2307024661
 30
0.0
 11
40.3308349563
 21
17.0087305268
 31
0.0
  0
ARC
  5
3CA
330
1F
100
AcDbEntity
  8
0
  6
Continuous
 62
     7
370
    25
100
AcDbCircle
 10
39.330834975
 20
17.0089616573
 30
0.0
 40
1.000000008010286
100
AcDbArc
 50
339.9867511432
 51
359.9867571976
  0
LINE
  5
3CB
330
1F
100
AcDbEntity
  8
0
  6
Continuous
 62
     7
370
    25
100
AcDbLine
 10
40.2704484907
 20
16.6667242295
 30
0.0
 11
39.8701995787
 21
15.5678411289
 31
0.0
  0
ARC
  5
3CC
330
1F
100
AcDbEntity
  8
0
  6
Continuous
 62
     7
370
    25
100
AcDbCircle
 10
39.7762382279
 20
15.6020648714
 30
0.0
 40
0.1000000000003101
100
AcDbArc
 50
270.0001281433
 51
339.9867511431
  0
LINE
  5
3CD
330
1F
100
AcDbEntity
  8
0
  6
Continuous
 62
     7
370
    25
100
AcDbLine
 10
39.7762384515
 20
15.5020648714
 30
0.0
 11
39.5156026516
 21
15.5020640877
 31
0.0
  0
LINE
  5
3CE
330
1F
100
AcDbEntity
  8
0
  6
Continuous
 62
     7
370
    25
100
AcDbLine
 10
39.5156026516
 20
45.3882396353
 30
0.0
 11
39.5156026516
 21
15.5020640877
 31
0.0
  0
LINE
  5
3CF
330
1F
100
AcDbEntity
  8
0
  6
Continuous
 62
     7
370
    25
100
AcDbLine
 10
39.5217344223
 20
45.3888209088
 30
0.0
 11
39.5156026516
 21
45.3882396353
 31
0.0
  0
ARC
  5
3D0
330
1F
100
AcDbEntity
  8
0
  6
Continuous
 62
     7
370
    25
100
AcDbCircle
 10
40.0311616654
 20
39.2309207492
 30
0.0
 40
0.0500000818448724
100
AcDbArc
 50
0.0364993051
 51
19.9825401432
  0
LINE
  5
3D1
330
1F
100
AcDbEntity
  8
0
  6
Continuous
 62
     7
370
    25
100
AcDbLine
 10
40.0817670667
 20
38.2892992962
 30
0.0
 11
40.0811617371
 21
39.2309526009
 31
0.0
  0
ARC
  5
3D2
330
1F
100
AcDbEntity
  8
0
  6
Continuous
 62
     7
370
    25
100
AcDbCircle
 10
40.106767079
 20
38.289315376
 30
0.0
 40
0.0250000174899964
100
AcDbArc
 50
180.0368521432
 51
0.0376401734
  0
LINE
  5
3D3
330
1F
100
AcDbEntity
  8
0
  6
Continuous
 62
     7
370
    25
100
AcDbLine
 10
40.1311562673
 20
39.2397764577
 30
0.0
 11
40.1317670911
 21
38.2893317996
 31
0.0
  0
ARC
  5
3D4
330
1F
100
AcDbEntity
  8
0
  6
Continuous
 62
     7
370
    25
100
AcDbCircle
 10
40.0811560865
 20
39.2397442989
 30
0.0
 40
0.0500001911242711
100
AcDbArc
 50
0.0368511432
 51
19.9826475085
  0
LINE
  5
3D5
330
1F
100
AcDbEntity
  8
0
  6
Continuous
 62
     7
370
    25
100
AcDbLine
 10
40.0590218817
 20
39.446928294
 30
0.0
 11
40.1281460742
 21
39.2568311409
 31
0.0
  0
ARC
  5
3D6
330
1F
100
AcDbEntity
  8
0
  6
Continuous
 62
     7
370
    25
100
AcDbCircle
 10
40.1060117221
 20
39.4640149819
 30
0.0
 40
0.0500000000000022
100
AcDbArc
 50
180.0368511432
 51
199.9825391432
  0
LINE
  5
3D7
330
1F
100
AcDbEntity
  8
0
  6
Continuous
 62
     7
370
    25
100
AcDbLine
 10
40.0559328077
 20
39.5862586123
 30
0.0
 11
40.0560117324
 21
39.4639828232
 31
0.0
  0
ARC
  5
3D8
330
1F
100
AcDbEntity
  8
0
  6
Continuous
 62
     7
370
    25
100
AcDbCircle
 10
39.8684344218
 20
39.5861375887
 30
0.0
 40
0.1874984249754765
100
AcDbArc
 50
0.0369824122
 51
54.8626721432
  0
ARC
  5
3D9
330
1F
100
AcDbEntity
  8
0
  6
Continuous
 62
     7
370
    25
100
AcDbCircle
 10
39.9936130857
 20
39.7640023807
 30
0.0
 40
0.0300000397332819
100
AcDbArc
 50
180.0368618926
 51
234.8626721432
  0
LINE
  5
3DA
330
1F
100
AcDbEntity
  8
0
  6
Continuous
 62
     7
370
    25
100
AcDbLine
 10
39.9633936569
 20
40.104997129
 30
0.0
 11
39.9636130522
 21
39.7639830798
 31
0.0
  0
ARC
  5
3DB
330
1F
100
AcDbEntity
  8
0
  6
Continuous
 62
     7
370
    25
100
AcDbCircle
 10
39.8680996766
 20
40.1049358368
 30
0.0
 40
0.0952940000000036
100
AcDbArc
 50
0.0368521432
 51
180.0368521431
  0
LINE
  5
3DC
330
1F
100
AcDbEntity
  8
0
  6
Continuous
 62
     7
370
    25
100
AcDbLine
 10
39.773024991
 20
39.7638599526
 30
0.0
 11
39.7728056963
 21
40.1048745445
 31
0.0
  0
ARC
  5
3DD
330
1F
100
AcDbEntity
  8
0
  6
Continuous
 62
     7
370
    25
100
AcDbCircle
 10
39.7430249384
 20
39.7638406606
 30
0.0
 40
0.0300000587811897
100
AcDbArc
 50
305.2112723571
 51
0.0368449331
  0
ARC
  5
3DE
330
1F
100
AcDbEntity
  8
0
  6
Continuous
 62
     7
370
    25
100
AcDbCircle
 10
39.8684333468
 20
39.5861358305
 30
0.0
 40
0.1874999999999902
100
AcDbArc
 50
125.2110411432
 51
180.0368521432
  0
LINE
  5
3DF
330
1F
100
AcDbEntity
  8
0
  6
Continuous
 62
     7
370
    25
100
AcDbLine
 10
39.681767117
 20
38.2890415899
 30
0.0
 11
39.6809333856
 21
39.5860152321
 31
0.0
  0
ARC
  5
3E0
330
1F
100
AcDbEntity
  8
0
  6
Continuous
 62
     7
370
    25
100
AcDbCircle
 10
39.7067671292
 20
38.2890578416
 30
0.0
 40
0.0250000174893941
100
AcDbArc
 50
180.0372461583
 51
0.0372461583
  0
LINE
  5
3E1
330
1F
100
AcDbEntity
  8
0
  6
Continuous
 62
     7
370
    25
100
AcDbLine
 10
39.7309329482
 20
39.5860479892
 30
0.0
 11
39.7317671414
 21
38.2890740933
 31
0.0
  0
ARC
  5
3E2
330
1F
100
AcDbEntity
  8
0
  6
Continuous
 62
     7
370
    25
100
AcDbCircle
 10
39.8684328017
 20
39.58613652
 30
0.0
 40
0.1374998820454486
100
AcDbArc
 50
0.0368905081
 51
180.0368905081
  0
LINE
  5
3E3
330
1F
100
AcDbEntity
  8
0
  6
Continuous
 62
     7
370
    25
100
AcDbLine
 10
40.0060171325
 20
39.4551585848
 30
0.0
 11
40.0059326553
 21
39.5862250508
 31
0.0
  0
ARC
  5
3E4
330
1F
100
AcDbEntity
  8
0
  6
Continuous
 62
     7
370
    25
100
AcDbCircle
 10
40.0560173954
 20
39.4551904367
 30
0.0
 40
0.0500002729691335
100
AcDbArc
 50
180.0364993051
 51
199.9826475085
  0
LINE
  5
3E5
330
1F
100
AcDbEntity
  8
0
  6
Continuous
 62
     7
370
    25
100
AcDbLine
 10
40.0781515824
 20
39.2480074658
 30
0.0
 11
40.0090273308
 21
39.4381035667
 31
0.0
  0
ARC
  5
3E6
330
1F
100
AcDbEntity
  8
0
  6
Continuous
 62
     7
370
    25
100
AcDbCircle
 10
40.016543827
 20
17.7195350921
 30
0.0
 40
0.0500000000000738
100
AcDbArc
 50
179.9867521431
 51
209.9867521433
  0
LINE
  5
3E7
330
1F
100
AcDbEntity
  8
0
  6
Continuous
 62
     7
370
    25
100
AcDbLine
 10
39.9666158719
 20
18.0172414249
 30
0.0
 11
39.9665438283
 21
17.7195466531
 31
0.0
  0
ARC
  5
3E8
330
1F
100
AcDbEntity
  8
0
  6
Continuous
 62
     7
370
    25
100
AcDbCircle
 10
39.8713188744
 20
18.017263461
 30
0.0
 40
0.0952969999999967
100
AcDbArc
 50
359.986751143
 51
179.9867511432
  0
LINE
  5
3E9
330
1F
100
AcDbEntity
  8
0
  6
Continuous
 62
     7
370
    25
100
AcDbLine
 10
39.7759534458
 20
17.7195906901
 30
0.0
 11
39.776021877
 21
18.0172854971
 31
0.0
  0
ARC
  5
3EA
330
1F
100
AcDbEntity
  8
0
  6
Continuous
 62
     7
370
    25
100
AcDbCircle
 10
39.725953533
 20
17.7196022519
 30
0.0
 40
0.0499999140998709
100
AcDbArc
 50
329.987106399
 51
359.9867511434
  0
LINE
  5
3EB
330
1F
100
AcDbEntity
  8
0
  6
Continuous
 62
     7
370
    25
100
AcDbLine
 10
39.713101856
 20
17.5973946357
 30
0.0
 11
39.7692491018
 21
17.6945925512
 31
0.0
  0
ARC
  5
3EC
330
1F
100
AcDbEntity
  8
0
  6
Continuous
 62
     7
370
    25
100
AcDbCircle
 10
39.8711987945
 20
17.5060685755
 30
0.0
 40
0.1825789999999454
100
AcDbArc
 50
149.9867511432
 51
29.9867521431
  0
LINE
  5
3ED
330
1F
100
AcDbEntity
  8
0
  6
Continuous
 62
     7
370
    25
100
AcDbLine
 10
39.9732367775
 20
17.6945451049
 30
0.0
 11
40.0293379504
 21
17.5973215132
 31
0.0
  0
ARC
  5
3EE
330
1F
100
AcDbEntity
  8
0
  6
Continuous
 62
     7
370
    25
100
AcDbCircle
 10
39.5188696921
 20
44.8721915708
 30
0.0
 40
0.516058406066632
100
AcDbArc
 50
90.3627280927
 51
100.4122610779
  0
LWPOLYLINE
  5
3EF
330
1F
100
AcDbEntity
  8
0
  6
Continuous
 62
     7
370
    25
100
AcDbPolyline
 90
        5
 70
   128
 43
0.0
 10
39.4256026516
 20
15.5020638185
 10
39.4324534937
 20
15.5020638858
 10
39.4519630413
 20
15.5020639531
 10
39.4811611427
 20
15.5020640204
 10
39.5156026516
 20
15.5020640877
  0
LINE
  5
3F0
330
1F
100
AcDbEntity
  8
0
  6
Continuous
 62
     7
370
    25
100
AcDbLine
 10
39.4256026516
 20
45.3797519491
 30
0.0
 11
39.4256026516
 21
15.5020638185
 31
0.0
  0
LWPOLYLINE
  5
3F1
330
1F
100
AcDbEntity
  8
0
  6
Continuous
 62
     7
370
    25
100
AcDbPolyline
 90
        3
 70
   128
 43
0.0
 10
57.5203331131
 20
45.4502050986
 10
57.5057625098
 20
45.4224309153
 10
57.486167261
 20
45.3946567319
  0
LINE
  5
3F2
330
1F
100
AcDbEntity
  8
0
  6
Continuous
 62
     7
370
    25
100
AcDbLine
 10
57.576167261
 20
15.452064023
 30
0.0
 11
57.526167261
 21
15.452064023
 31
0.0
  0
LINE
  5
3F3
330
1F
100
AcDbEntity
  8
0
  6
Continuous
 62
     7
370
    25
100
AcDbLine
 10
57.576167261
 20
9.727191014
 30
0.0
 11
57.526167261
 21
9.727191014
 31
0.0
  0
LINE
  5
3F4
330
1F
100
AcDbEntity
  8
0
  6
Continuous
 62
     7
370
    25
100
AcDbLine
 10
57.526167261
 20
9.727191014
 30
0.0
 11
57.526167261
 21
15.452064023
 31
0.0
  0
LINE
  5
3F5
330
1F
100
AcDbEntity
  8
0
  6
Continuous
 62
     7
370
    25
100
AcDbLine
 10
57.576167261
 20
9.727191014
 30
0.0
 11
57.576167261
 21
15.452064023
 31
0.0
  0
LINE
  5
3F6
330
1F
100
AcDbEntity
  8
0
  6
Continuous
 62
     7
370
    25
100
AcDbLine
 10
39.4256026516
 20
15.452064023
 30
0.0
 11
39.4756026516
 21
15.452064023
 31
0.0
  0
LINE
  5
3F7
330
1F
100
AcDbEntity
  8
0
  6
Continuous
 62
     7
370
    25
100
AcDbLine
 10
39.4756026516
 20
9.7271883137
 30
0.0
 11
39.4256026516
 21
9.7271883137
 31
0.0
  0
LINE
  5
3F8
330
1F
100
AcDbEntity
  8
0
  6
Continuous
 62
     7
370
    25
100
AcDbLine
 10
39.4256026516
 20
15.452064023
 30
0.0
 11
39.4256026516
 21
9.7271883137
 31
0.0
  0
LINE
  5
3F9
330
1F
100
AcDbEntity
  8
0
  6
Continuous
 62
     7
370
    25
100
AcDbLine
 10
39.4756026516
 20
15.452064023
 30
0.0
 11
39.4756026516
 21
9.7271883137
 31
0.0
  0
ARC
  5
3FA
330
1F
100
AcDbEntity
  8
0
  6
Continuous
 62
     7
370
    25
100
AcDbCircle
 10
56.9445340602
 20
45.0284183543
 30
0.0
 40
0.0300008677353982
100
AcDbArc
 50
269.9998014863
 51
310.9989314777
  0
LINE
  5
3FB
330
1F
100
AcDbEntity
  8
0
  6
Continuous
 62
     7
370
    25
100
AcDbLine
 10
56.9445339563
 20
44.9984174865
 30
0.0
 11
40.0572359563
 21
44.9984174865
 31
0.0
  0
ARC
  5
3FC
330
1F
100
AcDbEntity
  8
0
  6
Continuous
 62
     7
370
    25
100
AcDbCircle
 10
40.0572358523
 20
45.0284183876
 30
0.0
 40
0.0300009010491588
100
AcDbArc
 50
229.0017578873
 51
270.0001985037
  0
LINE
  5
3FD
330
1F
100
AcDbEntity
  8
0
  6
Continuous
 62
     7
370
    25
100
AcDbLine
 10
40.037554185
 20
45.0057758163
 30
0.0
 11
39.5708349563
 21
45.4114675171
 31
0.0
  0
LINE
  5
3FE
330
1F
100
AcDbEntity
  8
0
  6
Continuous
 62
     7
370
    25
100
AcDbLine
 10
39.5708349563
 20
45.4319427022
 30
0.0
 11
39.5708349563
 21
45.4114675171
 31
0.0
  0
LINE
  5
3FF
330
1F
100
AcDbEntity
  8
0
  6
Continuous
 62
     7
370
    25
100
AcDbLine
 10
57.4544902236
 20
45.4319427022
 30
0.0
 11
39.5708349563
 21
45.4319427022
 31
0.0
  0
LINE
  5
400
330
1F
100
AcDbEntity
  8
0
  6
Continuous
 62
     7
370
    25
100
AcDbLine
 10
57.4544902236
 20
45.4319427022
 30
0.0
 11
56.9642159781
 21
45.0057760449
 31
0.0
  0
LWPOLYLINE
  5
401
330
1F
100
AcDbEntity
  8
0
  6
Continuous
 62
     7
370
    25
100
AcDbPolyline
 90
        4
 70
   128
 43
0.0
 10
39.5156026516
 20
9.3273670521
 10
39.5004324174
 20
9.3413890101
 10
39.491112419
 20
9.3560397674
 10
39.480984678
 20
9.4111816634
  0
LINE
  5
402
330
1F
100
AcDbEntity
  8
0
  6
Continuous
 62
     7
370
    25
100
AcDbLine
 10
39.480984678
 20
9.4111816634
 30
0.0
 11
39.4756026516
 21
9.7271883137
 31
0.0
  0
ARC
  5
403
330
1F
100
AcDbEntity
  8
0
  6
Continuous
 62
     7
370
    25
100
AcDbCircle
 10
39.5322889278
 20
9.4160196182
 30
0.0
 40
0.0948505362465367
100
AcDbArc
 50
184.3546615918
 51
259.8676948833
  0
LINE
  5
404
330
1F
100
AcDbEntity
  8
0
  6
Continuous
 62
     7
370
    25
100
AcDbLine
 10
39.437712211
 20
9.4088176139
 30
0.0
 11
39.4256026516
 21
9.7271883137
 31
0.0
  0
ARC
  5
405
330
1F
100
AcDbEntity
  8
0
  6
Continuous
 62
     7
370
    25
100
AcDbCircle
 10
57.4692119499
 20
9.4162627256
 30
0.0
 40
0.0951373116244708
100
AcDbArc
 50
280.2660598793
 51
355.5114839164
  0
LINE
  5
406
330
1F
100
AcDbEntity
  8
0
  6
Continuous
 62
     7
370
    25
100
AcDbLine
 10
57.576167261
 20
9.727191014
 30
0.0
 11
57.5640574791
 21
9.4088173481
 31
0.0
  0
LINE
  5
407
330
1F
100
AcDbEntity
  8
0
  6
Continuous
 62
     7
370
    25
100
AcDbLine
 10
57.526167261
 20
9.727191014
 30
0.0
 11
57.5207851357
 21
9.4111814178
 31
0.0
  0
ARC
  5
408
330
1F
100
AcDbEntity
  8
0
  6
Continuous
 62
     7
370
    25
100
AcDbCircle
 10
57.4246911689
 20
9.4018149576
 30
0.0
 40
0.0965493709246824
100
AcDbArc
 50
309.5485762038
 51
5.5671414001
  0
LINE
  5
409
330
1F
100
AcDbEntity
  8
0
  6
Continuous
 62
     7
370
    25
100
AcDbLine
 10
57.5207851357
 20
9.4111814178
 30
0.0
 11
57.5640574791
 21
9.4088173481
 31
0.0
  0
LINE
  5
40A
330
1F
100
AcDbEntity
  8
0
  6
Continuous
 62
     7
370
    25
100
AcDbLine
 10
39.480984678
 20
9.4111816634
 30
0.0
 11
39.437712211
 21
9.4088176139
 31
0.0
  0
LINE
  5
40B
330
1F
100
AcDbEntity
  8
0
  6
Continuous
 62
     7
370
    25
100
AcDbLine
 10
57.5203331131
 20
45.4502050986
 30
0.0
 11
57.5630404284
 21
45.4502050986
 31
0.0
  0
LINE
  5
40C
330
1F
100
AcDbEntity
  8
0
  6
Continuous
 62
     7
370
    25
100
AcDbLine
 10
39.5156026516
 20
9.3273670521
 30
0.0
 11
39.5156026516
 21
9.322648357
 31
0.0
  0
LINE
  5
40D
330
1F
100
AcDbEntity
  8
0
  6
Continuous
 62
     7
370
    25
100
AcDbLine
 10
57.486167261
 20
9.322648488
 30
0.0
 11
57.486167261
 21
9.3273671831
 31
0.0
  0
LINE
  5
40E
330
1F
100
AcDbEntity
  8
0
  6
Continuous
 62
     7
370
    25
100
AcDbLine
 10
41.3406456344
 20
43.2814036737
 30
0.0
 11
40.0109456408
 21
44.6051691987
 31
0.0
  0
ARC
  5
40F
330
1F
100
AcDbEntity
  8
0
  6
Continuous
 62
     7
370
    25
100
AcDbCircle
 10
41.2706022559
 20
43.2109699319
 30
0.0
 40
0.0993327079365856
100
AcDbArc
 50
0.0222981805
 51
45.1592153399
  0
LINE
  5
410
330
1F
100
AcDbEntity
  8
0
  6
Continuous
 62
     7
370
    25
100
AcDbLine
 10
41.3699349563
 20
9.4186380696
 30
0.0
 11
41.3699349563
 21
43.2110085898
 31
0.0
  0
ARC
  5
411
330
1F
100
AcDbEntity
  8
0
  6
Continuous
 62
     7
370
    25
100
AcDbCircle
 10
41.2701576171
 20
9.4188617286
 30
0.0
 40
0.0997775898397555
100
AcDbArc
 50
269.87214026
 51
359.8715670403
  0
LINE
  5
412
330
1F
100
AcDbEntity
  8
0
  6
Continuous
 62
     7
370
    25
100
AcDbLine
 10
39.5555369563
 20
9.3190843464
 30
0.0
 11
41.2699349563
 21
9.3190843872
 31
0.0
  0
ARC
  5
413
330
1F
100
AcDbEntity
  8
0
  6
Continuous
 62
     7
370
    25
100
AcDbCircle
 10
39.5555310163
 20
9.4194668512
 30
0.0
 40
0.1003825049107983
100
AcDbArc
 50
246.5616436484
 51
270.0033903703
  0
CIRCLE
  5
414
330
1F
100
AcDbEntity
  8
0
  6
Continuous
 62
     7
370
    25
100
AcDbCircle
 10
40.1877073196
 20
9.5336787001
 30
0.0
 40
0.1872472135761345
  0
CIRCLE
  5
415
330
1F
100
AcDbEntity
  8
0
  6
Continuous
 62
     7
370
    25
100
AcDbCircle
 10
39.7175803196
 20
10.0070883167
 30
0.0
 40
0.1872472135761149
  0
LINE
  5
416
330
1F
100
AcDbEntity
  8
0
  6
Continuous
 62
     7
370
    25
100
AcDbLine
 10
39.5555369563
 20
9.3143656513
 30
0.0
 11
39.5555369563
 21
9.3190843464
 31
0.0
  0
ARC
  5
417
330
1F
100
AcDbEntity
  8
0
  6
Continuous
 62
     7
370
    25
100
AcDbCircle
 10
39.5555310163
 20
9.414748156
 30
0.0
 40
0.1003825049132945
100
AcDbArc
 50
246.5616436486
 51
270.00339037
  0
LINE
  5
418
330
1F
100
AcDbEntity
  8
0
  6
Continuous
 62
     7
370
    25
100
AcDbLine
 10
57.4462327373
 20
9.3143656836
 30
0.0
 11
57.4462327373
 21
9.3190843787
 31
0.0
  0
ARC
  5
419
330
1F
100
AcDbEntity
  8
0
  6
Continuous
 62
     7
370
    25
100
AcDbCircle
 10
57.4462386773
 20
9.4194668415
 30
0.0
 40
0.1003824629426509
100
AcDbArc
 50
269.9966095674
 51
293.4385029211
  0
ARC
  5
41A
330
1F
100
AcDbEntity
  8
0
  6
Continuous
 62
     7
370
    25
100
AcDbCircle
 10
57.4462386773
 20
9.4147481464
 30
0.0
 40
0.1003824629471511
100
AcDbArc
 50
269.9966095677
 51
293.4385029204
  0
LINE
  5
41B
330
1F
100
AcDbEntity
  8
0
  6
Continuous
 62
     7
370
    25
100
AcDbLine
 10
55.7318347373
 20
9.3190843787
 30
0.0
 11
57.4462327373
 21
9.3190843787
 31
0.0
  0
ARC
  5
41C
330
1F
100
AcDbEntity
  8
0
  6
Continuous
 62
     7
370
    25
100
AcDbCircle
 10
55.7316120764
 20
9.4188617201
 30
0.0
 40
0.0997775898398629
100
AcDbArc
 50
180.1284329599
 51
270.1278597399
  0
LINE
  5
41D
330
1F
100
AcDbEntity
  8
0
  6
Continuous
 62
     7
370
    25
100
AcDbLine
 10
55.6318347373
 20
43.2110085813
 30
0.0
 11
55.6318347373
 21
9.418638061
 31
0.0
  0
ARC
  5
41E
330
1F
100
AcDbEntity
  8
0
  6
Continuous
 62
     7
370
    25
100
AcDbCircle
 10
55.7311676638
 20
43.2109699232
 30
0.0
 40
0.099332934022407
100
AcDbArc
 50
134.8407846602
 51
179.9777018195
  0
LINE
  5
41F
330
1F
100
AcDbEntity
  8
0
  6
Continuous
 62
     7
370
    25
100
AcDbLine
 10
56.9908245237
 20
44.6051695355
 30
0.0
 11
55.6611241258
 21
43.2814038254
 31
0.0
  0
CIRCLE
  5
420
330
1F
100
AcDbEntity
  8
0
  6
Continuous
 62
     7
370
    25
100
AcDbCircle
 10
56.8140625929
 20
9.5348467056
 30
0.0
 40
0.1872472135761238
  0
CIRCLE
  5
421
330
1F
100
AcDbEntity
  8
0
  6
Continuous
 62
     7
370
    25
100
AcDbCircle
 10
57.2841895929
 20
10.0082563223
 30
0.0
 40
0.1872472135761203
  0
LINE
  5
422
330
1F
100
AcDbEntity
  8
0
  6
Continuous
 62
     7
370
    25
100
AcDbLine
 10
41.2699349563
 20
9.3143656921
 30
0.0
 11
41.2699349563
 21
9.3190843872
 31
0.0
  0
LINE
  5
423
330
1F
100
AcDbEntity
  8
0
  6
Continuous
 62
     7
370
    25
100
AcDbLine
 10
39.5555369563
 20
9.3143656513
 30
0.0
 11
41.2699349563
 21
9.3143656921
 31
0.0
  0
LINE
  5
424
330
1F
100
AcDbEntity
  8
0
  6
Continuous
 62
     7
370
    25
100
AcDbLine
 10
55.7318347373
 20
9.3143656836
 30
0.0
 11
57.4462327373
 21
9.3143656836
 31
0.0
  0
LINE
  5
425
330
1F
100
AcDbEntity
  8
0
  6
Continuous
 62
     7
370
    25
100
AcDbLine
 10
55.7318347373
 20
9.3143656836
 30
0.0
 11
55.7318347373
 21
9.3190843787
 31
0.0
  0
ARC
  5
426
330
1F
100
AcDbEntity
  8
0
  6
Continuous
 62
     7
370
    25
100
AcDbCircle
 10
55.7316120764
 20
9.414143025
 30
0.0
 40
0.0997775898396637
100
AcDbArc
 50
180.1284329598
 51
270.1278597401
  0
LINE
  5
427
330
1F
100
AcDbEntity
  8
0
  6
Continuous
 62
     7
370
    25
100
AcDbLine
 10
55.6318347373
 20
9.4139193659
 30
0.0
 11
55.6318347373
 21
9.418638061
 31
0.0
  0
LINE
  5
428
330
1F
100
AcDbEntity
  8
0
  6
Continuous
 62
     7
370
    25
100
AcDbLine
 10
41.3699349563
 20
9.4139193745
 30
0.0
 11
41.3699349563
 21
9.4186380696
 31
0.0
  0
ARC
  5
429
330
1F
100
AcDbEntity
  8
0
  6
Continuous
 62
     7
370
    25
100
AcDbCircle
 10
41.2701576171
 20
9.4141430335
 30
0.0
 40
0.0997775898399204
100
AcDbArc
 50
269.8721402601
 51
359.8715670401
  0
LWPOLYLINE
  5
42A
330
1F
100
AcDbEntity
  8
0
  6
Continuous
 62
     7
370
    25
100
AcDbPolyline
 90
        3
 70
   128
 43
0.0
 10
57.4544902236
 20
45.4319427022
 10
57.4763111996
 20
45.4613922678
 10
57.4981321756
 20
45.4877112225
  0
LINE
  5
42B
330
1F
100
AcDbEntity
  8
0
  6
Continuous
 62
     7
370
    25
100
AcDbLine
 10
57.4981321756
 20
45.4572389623
 30
0.0
 11
57.4981321756
 21
45.4877112225
 31
0.0
  0
LINE
  5
42C
330
1F
100
AcDbEntity
  8
0
  6
Continuous
 62
     7
370
    25
100
AcDbLine
 10
57.4544902236
 20
45.4324529533
 30
0.0
 11
57.4981321756
 21
45.4572389623
 31
0.0
  0
LINE
  5
42D
330
1F
100
AcDbEntity
  8
0
  6
Continuous
 62
     7
370
    25
100
AcDbLine
 10
39.5708349563
 20
45.5228611542
 30
0.0
 11
39.5708349563
 21
45.4319427022
 31
0.0
  0
LINE
  5
42E
330
1F
100
AcDbEntity
  8
0
  6
Continuous
 62
     7
370
    25
100
AcDbLine
 10
57.4309349563
 20
45.4877112225
 30
0.0
 11
57.4309349563
 21
45.5228611542
 31
0.0
  0
LINE
  5
42F
330
1F
100
AcDbEntity
  8
0
  6
Continuous
 62
     7
370
    25
100
AcDbLine
 10
57.4981321756
 20
45.4877112225
 30
0.0
 11
57.4309349563
 21
45.4877112225
 31
0.0
  0
ARC
  5
430
330
1F
100
AcDbEntity
  8
0
  6
Continuous
 62
     7
370
    25
100
AcDbCircle
 10
56.8142079563
 20
9.5289445884
 30
0.0
 40
0.187500958140279
100
AcDbArc
 50
0.1831684274
 51
179.8168315726
  0
ARC
  5
431
330
1F
100
AcDbEntity
  8
0
  6
Continuous
 62
     7
370
    25
100
AcDbCircle
 10
40.187126266
 20
9.5291429298
 30
0.0
 40
0.1870647397182617
100
AcDbArc
 50
89.866552964
 51
179.8771543362
  0
ARC
  5
432
330
1F
100
AcDbEntity
  8
0
  6
Continuous
 62
     7
370
    25
100
AcDbCircle
 10
40.1879976465
 20
9.5291429298
 30
0.0
 40
0.1870647397182919
100
AcDbArc
 50
0.1228456638
 51
90.133447036
  0
ARC
  5
433
330
1F
100
AcDbEntity
  8
0
  6
Continuous
 62
     7
370
    25
100
AcDbCircle
 10
57.2843349563
 20
10.0023542051
 30
0.0
 40
0.1875009581402789
100
AcDbArc
 50
0.1831684274
 51
179.8168315726
  0
ARC
  5
434
330
1F
100
AcDbEntity
  8
0
  6
Continuous
 62
     7
370
    25
100
AcDbCircle
 10
39.716999266
 20
10.0025525465
 30
0.0
 40
0.1870647397182954
100
AcDbArc
 50
89.866552964
 51
179.8771543362
  0
ARC
  5
435
330
1F
100
AcDbEntity
  8
0
  6
Continuous
 62
     7
370
    25
100
AcDbCircle
 10
39.7178706465
 20
10.0025525465
 30
0.0
 40
0.1870647397182723
100
AcDbArc
 50
0.1228456638
 51
90.133447036
  0
LINE
  5
436
330
1F
100
AcDbEntity
  8
0
  6
Continuous
 62
     7
370
    25
100
AcDbLine
 10
57.576167261
 20
15.5020638185
 30
0.0
 11
57.576167261
 21
15.5020634217
 31
0.0
  0
LINE
  5
437
330
1F
100
AcDbEntity
  8
0
  6
Continuous
 62
     7
370
    25
100
AcDbLine
 10
39.4256026516
 20
15.5020638185
 30
0.0
 11
39.4256026516
 21
15.5020634217
 31
0.0
  0
LINE
  5
438
330
1F
100
AcDbEntity
  8
0
  6
Continuous
 62
     7
370
    25
100
AcDbLine
 10
39.5156026516
 20
45.4686780749
 30
0.0
 11
39.5708349563
 21
45.4686780749
 31
0.0
  0
LINE
  5
439
330
1F
100
AcDbEntity
  8
0
  6
Continuous
 62
     7
370
    25
100
AcDbLine
 10
57.576167261
 20
45.4288566019
 30
0.0
 11
57.576167261
 21
45.3797519491
 31
0.0
  0
LINE
  5
43A
330
1F
100
AcDbEntity
  8
0
  6
Continuous
 62
     7
370
    25
100
AcDbLine
 10
39.4256026516
 20
45.4288566019
 30
0.0
 11
39.4756026516
 21
45.4288566019
 31
0.0
  0
LINE
  5
43B
330
1F
100
AcDbEntity
  8
0
  6
Continuous
 62
     7
370
    25
100
AcDbLine
 10
39.4256026516
 20
45.3797519491
 30
0.0
 11
39.4256026516
 21
45.4288566019
 31
0.0
  0
LINE
  5
43C
330
1F
100
AcDbEntity
  8
0
  6
Continuous
 62
     7
370
    25
100
AcDbLine
 10
39.4756026516
 20
45.38571376
 30
0.0
 11
39.4756026516
 21
45.4288566019
 31
0.0
  0
ARC
  5
43D
330
1F
100
AcDbEntity
  8
0
  6
Continuous
 62
     7
370
    25
100
AcDbCircle
 10
57.4863676557
 20
45.4286553088
 30
0.0
 40
0.0897998308558759
100
AcDbArc
 50
0.1284329599
 51
90.12785974
  0
ARC
  5
43E
330
1F
100
AcDbEntity
  8
0
  6
Continuous
 62
     7
370
    25
100
AcDbCircle
 10
57.4862509668
 20
45.4287002278
 30
0.0
 40
0.039961608600578
100
AcDbArc
 50
31.3083269618
 51
72.5026413829
  0
ARC
  5
43F
330
1F
100
AcDbEntity
  8
0
  6
Continuous
 62
     7
370
    25
100
AcDbCircle
 10
39.5155135873
 20
45.4287671383
 30
0.0
 40
0.0399110359358745
100
AcDbArc
 50
89.87214026
 51
179.8715670402
  0
ARC
  5
440
330
1F
100
AcDbEntity
  8
0
  6
Continuous
 62
     7
370
    25
100
AcDbCircle
 10
39.5154022568
 20
45.4286553088
 30
0.0
 40
0.089799830855833
100
AcDbArc
 50
89.87214026
 51
179.8715670401
  0
LINE
  5
441
330
1F
100
AcDbEntity
  8
0
  6
Continuous
 62
     7
370
    25
100
AcDbLine
 10
39.5156026516
 20
45.518454916
 30
0.0
 11
39.5156026516
 21
45.4686780749
 31
0.0
  0
LINE
  5
442
330
1F
100
AcDbEntity
  8
0
  6
Continuous
 62
     7
370
    25
100
AcDbLine
 10
57.4309349563
 20
45.518454916
 30
0.0
 11
57.486167261
 21
45.518454916
 31
0.0
  0
LINE
  5
443
330
1F
100
AcDbEntity
  8
0
  6
Continuous
 62
     7
370
    25
100
AcDbLine
 10
39.5156026516
 20
45.518454916
 30
0.0
 11
39.5708349563
 21
45.518454916
 31
0.0
  0
LINE
  5
444
330
1F
100
AcDbEntity
  8
0
  6
Continuous
 62
     7
370
    25
100
AcDbLine
 10
57.526167261
 20
15.5020634217
 30
0.0
 11
57.526167261
 21
15.452064023
 31
0.0
  0
LINE
  5
445
330
1F
100
AcDbEntity
  8
0
  6
Continuous
 62
     7
370
    25
100
AcDbLine
 10
57.576167261
 20
15.5020634217
 30
0.0
 11
57.576167261
 21
15.452064023
 31
0.0
  0
LINE
  5
446
330
1F
100
AcDbEntity
  8
0
  6
Continuous
 62
     7
370
    25
100
AcDbLine
 10
39.4256026516
 20
15.452064023
 30
0.0
 11
39.4256026516
 21
15.5020634217
 31
0.0
  0
LINE
  5
447
330
1F
100
AcDbEntity
  8
0
  6
Continuous
 62
     7
370
    25
100
AcDbLine
 10
39.4756026516
 20
15.452064023
 30
0.0
 11
39.4756026516
 21
15.5020634217
 31
0.0
  0
LINE
  5
448
330
1F
100
AcDbEntity
  8
0
  6
Continuous
 62
     7
370
    25
100
AcDbLine
 10
55.6102239563
 20
43.2737592669
 30
0.0
 11
56.9953285024
 21
44.6526813633
 31
0.0
  0
LINE
  5
449
330
1F
100
AcDbEntity
  8
0
  6
Continuous
 62
     7
370
    25
100
AcDbLine
 10
41.3915459563
 20
43.2737592669
 30
0.0
 11
55.6102239563
 21
43.2737592669
 31
0.0
  0
LINE
  5
44A
330
1F
100
AcDbEntity
  8
0
  6
Continuous
 62
     7
370
    25
100
AcDbLine
 10
40.0064416531
 20
44.6526811214
 30
0.0
 11
41.3915459563
 21
43.2737592669
 31
0.0
  0
LINE
  5
44B
330
1F
100
AcDbEntity
  8
0
  6
Continuous
 62
     7
370
    25
100
AcDbLine
 10
55.6102239563
 20
43.2690405718
 30
0.0
 11
55.6102239563
 21
43.2737592669
 31
0.0
  0
LINE
  5
44C
330
1F
100
AcDbEntity
  8
0
  6
Continuous
 62
     7
370
    25
100
AcDbLine
 10
41.3915459563
 20
43.2690405718
 30
0.0
 11
55.6102239563
 21
43.2690405718
 31
0.0
  0
LINE
  5
44D
330
1F
100
AcDbEntity
  8
0
  6
Continuous
 62
     7
370
    25
100
AcDbLine
 10
41.3915459563
 20
43.2690405718
 30
0.0
 11
41.3915459563
 21
43.2737592669
 31
0.0
  0
LINE
  5
44E
330
1F
100
AcDbEntity
  8
0
  6
Continuous
 62
     7
370
    25
100
AcDbLine
 10
55.6102239563
 20
43.2690405718
 30
0.0
 11
56.9948345699
 21
44.6474709404
 31
0.0
  0
LINE
  5
44F
330
1F
100
AcDbEntity
  8
0
  6
Continuous
 62
     7
370
    25
100
AcDbLine
 10
40.0069355856
 20
44.6474706986
 30
0.0
 11
41.3915459563
 21
43.2690405718
 31
0.0
  0
LINE
  5
450
330
1F
100
AcDbEntity
  8
0
  6
Continuous
 62
     7
370
    25
100
AcDbLine
 10
57.5265099563
 20
9.2744506724
 30
0.0
 11
39.5027599563
 21
9.2744506724
 31
0.0
  0
LINE
  5
451
330
1F
100
AcDbEntity
  8
0
  6
Continuous
 62
     7
370
    25
100
AcDbLine
 10
39.5027599563
 20
9.3213168336
 30
0.0
 11
39.5027599563
 21
9.2744506724
 31
0.0
  0
ARC
  5
452
330
1F
100
AcDbEntity
  8
0
  6
Continuous
 62
     7
370
    25
100
AcDbCircle
 10
57.3972776445
 20
9.2356147785
 30
0.0
 40
0.1349415319814618
100
AcDbArc
 50
16.7261672619
 51
39.4277799096
  0
LINE
  5
453
330
1F
100
AcDbEntity
  8
0
  6
Continuous
 62
     7
370
    25
100
AcDbLine
 10
57.5015099563
 20
9.3196181033
 30
0.0
 11
57.5015099563
 21
9.3213168336
 31
0.0
  0
ARC
  5
454
330
1F
100
AcDbEntity
  8
0
  6
Continuous
 62
     7
370
    25
100
AcDbCircle
 10
57.4637347667
 20
9.2598664141
 30
0.0
 40
0.0706910836751891
100
AcDbArc
 50
27.3743493923
 51
57.698808167
  0
LINE
  5
455
330
1F
100
AcDbEntity
  8
0
  6
Continuous
 62
     7
370
    25
100
AcDbLine
 10
57.5265099563
 20
9.2923703352
 30
0.0
 11
57.5265099563
 21
9.2744506724
 31
0.0
  0
LWPOLYLINE
  5
456
330
1F
100
AcDbEntity
  8
0
  6
Continuous
 62
     7
370
    25
100
AcDbPolyline
 90
        8
 70
   128
 43
0.0
 10
57.5015099563
 20
9.3282855913
 10
57.5152731199
 20
9.3176745427
 10
57.5229131039
 20
9.3130923753
 10
57.5301666584
 20
9.3090233026
 10
57.5363570766
 20
9.3055235218
 10
57.5409499354
 20
9.3026750917
 10
57.5436609267
 20
9.3005781541
 10
57.5445099563
 20
9.299339093
  0
LINE
  5
457
330
1F
100
AcDbEntity
  8
0
  6
Continuous
 62
     7
370
    25
100
AcDbLine
 10
57.5265099563
 20
9.299339093
 30
0.0
 11
57.5445099563
 21
9.299339093
 31
0.0
  0
ARC
  5
458
330
1F
100
AcDbEntity
  8
0
  6
Continuous
 62
     7
370
    25
100
AcDbCircle
 10
55.8615302636
 20
7.7968023832
 30
0.0
 40
2.242715751302344
100
AcDbArc
 50
42.0642138993
 51
43.00894366
  0
LINE
  5
459
330
1F
100
AcDbEntity
  8
0
  6
Continuous
 62
     7
370
    25
100
AcDbLine
 10
57.5015099563
 20
9.3265868611
 30
0.0
 11
57.5015099563
 21
9.3282855913
 31
0.0
  0
LINE
  5
45A
330
1F
100
AcDbEntity
  8
0
  6
Continuous
 62
     7
370
    25
100
AcDbLine
 10
57.5445099563
 20
9.3578890516
 30
0.0
 11
57.5445099563
 21
9.299339093
 31
0.0
  0
LINE
  5
45B
330
1F
100
AcDbEntity
  8
0
  6
Continuous
 62
     7
370
    25
100
AcDbLine
 10
56.9295326717
 20
9.6767234795
 30
0.0
 11
56.6988832408
 21
9.6767234795
 31
0.0
  0
LINE
  5
45C
330
1F
100
AcDbEntity
  8
0
  6
Continuous
 62
     7
370
    25
100
AcDbLine
 10
55.6318347373
 20
9.6767234795
 30
0.0
 11
41.3699349563
 21
9.6767234795
 31
0.0
  0
LINE
  5
45D
330
1F
100
AcDbEntity
  8
0
  6
Continuous
 62
     7
370
    25
100
AcDbLine
 10
40.3028866717
 20
9.6767234795
 30
0.0
 11
40.0722372408
 21
9.6767234795
 31
0.0
  0
LINE
  5
45E
330
1F
100
AcDbEntity
  8
0
  6
Continuous
 62
     7
370
    25
100
AcDbLine
 10
39.5027599563
 20
9.3220457985
 30
0.0
 11
39.5027599563
 21
9.3213168336
 31
0.0
  0
LINE
  5
45F
330
1F
100
AcDbEntity
  8
0
  6
Continuous
 62
     7
370
    25
100
AcDbLine
 10
57.5015099563
 20
9.3213168336
 30
0.0
 11
57.4959014929
 21
9.3269002654
 31
0.0
  0
LINE
  5
460
330
1F
100
AcDbEntity
  8
0
  6
Continuous
 62
     7
370
    25
100
AcDbLine
 10
39.8572599563
 20
9.8833090109
 30
0.0
 11
39.8572599563
 21
10.127316933
 31
0.0
  0
LINE
  5
461
330
1F
100
AcDbEntity
  8
0
  6
Continuous
 62
     7
370
    25
100
AcDbLine
 10
39.5002599563
 20
9.3238056756
 30
0.0
 11
39.5009921893
 21
9.3238056756
 31
0.0
  0
LINE
  5
462
330
1F
100
AcDbEntity
  8
0
  6
Continuous
 62
     7
370
    25
100
AcDbLine
 10
39.5009921893
 20
9.3221069454
 30
0.0
 11
39.5009921893
 21
9.3238056756
 31
0.0
  0
ARC
  5
463
330
1F
100
AcDbEntity
  8
0
  6
Continuous
 62
     7
370
    25
100
AcDbCircle
 10
39.4896057004
 20
9.2068535074
 30
0.0
 40
0.1174364629583199
100
AcDbArc
 50
84.7947647721
 51
105.9877522178
  0
LINE
  5
464
330
1F
100
AcDbEntity
  8
0
  6
Continuous
 62
     7
370
    25
100
AcDbLine
 10
39.5002599563
 20
9.3221069454
 30
0.0
 11
39.5002599563
 21
9.3238056756
 31
0.0
  0
ARC
  5
465
330
1F
100
AcDbEntity
  8
0
  6
Continuous
 62
     7
370
    25
100
AcDbCircle
 10
39.4940656215
 20
9.2541114987
 30
0.0
 40
0.0682770133480378
100
AcDbArc
 50
84.7947647721
 51
105.9877522178
  0
LINE
  5
466
330
1F
100
AcDbEntity
  8
0
  6
Continuous
 62
     7
370
    25
100
AcDbLine
 10
39.4752599563
 20
9.3197475978
 30
0.0
 11
39.4572599563
 21
9.3197475978
 31
0.0
  0
LINE
  5
467
330
1F
100
AcDbEntity
  8
0
  6
Continuous
 62
     7
370
    25
100
AcDbLine
 10
39.4572599563
 20
9.3197475978
 30
0.0
 11
39.4572599563
 21
9.3576347231
 31
0.0
  0
LINE
  5
468
330
1F
100
AcDbEntity
  8
0
  6
Continuous
 62
     7
370
    25
100
AcDbLine
 10
39.5002599563
 20
9.3221069454
 30
0.0
 11
39.5009921893
 21
9.3221069454
 31
0.0
  0
LINE
  5
469
330
1F
100
AcDbEntity
  8
0
  6
Continuous
 62
     7
370
    25
100
AcDbLine
 10
57.1445099563
 20
10.127316933
 30
0.0
 11
57.1445099563
 21
9.8833090109
 31
0.0
  0
LINE
  5
46A
330
1F
100
AcDbEntity
  8
0
  6
Continuous
 62
     7
370
    25
100
AcDbLine
 10
39.5027599563
 20
9.2744506724
 30
0.0
 11
39.5027599563
 21
9.2742147376
 31
0.0
  0
LINE
  5
46B
330
1F
100
AcDbEntity
  8
0
  6
Continuous
 62
     7
370
    25
100
AcDbLine
 10
39.5027599563
 20
9.2342473901
 30
0.0
 11
57.5265099563
 21
9.2342473901
 31
0.0
  0
LINE
  5
46C
330
1F
100
AcDbEntity
  8
0
  6
Continuous
 62
     7
370
    25
100
AcDbLine
 10
39.5027599563
 20
9.2344833248
 30
0.0
 11
39.5027599563
 21
9.2342473901
 31
0.0
  0
LINE
  5
46D
330
1F
100
AcDbEntity
  8
0
  6
Continuous
 62
     7
370
    25
100
AcDbLine
 10
39.5002599563
 20
9.2344833248
 30
0.0
 11
39.5027599563
 21
9.2344833248
 31
0.0
  0
LINE
  5
46E
330
1F
100
AcDbEntity
  8
0
  6
Continuous
 62
     7
370
    25
100
AcDbLine
 10
39.5002599563
 20
9.2742147376
 30
0.0
 11
39.5002599563
 21
9.2344833248
 31
0.0
  0
LINE
  5
46F
330
1F
100
AcDbEntity
  8
0
  6
Continuous
 62
     7
370
    25
100
AcDbLine
 10
39.5002599563
 20
9.2742147376
 30
0.0
 11
39.5027599563
 21
9.2742147376
 31
0.0
  0
LINE
  5
470
330
1F
100
AcDbEntity
  8
0
  6
Continuous
 62
     7
370
    25
100
AcDbLine
 10
57.5265099563
 20
9.2744506724
 30
0.0
 11
57.5265099563
 21
9.2342473901
 31
0.0
  0
LINE
  5
471
330
1F
100
AcDbEntity
  8
0
  6
Continuous
 62
     7
370
    25
100
AcDbLine
 10
57.5265099563
 20
9.2591358107
 30
0.0
 11
57.5445099563
 21
9.2591358107
 31
0.0
  0
LINE
  5
472
330
1F
100
AcDbEntity
  8
0
  6
Continuous
 62
     7
370
    25
100
AcDbLine
 10
57.5265099563
 20
9.299339093
 30
0.0
 11
57.5265099563
 21
9.299339093
 31
0.0
  0
LINE
  5
473
330
1F
100
AcDbEntity
  8
0
  6
Continuous
 62
     7
370
    25
100
AcDbLine
 10
57.5445099563
 20
9.299339093
 30
0.0
 11
57.5445099563
 21
9.2591358107
 31
0.0
  0
LINE
  5
474
330
1F
100
AcDbEntity
  8
0
  6
Continuous
 62
     7
370
    25
100
AcDbLine
 10
39.5002599563
 20
9.2921344004
 30
0.0
 11
39.5002599563
 21
9.2742147376
 31
0.0
  0
LINE
  5
475
330
1F
100
AcDbEntity
  8
0
  6
Continuous
 62
     7
370
    25
100
AcDbLine
 10
39.5002599563
 20
9.2921344004
 30
0.0
 11
39.5027599563
 21
9.2921344004
 31
0.0
  0
ARC
  5
476
330
1F
100
AcDbEntity
  8
0
  6
Continuous
 62
     7
370
    25
100
AcDbCircle
 10
39.5001642121
 20
9.2773875816
 30
0.0
 40
0.0429043636311447
100
AcDbArc
 50
180.1284329599
 51
270.1278597399
  0
LINE
  5
477
330
1F
100
AcDbEntity
  8
0
  6
Continuous
 62
     7
370
    25
100
AcDbLine
 10
39.4572599563
 20
9.2772914082
 30
0.0
 11
39.4572599563
 21
9.317022821
 31
0.0
  0
ARC
  5
478
330
1F
100
AcDbEntity
  8
0
  6
Continuous
 62
     7
370
    25
100
AcDbCircle
 10
39.5001642121
 20
9.3171189944
 30
0.0
 40
0.0429043636310627
100
AcDbArc
 50
180.1284329597
 51
270.12785974
  0
LINE
  5
479
330
1F
100
AcDbEntity
  8
0
  6
Continuous
 62
     7
370
    25
100
AcDbLine
 10
39.4752599563
 20
9.317022821
 30
0.0
 11
39.4572599563
 21
9.317022821
 31
0.0
  0
ARC
  5
47A
330
1F
100
AcDbEntity
  8
0
  6
Continuous
 62
     7
370
    25
100
AcDbCircle
 10
39.5002042911
 20
9.3170787358
 30
0.0
 40
0.0249443974599746
100
AcDbArc
 50
180.1284329599
 51
270.1278597399
  0
LINE
  5
47B
330
1F
100
AcDbEntity
  8
0
  6
Continuous
 62
     7
370
    25
100
AcDbLine
 10
39.4752599563
 20
9.3195116631
 30
0.0
 11
39.4572599563
 21
9.3195116631
 31
0.0
  0
LINE
  5
47C
330
1F
100
AcDbEntity
  8
0
  6
Continuous
 62
     7
370
    25
100
AcDbLine
 10
39.4572599563
 20
9.3195116631
 30
0.0
 11
39.4572599563
 21
9.3197475978
 31
0.0
  0
LINE
  5
47D
330
1F
100
AcDbEntity
  8
0
  6
Continuous
 62
     7
370
    25
100
AcDbLine
 10
39.4752599563
 20
9.3195116631
 30
0.0
 11
39.4752599563
 21
9.3197475978
 31
0.0
  0
LINE
  5
47E
330
1F
100
AcDbEntity
  8
0
  6
Continuous
 62
     7
370
    25
100
AcDbLine
 10
39.4572599563
 20
9.3195116631
 30
0.0
 11
39.4572599563
 21
9.317022821
 31
0.0
  0
LINE
  5
47F
330
1F
100
AcDbEntity
  8
0
  6
Continuous
 62
     7
370
    25
100
AcDbLine
 10
39.4752599563
 20
9.3195116631
 30
0.0
 11
39.4752599563
 21
9.317022821
 31
0.0
  0
LINE
  5
480
330
1F
100
AcDbEntity
  8
0
  6
Continuous
 62
     7
370
    25
100
AcDbLine
 10
39.5027599563
 20
9.2342473901
 30
0.0
 11
39.5027599563
 21
9.2340554735
 31
0.0
  0
LWPOLYLINE
  5
481
330
1F
100
AcDbEntity
  8
0
  6
Continuous
 62
     7
370
    25
100
AcDbPolyline
 90
        3
 70
   128
 43
0.0
 10
57.5445099563
 20
9.2591358107
 10
57.5436609267
 20
9.2587700082
 10
57.5424262822
 20
9.2589832684
  0
LINE
  5
482
330
1F
100
AcDbEntity
  8
0
  6
Continuous
 62
     8
370
    25
100
AcDbLine
 10
39.5156026516
 20
15.5020640877
 30
0.0
 11
39.5156026516
 21
9.3273670521
 31
0.0
  0
LINE
  5
483
330
1F
100
AcDbEntity
  8
0
  6
Continuous
 62
     8
370
    25
100
AcDbLine
 10
57.486167261
 20
9.3273671831
 30
0.0
 11
57.486167261
 21
15.5020640479
 31
0.0
  0
LINE
  5
484
330
1F
100
AcDbEntity
  8
0
  6
Continuous
 62
     8
370
    25
100
AcDbLine
 10
57.2432063984
 20
45.1634117879
 30
0.0
 11
57.145564621
 21
45.1634117879
 31
0.0
  0
LINE
  5
485
330
1F
100
AcDbEntity
  8
0
  6
Continuous
 62
     8
370
    25
100
AcDbLine
 10
39.8562052963
 20
45.1634117879
 30
0.0
 11
39.7585637701
 21
45.1634117879
 31
0.0
  0
LINE
  5
486
330
1F
100
AcDbEntity
  8
0
  6
Continuous
 62
     8
370
    25
100
AcDbLine
 10
39.5156026516
 20
45.3882396353
 30
0.0
 11
39.5156026516
 21
45.4686780749
 31
0.0
  0
LINE
  5
487
330
1F
100
AcDbEntity
  8
0
  6
Continuous
 62
     8
370
    25
100
AcDbLine
 10
57.486167261
 20
45.4504436091
 30
0.0
 11
57.486167261
 21
45.3946567319
 31
0.0
  0
LINE
  5
488
330
1F
100
AcDbEntity
  8
0
  6
Continuous
 62
     8
370
    25
100
AcDbLine
 10
57.5612304345
 20
45.4288566019
 30
0.0
 11
57.576167261
 21
45.4288566019
 31
0.0
  0
LINE
  5
489
330
1F
100
AcDbEntity
  8
0
  6
Continuous
 62
     8
370
    25
100
AcDbLine
 10
57.486167261
 20
45.4877112225
 30
0.0
 11
57.486167261
 21
45.518454916
 31
0.0
  0
LINE
  5
48A
330
1F
100
AcDbEntity
  8
0
  6
Continuous
 62
     8
370
    25
100
AcDbLine
 10
57.1974011764
 20
45.1198153589
 30
0.0
 11
57.0954100489
 21
45.1198153589
 31
0.0
  0
LINE
  5
48B
330
1F
100
AcDbEntity
  8
0
  6
Continuous
 62
     8
370
    25
100
AcDbLine
 10
39.9063598636
 20
45.1198153589
 30
0.0
 11
39.8043689878
 21
45.1198153589
 31
0.0
  0
LINE
  5
48C
330
1F
100
AcDbEntity
  8
0
  6
Continuous
 62
     8
370
    25
100
AcDbLine
 10
39.5027599563
 20
9.3213168336
 30
0.0
 11
39.518825697
 21
9.3213168336
 31
0.0
  0
LINE
  5
48D
330
1F
100
AcDbEntity
  8
0
  6
Continuous
 62
     8
370
    25
100
AcDbLine
 10
41.3066461039
 20
9.3213168336
 30
0.0
 11
55.6951235679
 21
9.3213168336
 31
0.0
  0
LINE
  5
48E
330
1F
100
AcDbEntity
  8
0
  6
Continuous
 62
     8
370
    25
100
AcDbLine
 10
57.4829439066
 20
9.3213168336
 30
0.0
 11
57.5015099563
 21
9.3213168336
 31
0.0
  0
LINE
  5
48F
330
1F
100
AcDbEntity
  8
0
  6
Continuous
 62
     8
370
    25
100
AcDbLine
 10
39.5002599563
 20
9.2921344004
 30
0.0
 11
39.5002599563
 21
9.3221069454
 31
0.0
  0
DIMENSION
  5
490
330
1F
100
AcDbEntity
  8
DIMS
100
AcDbDimension
  2
_D_5
 10
37.3782325728
 20
9.2342473901
 30
0.0
 11
37.3782325728
 21
13.8387223798
 31
0.0
 70
   160
  1
<>
 71
     2
 42
-1.0
  3
SLDDIMSTYLE1
100
AcDbAlignedDimension
 13
39.8713188744
 23
18.017263461
 33
0.0
 14
39.5027599563
 24
9.2342473901
 34
0.0
 50
90.0
100
AcDbRotatedDimension
  0
DIMENSION
  5
49F
330
1F
100
AcDbEntity
  8
DIMS
100
AcDbDimension
  2
_D_6
 10
37.3782325728
 20
18.017263461
 30
0.0
 11
37.3782325728
 21
28.9932193811
 31
0.0
 70
   160
  1
<>
 71
     2
 42
-1.0
  3
SLDDIMSTYLE1
100
AcDbAlignedDimension
 13
39.8680996766
 23
40.1049358368
 33
0.0
 14
39.8713188744
 24
18.017263461
 34
0.0
 50
90.0
100
AcDbRotatedDimension
  0
DIMENSION
  5
4AE
330
1F
100
AcDbEntity
  8
DIMS
100
AcDbDimension
  2
_D_7
 10
37.3782325728
 20
40.1049358368
 30
0.0
 11
37.3782325728
 21
42.616976518
 31
0.0
 70
   160
  1
<>
 71
     2
 42
-1.0
  3
SLDDIMSTYLE1
100
AcDbAlignedDimension
 13
39.5708349563
 23
45.5224594683
 33
0.0
 14
39.8680996766
 24
40.1049358368
 34
0.0
 50
90.0
100
AcDbRotatedDimension
  0
DIMENSION
  5
4BD
330
1F
100
AcDbEntity
  8
DIMS
100
AcDbDimension
  2
_D_8
 10
57.1304510381
 20
47.1074166771
 30
0.0
 11
48.9057695887
 21
47.1074166771
 31
0.0
 70
   160
  1
<>
 71
     2
 42
-1.0
  3
SLDDIMSTYLE1
100
AcDbAlignedDimension
 13
39.8713188744
 23
18.017263461
 33
0.0
 14
57.1304510381
 24
18.017263461
 34
0.0
100
AcDbRotatedDimension
  0
DIMENSION
  5
4CC
330
1F
100
AcDbEntity
  8
DIMS
100
AcDbDimension
  2
_D_9
 10
57.0828025381
 20
18.0997930839
 30
0.0
 11
63.468389619
 21
14.4049673033
 31
0.0
 70
   163
  1
<> mounting hole (4)
 71
     1
 42
-1.0
  3
SLDDIMSTYLE2
100
AcDbDiametricDimension
 15
57.1780995381
 25
17.9347338381
 35
0.0
 40
0.0
  0
MTEXT
  5
4DA
330
1F
100
AcDbEntity
  8
NOTES
100
AcDbMText
 10
46.5488921127
 20
8.4432460454
 30
0.0
 40
0.5
 41
0.0
 71
     1
 72
     1
  1
Back view
  7
SLDTEXTSTYLE1
 73
     1
 44
1.0
  0
LINE
  5
4DB
330
1F
100
AcDbEntity
  8
0
  6
Continuous
 62
     7
370
    25
100
AcDbLine
 10
90.6893260349
 20
15.1111217244
 30
0.0
 11
90.6893260349
 21
39.5109387189
 31
0.0
  0
LINE
  5
4DC
330
1F
100
AcDbEntity
  8
0
  6
Continuous
 62
     7
370
    25
100
AcDbLine
 10
90.5875836689
 20
39.641121221
 30
0.0
 11
77.9585858462
 21
46.93168648
 31
0.0
  0
LINE
  5
4DD
330
1F
100
AcDbEntity
  8
0
  6
Continuous
 62
     7
370
    25
100
AcDbLine
 10
77.7937136402
 20
46.9299638444
 30
0.0
 11
75.556195179
 21
45.3933350943
 31
0.0
  0
LINE
  5
4DE
330
1F
100
AcDbEntity
  8
0
  6
Continuous
 62
     7
370
    25
100
AcDbLine
 10
88.2085566815
 20
37.9604469263
 30
0.0
 11
86.0492018329
 21
39.2070159464
 31
0.0
  0
LINE
  5
4DF
330
1F
100
AcDbEntity
  8
0
  6
Continuous
 62
     7
370
    25
100
AcDbLine
 10
77.6773537538
 20
44.0399809699
 30
0.0
 11
75.4832862706
 21
45.3065891675
 31
0.0
  0
LINE
  5
4E0
330
1F
100
AcDbEntity
  8
0
  6
Continuous
 62
     7
370
    25
100
AcDbLine
 10
90.6339513386
 20
10.0494312608
 30
0.0
 11
90.5906182042
 21
10.5522751629
 31
0.0
  0
LINE
  5
4E1
330
1F
100
AcDbEntity
  8
0
  6
Continuous
 62
     7
370
    25
100
AcDbLine
 10
88.2753133961
 20
37.4194039683
 30
0.0
 11
88.2318342446
 21
37.9239422732
 31
0.0
  0
LINE
  5
4E2
330
1F
100
AcDbEntity
  8
0
  6
Continuous
 62
     7
370
    25
100
AcDbLine
 10
75.4339175503
 20
45.304607084
 30
0.0
 11
75.1375542473
 21
45.1010778708
 31
0.0
  0
LINE
  5
4E3
330
1F
100
AcDbEntity
  8
0
  6
Continuous
 62
     7
370
    25
100
AcDbLine
 10
75.1174628067
 20
45.0587953304
 30
0.0
 11
77.5209545493
 21
17.168332699
 31
0.0
  0
LINE
  5
4E4
330
1F
100
AcDbEntity
  8
0
  6
Continuous
 62
     7
370
    25
100
AcDbLine
 10
90.317496595
 20
9.8036195071
 30
0.0
 11
90.6138598981
 21
10.0071487204
 31
0.0
  0
LINE
  5
4E5
330
1F
100
AcDbEntity
  8
0
  6
Continuous
 62
     7
370
    25
100
AcDbLine
 10
77.5286091166
 20
17.1560050607
 30
0.0
 11
90.2681278748
 21
9.8016374237
 31
0.0
  0
LINE
  5
4E6
330
1F
100
AcDbEntity
  8
0
  6
Continuous
 62
     7
370
    25
100
AcDbLine
 10
77.5375807298
 20
17.1717690854
 30
0.0
 11
77.5287332496
 21
17.1622249017
 31
0.0
  0
LINE
  5
4E7
330
1F
100
AcDbEntity
  8
0
  6
Continuous
 62
     7
370
    25
100
AcDbLine
 10
87.8864958095
 20
37.7169055623
 30
0.0
 11
87.9002988411
 21
37.7263848741
 31
0.0
  0
LINE
  5
4E8
330
1F
100
AcDbEntity
  8
0
  6
Continuous
 62
     7
370
    25
100
AcDbLine
 10
87.8864958095
 20
37.7169055623
 30
0.0
 11
87.8743550397
 21
37.7239142795
 31
0.0
  0
LINE
  5
4E9
330
1F
100
AcDbEntity
  8
0
  6
Continuous
 62
     7
370
    25
100
AcDbLine
 10
87.8880820304
 20
37.6984988284
 30
0.0
 11
87.8864958095
 21
37.7169055623
 31
0.0
  0
LINE
  5
4EA
330
1F
100
AcDbEntity
  8
0
  6
Continuous
 62
     7
370
    25
100
AcDbLine
 10
77.6009644859
 20
17.2100491952
 30
0.0
 11
77.6045221443
 21
17.2079954027
 31
0.0
  0
LINE
  5
4EB
330
1F
100
AcDbEntity
  8
0
  6
Continuous
 62
     7
370
    25
100
AcDbLine
 10
77.6009527357
 20
17.2101855463
 30
0.0
 11
77.6009644859
 21
17.2100491952
 31
0.0
  0
LINE
  5
4EC
330
1F
100
AcDbEntity
  8
0
  6
Continuous
 62
     7
370
    25
100
AcDbLine
 10
85.3855110472
 20
39.5810814542
 30
0.0
 11
78.3144432354
 21
43.6631220133
 31
0.0
  0
LINE
  5
4ED
330
1F
100
AcDbEntity
  8
0
  6
Continuous
 62
     7
370
    25
100
AcDbLine
 10
85.6788208133
 20
39.4086297727
 30
0.0
 11
85.3855110472
 21
39.5810814542
 31
0.0
  0
LINE
  5
4EE
330
1F
100
AcDbEntity
  8
0
  6
Continuous
 62
     7
370
    25
100
AcDbLine
 10
88.5012148431
 20
34.8095946782
 30
0.0
 11
88.3286333872
 21
36.6912146165
 31
0.0
  0
LINE
  5
4EF
330
1F
100
AcDbEntity
  8
0
  6
Continuous
 62
     7
370
    25
100
AcDbLine
 10
90.3697227746
 20
13.1271608595
 30
0.0
 11
88.5012148431
 21
34.8095946782
 31
0.0
  0
LINE
  5
4F0
330
1F
100
AcDbEntity
  8
0
  6
Continuous
 62
     7
370
    25
100
AcDbLine
 10
90.5203505536
 20
11.2582145182
 30
0.0
 11
90.3697227746
 21
13.1271608595
 31
0.0
  0
LINE
  5
4F1
330
1F
100
AcDbEntity
  8
0
  6
Continuous
 62
     7
370
    25
100
AcDbLine
 10
78.3144432354
 20
43.6631220133
 30
0.0
 11
78.0217007312
 21
43.828991106
 31
0.0
  0
LINE
  5
4F2
330
1F
100
AcDbEntity
  8
0
  6
Continuous
 62
     7
370
    25
100
AcDbLine
 10
85.3981821623
 20
39.5897834158
 30
0.0
 11
85.3855110472
 21
39.5810814542
 31
0.0
  0
LINE
  5
4F3
330
1F
100
AcDbEntity
  8
0
  6
Continuous
 62
     7
370
    25
100
AcDbLine
 10
86.2049716731
 20
39.1154309602
 30
0.0
 11
85.3981821623
 21
39.5897834158
 31
0.0
  0
LINE
  5
4F4
330
1F
100
AcDbEntity
  8
0
  6
Continuous
 62
     7
370
    25
100
AcDbLine
 10
88.5138859581
 20
34.8182966398
 30
0.0
 11
88.5012148431
 21
34.8095946782
 31
0.0
  0
LINE
  5
4F5
330
1F
100
AcDbEntity
  8
0
  6
Continuous
 62
     7
370
    25
100
AcDbLine
 10
88.5138859581
 20
34.8182966398
 30
0.0
 11
88.2585835727
 21
37.6018057751
 31
0.0
  0
LINE
  5
4F6
330
1F
100
AcDbEntity
  8
0
  6
Continuous
 62
     7
370
    25
100
AcDbLine
 10
78.3271143505
 20
43.6718239749
 30
0.0
 11
78.3144432354
 21
43.6631220133
 31
0.0
  0
LINE
  5
4F7
330
1F
100
AcDbEntity
  8
0
  6
Continuous
 62
     7
370
    25
100
AcDbLine
 10
85.3981821623
 20
39.5897834158
 30
0.0
 11
78.3271143505
 21
43.6718239749
 31
0.0
  0
LINE
  5
4F8
330
1F
100
AcDbEntity
  8
0
  6
Continuous
 62
     7
370
    25
100
AcDbLine
 10
90.3823938897
 20
13.1358628211
 30
0.0
 11
90.3697227746
 21
13.1271608595
 31
0.0
  0
LINE
  5
4F9
330
1F
100
AcDbEntity
  8
0
  6
Continuous
 62
     7
370
    25
100
AcDbLine
 10
90.3823938897
 20
13.1358628211
 30
0.0
 11
88.5138859581
 21
34.8182966398
 31
0.0
  0
LINE
  5
4FA
330
1F
100
AcDbEntity
  8
0
  6
Continuous
 62
     7
370
    25
100
AcDbLine
 10
78.3271143505
 20
43.6718239749
 30
0.0
 11
77.521885173
 21
44.1280700997
 31
0.0
  0
LINE
  5
4FB
330
1F
100
AcDbEntity
  8
0
  6
Continuous
 62
     7
370
    25
100
AcDbLine
 10
90.6052198659
 20
10.371101927
 30
0.0
 11
90.3823938897
 21
13.1358628211
 31
0.0
  0
ARC
  5
4FC
330
1F
100
AcDbEntity
  8
0
  6
Continuous
 62
     7
370
    25
100
AcDbCircle
 10
88.2282091378
 20
37.9248044759
 30
0.0
 40
0.1512840100400523
100
AcDbArc
 50
8.3407899755
 51
58.0580365419
  0
LINE
  5
4FD
330
1F
100
AcDbEntity
  8
0
  6
Continuous
 62
     7
370
    25
100
AcDbLine
 10
88.3425376428
 20
37.967160032
 30
0.0
 11
88.3778929819
 21
37.9467498292
 31
0.0
  0
ARC
  5
4FE
330
1F
100
AcDbEntity
  8
0
  6
Continuous
 62
     7
370
    25
100
AcDbCircle
 10
88.2760114899
 20
37.9574065417
 30
0.0
 40
0.0672373377958325
100
AcDbArc
 50
8.3407899757
 51
58.0580365419
  0
LINE
  5
4FF
330
1F
100
AcDbEntity
  8
0
  6
Continuous
 62
     7
370
    25
100
AcDbLine
 10
88.3115840745
 20
38.0144630997
 30
0.0
 11
88.3082474532
 21
38.0531817315
 31
0.0
  0
LINE
  5
500
330
1F
100
AcDbEntity
  8
0
  6
Continuous
 62
     7
370
    25
100
AcDbLine
 10
88.3778929819
 20
37.9467498292
 30
0.0
 11
90.6154114431
 21
39.4833785794
 31
0.0
  0
LINE
  5
501
330
1F
100
AcDbEntity
  8
0
  6
Continuous
 62
     7
370
    25
100
AcDbLine
 10
88.3082474532
 20
38.0531817315
 30
0.0
 11
90.5457659144
 21
39.5898104817
 31
0.0
  0
ARC
  5
502
330
1F
100
AcDbEntity
  8
0
  6
Continuous
 62
     7
370
    25
100
AcDbCircle
 10
90.4657275991
 20
39.461433226
 30
0.0
 40
0.1512840100393412
100
AcDbArc
 50
8.3407899754
 51
58.0580365421
  0
ARC
  5
503
330
1F
100
AcDbEntity
  8
0
  6
Continuous
 62
     7
370
    25
100
AcDbCircle
 10
75.6855639999
 20
45.2236770073
 30
0.0
 40
0.1433204179808117
100
AcDbArc
 50
126.3179312478
 51
161.8093060502
  0
LINE
  5
504
330
1F
100
AcDbEntity
  8
0
  6
Continuous
 62
     7
370
    25
100
AcDbLine
 10
75.6006802792
 20
45.3391564261
 30
0.0
 11
88.2296781018
 21
38.0485911671
 31
0.0
  0
ARC
  5
505
330
1F
100
AcDbEntity
  8
0
  6
Continuous
 62
     7
370
    25
100
AcDbCircle
 10
88.3145618226
 20
37.9331117483
 30
0.0
 40
0.143320417978256
100
AcDbArc
 50
126.3179312475
 51
161.8093060506
  0
LINE
  5
506
330
1F
100
AcDbEntity
  8
0
  6
Continuous
 62
     7
370
    25
100
AcDbLine
 10
88.2296781018
 20
38.0485911671
 30
0.0
 11
88.2330147231
 21
38.0098725353
 31
0.0
  0
ARC
  5
507
330
1F
100
AcDbEntity
  8
0
  6
Continuous
 62
     7
370
    25
100
AcDbCircle
 10
88.2689118455
 20
37.9599440781
 30
0.0
 40
0.061493530016258
100
AcDbArc
 50
125.715046907
 51
178.9249326506
  0
ARC
  5
508
330
1F
100
AcDbEntity
  8
0
  6
Continuous
 62
     7
370
    25
100
AcDbCircle
 10
90.6298921831
 20
10.1344059264
 30
0.0
 40
0.0625481535756804
100
AcDbArc
 50
271.9454822339
 51
351.8473926105
  0
ARC
  5
509
330
1F
100
AcDbEntity
  8
0
  6
Continuous
 62
     7
370
    25
100
AcDbCircle
 10
88.2715607563
 20
37.9887027743
 30
0.0
 40
0.1322249327361142
100
AcDbArc
 50
254.9638924139
 51
302.2226713143
  0
LINE
  5
50A
330
1F
100
AcDbEntity
  8
0
  6
Continuous
 62
     7
370
    25
100
AcDbLine
 10
88.3420645534
 20
37.8768428286
 30
0.0
 11
90.7110562281
 21
10.3867239287
 31
0.0
  0
LINE
  5
50B
330
1F
100
AcDbEntity
  8
0
  6
Continuous
 62
     7
370
    25
100
AcDbLine
 10
90.6918082168
 20
10.1255359612
 30
0.0
 11
90.7110562281
 21
10.3867239287
 31
0.0
  0
ARC
  5
50C
330
1F
100
AcDbEntity
  8
0
  6
Continuous
 62
     7
370
    25
100
AcDbCircle
 10
88.2758543638
 20
37.9451420187
 30
0.0
 40
0.0569682095610108
100
AcDbArc
 50
243.3106321312
 51
302.7936630744
  0
LINE
  5
50D
330
1F
100
AcDbEntity
  8
0
  6
Continuous
 62
     7
370
    25
100
AcDbLine
 10
88.3067092143
 20
37.8972530314
 30
0.0
 11
88.3420645534
 21
37.8768428286
 31
0.0
  0
LINE
  5
50E
330
1F
100
AcDbEntity
  8
0
  6
Continuous
 62
     7
370
    25
100
AcDbLine
 10
77.9075835849
 20
46.9234356196
 30
0.0
 11
77.8777129546
 21
46.9029217914
 31
0.0
  0
LINE
  5
50F
330
1F
100
AcDbEntity
  8
0
  6
Continuous
 62
     7
370
    25
100
AcDbLine
 10
77.9075835849
 20
46.9234356196
 30
0.0
 11
90.5365814076
 21
39.6328703607
 31
0.0
  0
LINE
  5
510
330
1F
100
AcDbEntity
  8
0
  6
Continuous
 62
     7
370
    25
100
AcDbLine
 10
90.5067107773
 20
39.6123565325
 30
0.0
 11
90.5365814076
 21
39.6328703607
 31
0.0
  0
LINE
  5
511
330
1F
100
AcDbEntity
  8
0
  6
Continuous
 62
     7
370
    25
100
AcDbLine
 10
90.5457659144
 20
39.5898104817
 30
0.0
 11
90.5067107773
 21
39.6123565325
 31
0.0
  0
LINE
  5
512
330
1F
100
AcDbEntity
  8
0
  6
Continuous
 62
     7
370
    25
100
AcDbLine
 10
88.269192316
 20
38.0757277823
 30
0.0
 11
88.3082474532
 21
38.0531817315
 31
0.0
  0
LINE
  5
513
330
1F
100
AcDbEntity
  8
0
  6
Continuous
 62
     7
370
    25
100
AcDbLine
 10
88.2296781018
 20
38.0485911671
 30
0.0
 11
88.269192316
 21
38.0757277823
 31
0.0
  0
LINE
  5
514
330
1F
100
AcDbEntity
  8
0
  6
Continuous
 62
     7
370
    25
100
AcDbLine
 10
75.6401944933
 20
45.3662930413
 30
0.0
 11
75.6006802792
 21
45.3391564261
 31
0.0
  0
LINE
  5
515
330
1F
100
AcDbEntity
  8
0
  6
Continuous
 62
     7
370
    25
100
AcDbLine
 10
75.6011393562
 20
45.3888390921
 30
0.0
 11
75.6401944933
 21
45.3662930413
 31
0.0
  0
LINE
  5
516
330
1F
100
AcDbEntity
  8
0
  6
Continuous
 62
     7
370
    25
100
AcDbLine
 10
77.8386578174
 20
46.9254678422
 30
0.0
 11
75.6011393562
 21
45.3888390921
 31
0.0
  0
LINE
  5
517
330
1F
100
AcDbEntity
  8
0
  6
Continuous
 62
     7
370
    25
100
AcDbLine
 10
77.8777129546
 20
46.9029217914
 30
0.0
 11
77.8386578174
 21
46.9254678422
 31
0.0
  0
LINE
  5
518
330
1F
100
AcDbEntity
  8
0
  6
Continuous
 62
     7
370
    25
100
AcDbLine
 10
90.6190972288
 20
39.440608194
 30
0.0
 11
90.6154114431
 21
39.4833785794
 31
0.0
  0
LINE
  5
519
330
1F
100
AcDbEntity
  8
0
  6
Continuous
 62
     7
370
    25
100
AcDbLine
 10
90.6629656452
 20
39.4707350828
 30
0.0
 11
90.6190972288
 21
39.440608194
 31
0.0
  0
LINE
  5
51A
330
1F
100
AcDbEntity
  8
0
  6
Continuous
 62
     7
370
    25
100
AcDbLine
 10
90.6629656452
 20
39.4707350828
 30
0.0
 11
90.6629656452
 21
15.0743833594
 31
0.0
  0
LINE
  5
51B
330
1F
100
AcDbEntity
  8
0
  6
Continuous
 62
     7
370
    25
100
AcDbLine
 10
90.6629656452
 20
15.0743833594
 30
0.0
 11
90.5696354045
 21
15.0205046342
 31
0.0
  0
LINE
  5
51C
330
1F
100
AcDbEntity
  8
0
  6
Continuous
 62
     7
370
    25
100
AcDbLine
 10
90.5696355108
 20
14.979677655
 30
0.0
 11
90.5696354045
 21
15.0205046342
 31
0.0
  0
LINE
  5
51D
330
1F
100
AcDbEntity
  8
0
  6
Continuous
 62
     7
370
    25
100
AcDbLine
 10
90.7110568671
 20
15.0613189572
 30
0.0
 11
90.5696355108
 21
14.979677655
 31
0.0
  0
LINE
  5
51E
330
1F
100
AcDbEntity
  8
0
  6
Continuous
 62
     7
370
    25
100
AcDbLine
 10
90.7110568671
 20
15.0613189572
 30
0.0
 11
90.7110562281
 21
10.3867239287
 31
0.0
  0
LINE
  5
51F
330
1F
100
AcDbEntity
  8
0
  6
Continuous
 62
     7
370
    25
100
AcDbLine
 10
88.3815787676
 20
37.9039794438
 30
0.0
 11
88.3420645534
 21
37.8768428286
 31
0.0
  0
LINE
  5
520
330
1F
100
AcDbEntity
  8
0
  6
Continuous
 62
     7
370
    25
100
AcDbLine
 10
88.3778929819
 20
37.9467498292
 30
0.0
 11
88.3815787676
 21
37.9039794438
 31
0.0
  0
LINE
  5
521
330
1F
100
AcDbEntity
  8
0
  6
Continuous
 62
     7
370
    25
100
AcDbLine
 10
88.269192316
 20
38.0757277823
 30
0.0
 11
88.2725289373
 21
38.0370091505
 31
0.0
  0
LINE
  5
522
330
1F
100
AcDbEntity
  8
0
  6
Continuous
 62
     7
370
    25
100
AcDbLine
 10
88.2725289373
 20
38.0370091505
 30
0.0
 11
88.3115840745
 21
38.0144630997
 31
0.0
  0
LINE
  5
523
330
1F
100
AcDbEntity
  8
0
  6
Continuous
 62
     7
370
    25
100
AcDbLine
 10
88.2330147231
 20
38.0098725353
 30
0.0
 11
88.2725289373
 21
38.0370091505
 31
0.0
  0
LINE
  5
524
330
1F
100
AcDbEntity
  8
0
  6
Continuous
 62
     7
370
    25
100
AcDbLine
 10
88.3815787676
 20
37.9039794438
 30
0.0
 11
88.3462234285
 21
37.9243896466
 31
0.0
  0
LINE
  5
525
330
1F
100
AcDbEntity
  8
0
  6
Continuous
 62
     7
370
    25
100
AcDbLine
 10
88.3425376428
 20
37.967160032
 30
0.0
 11
88.3462234285
 21
37.9243896466
 31
0.0
  0
LINE
  5
526
330
1F
100
AcDbEntity
  8
0
  6
Continuous
 62
     7
370
    25
100
AcDbLine
 10
88.3462234285
 20
37.9243896466
 30
0.0
 11
88.3067092143
 21
37.8972530314
 31
0.0
  0
LINE
  5
527
330
1F
100
AcDbEntity
  8
0
  6
Continuous
 62
     7
370
    25
100
AcDbLine
 10
88.2095494673
 20
37.9360791781
 30
0.0
 11
88.2093889486
 21
37.9379418602
 31
0.0
  0
LINE
  5
528
330
1F
100
AcDbEntity
  8
0
  6
Continuous
 62
     7
370
    25
100
AcDbLine
 10
88.2502669095
 20
37.8942435012
 30
0.0
 11
88.2335625543
 21
37.9038867202
 31
0.0
  0
ARC
  5
529
330
1F
100
AcDbEntity
  8
0
  6
Continuous
 62
     7
370
    25
100
AcDbCircle
 10
90.644009458
 20
39.5109387189
 30
0.0
 40
0.0444485026666336
100
AcDbArc
 50
295.244078923
 51
64.755921077
  0
LWPOLYLINE
  5
52A
330
1F
100
AcDbEntity
  8
0
  6
Continuous
 62
     7
370
    25
100
AcDbPolyline
 90
        3
 70
   128
 43
0.0
 10
90.6629656452
 20
15.0743833594
 10
90.6824751928
 20
15.0912391195
 10
90.6893260349
 20
15.1111217244
  0
ARC
  5
52B
330
1F
100
AcDbEntity
  8
0
  6
Continuous
 62
     7
370
    25
100
AcDbCircle
 10
90.6161132236
 20
39.5109387189
 30
0.0
 40
0.0228902361128673
100
AcDbArc
 50
300.1503064072
 51
59.8496935929
  0
LINE
  5
52C
330
1F
100
AcDbEntity
  8
0
  6
Continuous
 62
     7
370
    25
100
AcDbLine
 10
90.6232744894
 20
39.5337097994
 30
0.0
 11
90.6037143662
 21
39.5235035
 31
0.0
  0
LINE
  5
52D
330
1F
100
AcDbEntity
  8
0
  6
Continuous
 62
     7
370
    25
100
AcDbLine
 10
90.6232744894
 20
39.5337097994
 30
0.0
 11
90.6276103061
 21
39.5307321522
 31
0.0
  0
LINE
  5
52E
330
1F
100
AcDbEntity
  8
0
  6
Continuous
 62
     7
370
    25
100
AcDbLine
 10
90.5365814076
 20
39.6328703607
 30
0.0
 11
90.5399180289
 21
39.5941517288
 31
0.0
  0
LINE
  5
52F
330
1F
100
AcDbEntity
  8
0
  6
Continuous
 62
     7
370
    25
100
AcDbLine
 10
90.539154341
 20
39.5936272618
 30
0.0
 11
90.5399180289
 21
39.5941517288
 31
0.0
  0
LINE
  5
530
330
1F
100
AcDbEntity
  8
0
  6
Continuous
 62
     7
370
    25
100
AcDbLine
 10
90.6276103061
 20
39.4911452856
 30
0.0
 11
90.6629656452
 21
39.4707350828
 31
0.0
  0
LINE
  5
531
330
1F
100
AcDbEntity
  8
0
  6
Continuous
 62
     7
370
    25
100
AcDbLine
 10
90.6276103061
 20
39.4911452856
 30
0.0
 11
90.6154611493
 21
39.4828017818
 31
0.0
  0
LWPOLYLINE
  5
532
330
1F
100
AcDbEntity
  8
0
  6
Continuous
 62
     7
370
    25
100
AcDbPolyline
 90
        9
 70
   128
 43
0.0
 10
90.5365814076
 20
39.6328703607
 10
90.5498850161
 20
39.6403935874
 10
90.5628696806
 20
39.6445420711
 10
90.5749679088
 20
39.6451345029
 10
90.5856509502
 20
39.642144991
 10
90.5944519046
 20
39.6357041911
 10
90.600986128
 20
39.6260935973
 10
90.6049680435
 20
39.6137332385
 10
90.6062236224
 20
39.5991633218
  0
ARC
  5
533
330
1F
100
AcDbEntity
  8
0
  6
Continuous
 62
     7
370
    25
100
AcDbCircle
 10
77.9399811776
 20
46.8849309306
 30
0.0
 40
0.0503211197243648
100
AcDbArc
 50
68.3017183509
 51
130.0770365923
  0
LINE
  5
534
330
1F
100
AcDbEntity
  8
0
  6
Continuous
 62
     7
370
    25
100
AcDbLine
 10
77.9165291711
 20
46.9550867907
 30
0.0
 11
77.9523661575
 21
46.9343985388
 31
0.0
  0
LINE
  5
535
330
1F
100
AcDbEntity
  8
0
  6
Continuous
 62
     7
370
    25
100
AcDbLine
 10
90.6062236224
 20
39.5991633218
 30
0.0
 11
90.5708701243
 21
39.5791708227
 31
0.0
  0
LWPOLYLINE
  5
536
330
1F
100
AcDbEntity
  8
0
  6
Continuous
 62
     7
370
    25
100
AcDbPolyline
 90
        9
 70
   128
 43
0.0
 10
90.5399180289
 20
39.5941517288
 10
90.5458307438
 20
39.5974953852
 10
90.5516017058
 20
39.5993391557
 10
90.5569786961
 20
39.5996024587
 10
90.5617267145
 20
39.5982737868
 10
90.5656382498
 20
39.595411209
 10
90.5685423491
 20
39.591139834
 10
90.5703120893
 20
39.5856463412
 10
90.5708701243
 20
39.5791708227
  0
LINE
  5
537
330
1F
100
AcDbEntity
  8
0
  6
Continuous
 62
     7
370
    25
100
AcDbLine
 10
90.6276103061
 20
39.5307321522
 30
0.0
 11
90.6629656452
 21
39.551142355
 31
0.0
  0
LINE
  5
538
330
1F
100
AcDbEntity
  8
0
  6
Continuous
 62
     7
370
    25
100
AcDbLine
 10
77.8884984615
 20
46.9140231624
 30
0.0
 11
77.8914211154
 21
46.9123359502
 31
0.0
  0
LINE
  5
539
330
1F
100
AcDbEntity
  8
0
  6
Continuous
 62
     7
370
    25
100
AcDbLine
 10
90.5708701243
 20
39.5791708227
 30
0.0
 11
90.5707915334
 21
39.5702328569
 31
0.0
  0
LINE
  5
53A
330
1F
100
AcDbEntity
  8
0
  6
Continuous
 62
     7
370
    25
100
AcDbLine
 10
90.6586298285
 20
39.5541200022
 30
0.0
 11
90.6232744894
 21
39.5337097994
 31
0.0
  0
LINE
  5
53B
330
1F
100
AcDbEntity
  8
0
  6
Continuous
 62
     7
370
    25
100
AcDbLine
 10
90.6586298285
 20
39.5541200022
 30
0.0
 11
90.6029610478
 21
39.5250725244
 31
0.0
  0
LINE
  5
53C
330
1F
100
AcDbEntity
  8
0
  6
Continuous
 62
     7
370
    25
100
AcDbLine
 10
90.6062236224
 20
39.5991633218
 30
0.0
 11
90.6060758649
 21
39.582359199
 31
0.0
  0
LINE
  5
53D
330
1F
100
AcDbEntity
  8
0
  6
Continuous
 62
     7
370
    25
100
AcDbLine
 10
90.5756592039
 20
39.5651584946
 30
0.0
 11
90.6060758649
 21
39.582359199
 31
0.0
  0
LINE
  5
53E
330
1F
100
AcDbEntity
  8
0
  6
Continuous
 62
     7
370
    25
100
AcDbLine
 10
90.6586298285
 20
39.5541200022
 30
0.0
 11
90.6629656452
 21
39.551142355
 31
0.0
  0
LINE
  5
53F
330
1F
100
AcDbEntity
  8
0
  6
Continuous
 62
     7
370
    25
100
AcDbLine
 10
75.6011393562
 20
45.3888390921
 30
0.0
 11
75.6044759775
 21
45.3501204603
 31
0.0
  0
LINE
  5
540
330
1F
100
AcDbEntity
  8
0
  6
Continuous
 62
     7
370
    25
100
AcDbLine
 10
75.6044759775
 20
45.3501204603
 30
0.0
 11
75.6110875509
 21
45.3463036802
 31
0.0
  0
ARC
  5
541
330
1F
100
AcDbEntity
  8
0
  6
Continuous
 62
     7
370
    25
100
AcDbCircle
 10
77.8128018082
 20
46.8938885631
 30
0.0
 40
0.0408140181535825
100
AcDbArc
 50
50.6905828491
 51
117.8842310259
  0
LWPOLYLINE
  5
542
330
1F
100
AcDbEntity
  8
0
  6
Continuous
 62
     7
370
    25
100
AcDbPolyline
 90
        9
 70
   128
 43
0.0
 10
75.5435056642
 20
45.3558839199
 10
75.5435567849
 20
45.3687745371
 10
75.5460515756
 20
45.3797579404
 10
75.550894163
 20
45.3884120437
 10
75.5578984489
 20
45.3944042747
 10
75.5667952628
 20
45.3975043553
 10
75.577242705
 20
45.3975931511
 10
75.5888392861
 20
45.3946672498
 10
75.6011393562
 20
45.3888390921
  0
LWPOLYLINE
  5
543
330
1F
100
AcDbEntity
  8
0
  6
Continuous
 62
     7
370
    25
100
AcDbPolyline
 90
        9
 70
   128
 43
0.0
 10
75.5788610033
 20
45.3354737171
 10
75.5788837236
 20
45.3412028803
 10
75.5799925195
 20
45.3460843929
 10
75.5821447805
 20
45.349930661
 10
75.5852577965
 20
45.3525938748
 10
75.589211936
 20
45.3539716884
 10
75.5938552436
 20
45.3540111532
 10
75.5990092797
 20
45.3527107526
 10
75.6044759775
 20
45.3501204603
  0
LINE
  5
544
330
1F
100
AcDbEntity
  8
0
  6
Continuous
 62
     7
370
    25
100
AcDbLine
 10
75.5435056642
 20
45.3558839199
 30
0.0
 11
75.5788610033
 21
45.3354737171
 31
0.0
  0
LINE
  5
545
330
1F
100
AcDbEntity
  8
0
  6
Continuous
 62
     7
370
    25
100
AcDbLine
 10
75.5481998366
 20
45.2691153634
 30
0.0
 11
75.5500984474
 21
45.2704192454
 31
0.0
  0
LINE
  5
546
330
1F
100
AcDbEntity
  8
0
  6
Continuous
 62
     7
370
    25
100
AcDbLine
 10
75.580116724
 20
45.3209021534
 30
0.0
 11
75.5788610033
 21
45.3354737171
 31
0.0
  0
LINE
  5
547
330
1F
100
AcDbEntity
  8
0
  6
Continuous
 62
     7
370
    25
100
AcDbLine
 10
75.5471914499
 20
45.3131135345
 30
0.0
 11
75.5658923023
 21
45.3023177622
 31
0.0
  0
LINE
  5
548
330
1F
100
AcDbEntity
  8
0
  6
Continuous
 62
     7
370
    25
100
AcDbLine
 10
75.5471914499
 20
45.3131135345
 30
0.0
 11
75.5435056642
 21
45.3558839199
 31
0.0
  0
LINE
  5
549
330
1F
100
AcDbEntity
  8
0
  6
Continuous
 62
     7
370
    25
100
AcDbLine
 10
75.5128444976
 20
45.2895255662
 30
0.0
 11
75.5471914499
 21
45.3131135345
 31
0.0
  0
LINE
  5
54A
330
1F
100
AcDbEntity
  8
0
  6
Continuous
 62
     7
370
    25
100
AcDbLine
 10
77.8840458819
 20
46.9072709659
 30
0.0
 11
77.8827677802
 21
46.9230964993
 31
0.0
  0
LINE
  5
54B
330
1F
100
AcDbEntity
  8
0
  6
Continuous
 62
     7
370
    25
100
AcDbLine
 10
77.8827677802
 20
46.9230964993
 30
0.0
 11
77.8919622753
 21
46.9127075949
 31
0.0
  0
LINE
  5
54C
330
1F
100
AcDbEntity
  8
0
  6
Continuous
 62
     7
370
    25
100
AcDbLine
 10
77.8884984615
 20
46.9140231624
 30
0.0
 11
77.9165291711
 21
46.9550867907
 31
0.0
  0
LINE
  5
54D
330
1F
100
AcDbEntity
  8
0
  6
Continuous
 62
     7
370
    25
100
AcDbLine
 10
77.8827677802
 20
46.9230964993
 30
0.0
 11
77.8709550832
 21
46.951143773
 31
0.0
  0
LWPOLYLINE
  5
54E
330
1F
100
AcDbEntity
  8
0
  6
Continuous
 62
     7
370
    25
100
AcDbPolyline
 90
        3
 70
   128
 43
0.0
 10
77.8709550832
 20
46.951143773
 10
77.89378997
 20
46.9412672709
 10
77.903306127
 20
46.9357156732
  0
LINE
  5
54F
330
1F
100
AcDbEntity
  8
0
  6
Continuous
 62
     7
370
    25
100
AcDbLine
 10
77.880796207
 20
46.897570435
 30
0.0
 11
77.8709550832
 21
46.951143773
 31
0.0
  0
LINE
  5
550
330
1F
100
AcDbEntity
  8
0
  6
Continuous
 62
     7
370
    25
100
AcDbLine
 10
90.7110568671
 20
15.0613189572
 30
0.0
 11
90.6757014171
 21
15.081729096
 31
0.0
  0
LINE
  5
551
330
1F
100
AcDbEntity
  8
0
  6
Continuous
 62
     7
370
    25
100
AcDbLine
 10
90.6757014171
 20
15.081729096
 30
0.0
 11
90.5696354045
 21
15.0205046342
 31
0.0
  0
LINE
  5
552
330
1F
100
AcDbEntity
  8
0
  6
Continuous
 62
     7
370
    25
100
AcDbLine
 10
88.2174719102
 20
37.9034249349
 30
0.0
 11
87.9211086071
 21
37.6998957216
 31
0.0
  0
ARC
  5
553
330
1F
100
AcDbEntity
  8
0
  6
Continuous
 62
     7
370
    25
100
AcDbCircle
 10
87.8495929927
 20
37.6894107195
 30
0.0
 40
0.0722801381300942
100
AcDbArc
 50
8.3407899754
 51
58.058036542
  0
LINE
  5
554
330
1F
100
AcDbEntity
  8
0
  6
Continuous
 62
     7
370
    25
100
AcDbLine
 10
87.8878335212
 20
37.7507465194
 30
0.0
 11
88.1841968243
 21
37.9542757326
 31
0.0
  0
ARC
  5
555
330
1F
100
AcDbEntity
  8
0
  6
Continuous
 62
     7
370
    25
100
AcDbCircle
 10
88.1459562958
 20
37.8929399327
 30
0.0
 40
0.072280138129955
100
AcDbArc
 50
8.3407899753
 51
58.058036542
  0
LINE
  5
556
330
1F
100
AcDbEntity
  8
0
  6
Continuous
 62
     7
370
    25
100
AcDbLine
 10
87.908380685
 20
37.7072433946
 30
0.0
 11
87.9211086071
 21
37.6998957216
 31
0.0
  0
ARC
  5
557
330
1F
100
AcDbEntity
  8
0
  6
Continuous
 62
     7
370
    25
100
AcDbCircle
 10
87.8668018395
 20
37.7011474631
 30
0.0
 40
0.0420233361220829
100
AcDbArc
 50
8.3407899753
 51
58.0580365421
  0
LINE
  5
558
330
1F
100
AcDbEntity
  8
0
  6
Continuous
 62
     7
370
    25
100
AcDbLine
 10
87.8890347048
 20
37.7368078119
 30
0.0
 11
87.8878335212
 21
37.7507465194
 31
0.0
  0
ARC
  5
559
330
1F
100
AcDbEntity
  8
0
  6
Continuous
 62
     7
370
    25
100
AcDbCircle
 10
87.9224164925
 20
37.6972676599
 30
0.0
 40
0.0655158341015738
100
AcDbArc
 50
125.570259381
 51
180.6955149545
  0
LINE
  5
55A
330
1F
100
AcDbEntity
  8
0
  6
Continuous
 62
     7
370
    25
100
AcDbLine
 10
87.8855070608
 20
37.7366197163
 30
0.0
 11
87.8843058771
 21
37.7505584237
 31
0.0
  0
ARC
  5
55B
330
1F
100
AcDbEntity
  8
0
  6
Continuous
 62
     7
370
    25
100
AcDbCircle
 10
87.9076643953
 20
37.705636714
 30
0.0
 40
0.0380906012211996
100
AcDbArc
 50
125.5702593805
 51
180.695514955
  0
LINE
  5
55C
330
1F
100
AcDbEntity
  8
0
  6
Continuous
 62
     7
370
    25
100
AcDbLine
 10
87.8695766005
 20
37.7051743426
 30
0.0
 11
87.8569054854
 21
37.696472381
 31
0.0
  0
LINE
  5
55D
330
1F
100
AcDbEntity
  8
0
  6
Continuous
 62
     7
370
    25
100
AcDbLine
 10
87.8569054854
 20
37.696472381
 30
0.0
 11
75.1316350745
 21
45.0426146222
 31
0.0
  0
ARC
  5
55E
330
1F
100
AcDbEntity
  8
0
  6
Continuous
 62
     7
370
    25
100
AcDbCircle
 10
75.1971460815
 20
45.0434099011
 30
0.0
 40
0.0655158341019162
100
AcDbArc
 50
125.5702593811
 51
180.6955149543
  0
LINE
  5
55F
330
1F
100
AcDbEntity
  8
0
  6
Continuous
 62
     7
370
    25
100
AcDbLine
 10
75.1590354662
 20
45.0967006649
 30
0.0
 11
87.8843058771
 21
37.7505584237
 31
0.0
  0
LINE
  5
560
330
1F
100
AcDbEntity
  8
0
  6
Continuous
 62
     7
370
    25
100
AcDbLine
 10
90.2609571774
 20
9.8190049268
 30
0.0
 11
87.8588400834
 21
37.6935159393
 31
0.0
  0
ARC
  5
561
330
1F
100
AcDbEntity
  8
0
  6
Continuous
 62
     7
370
    25
100
AcDbCircle
 10
87.8863465968
 20
37.7482318456
 30
0.0
 40
0.0612408252776726
100
AcDbArc
 50
243.3106321309
 51
302.7936630746
  0
LINE
  5
562
330
1F
100
AcDbEntity
  8
0
  6
Continuous
 62
     7
370
    25
100
AcDbLine
 10
87.9195155611
 20
37.6967511843
 30
0.0
 11
90.3216326551
 21
9.8222401718
 31
0.0
  0
ARC
  5
563
330
1F
100
AcDbEntity
  8
0
  6
Continuous
 62
     7
370
    25
100
AcDbCircle
 10
90.2884636908
 20
9.8737208332
 30
0.0
 40
0.0612408252782197
100
AcDbArc
 50
243.3106321313
 51
302.7936630744
  0
LINE
  5
564
330
1F
100
AcDbEntity
  8
0
  6
Continuous
 62
     7
370
    25
100
AcDbLine
 10
87.8715111985
 20
37.7022179009
 30
0.0
 11
87.8588400834
 21
37.6935159393
 31
0.0
  0
ARC
  5
565
330
1F
100
AcDbEntity
  8
0
  6
Continuous
 62
     7
370
    25
100
AcDbCircle
 10
87.8875033574
 20
37.7340294743
 30
0.0
 40
0.0356051309756201
100
AcDbArc
 50
243.3106321312
 51
302.7936630744
  0
LINE
  5
566
330
1F
100
AcDbEntity
  8
0
  6
Continuous
 62
     7
370
    25
100
AcDbLine
 10
87.906787639
 20
37.7040988573
 30
0.0
 11
87.9195155611
 21
37.6967511843
 31
0.0
  0
LINE
  5
567
330
1F
100
AcDbEntity
  8
0
  6
Continuous
 62
     7
370
    25
100
AcDbLine
 10
75.4589185235
 20
45.3026470897
 30
0.0
 11
75.4571586464
 21
45.301438484
 31
0.0
  0
LINE
  5
568
330
1F
100
AcDbEntity
  8
0
  6
Continuous
 62
     7
370
    25
100
AcDbLine
 10
88.1841889344
 20
37.9565048485
 30
0.0
 11
75.4589185235
 21
45.3026470897
 31
0.0
  0
LINE
  5
569
330
1F
100
AcDbEntity
  8
0
  6
Continuous
 62
     7
370
    25
100
AcDbLine
 10
88.1824290573
 20
37.9552962428
 30
0.0
 11
88.1841889344
 21
37.9565048485
 31
0.0
  0
LINE
  5
56A
330
1F
100
AcDbEntity
  8
0
  6
Continuous
 62
     7
370
    25
100
AcDbLine
 10
88.1824290573
 20
37.9552962428
 30
0.0
 11
88.1841968243
 21
37.9542757326
 31
0.0
  0
LINE
  5
56B
330
1F
100
AcDbEntity
  8
0
  6
Continuous
 62
     7
370
    25
100
AcDbLine
 10
87.8860657542
 20
37.7517670295
 30
0.0
 11
87.8878335212
 21
37.7507465194
 31
0.0
  0
LINE
  5
56C
330
1F
100
AcDbEntity
  8
0
  6
Continuous
 62
     7
370
    25
100
AcDbLine
 10
87.8843058771
 20
37.7505584237
 30
0.0
 11
87.8860657542
 21
37.7517670295
 31
0.0
  0
LINE
  5
56D
330
1F
100
AcDbEntity
  8
0
  6
Continuous
 62
     7
370
    25
100
AcDbLine
 10
75.1607953433
 20
45.0979092707
 30
0.0
 11
75.1590354662
 21
45.0967006649
 31
0.0
  0
LINE
  5
56E
330
1F
100
AcDbEntity
  8
0
  6
Continuous
 62
     7
370
    25
100
AcDbLine
 10
75.1590275763
 20
45.0989297809
 30
0.0
 11
75.1607953433
 21
45.0979092707
 31
0.0
  0
LINE
  5
56F
330
1F
100
AcDbEntity
  8
0
  6
Continuous
 62
     7
370
    25
100
AcDbLine
 10
75.4553908794
 20
45.3024589941
 30
0.0
 11
75.1590275763
 21
45.0989297809
 31
0.0
  0
LINE
  5
570
330
1F
100
AcDbEntity
  8
0
  6
Continuous
 62
     7
370
    25
100
AcDbLine
 10
75.4553908794
 20
45.3024589941
 30
0.0
 11
75.4571586464
 21
45.301438484
 31
0.0
  0
LINE
  5
571
330
1F
100
AcDbEntity
  8
0
  6
Continuous
 62
     7
370
    25
100
AcDbLine
 10
87.8872669379
 20
37.7378283221
 30
0.0
 11
87.8890347048
 21
37.7368078119
 31
0.0
  0
LINE
  5
572
330
1F
100
AcDbEntity
  8
0
  6
Continuous
 62
     7
370
    25
100
AcDbLine
 10
87.8872669379
 20
37.7378283221
 30
0.0
 11
87.8860657542
 21
37.7517670295
 31
0.0
  0
LINE
  5
573
330
1F
100
AcDbEntity
  8
0
  6
Continuous
 62
     7
370
    25
100
AcDbLine
 10
87.8855070608
 20
37.7366197163
 30
0.0
 11
87.8872669379
 21
37.7378283221
 31
0.0
  0
LINE
  5
574
330
1F
100
AcDbEntity
  8
0
  6
Continuous
 62
     7
370
    25
100
AcDbLine
 10
88.2193986183
 20
37.902697609
 30
0.0
 11
88.2176387412
 21
37.9014890033
 31
0.0
  0
LINE
  5
575
330
1F
100
AcDbEntity
  8
0
  6
Continuous
 62
     7
370
    25
100
AcDbLine
 10
90.6215157123
 20
10.0281865966
 30
0.0
 11
88.2193986183
 21
37.902697609
 31
0.0
  0
LINE
  5
576
330
1F
100
AcDbEntity
  8
0
  6
Continuous
 62
     7
370
    25
100
AcDbLine
 10
90.6197558352
 20
10.0269779909
 30
0.0
 11
90.6215157123
 21
10.0281865966
 31
0.0
  0
LINE
  5
577
330
1F
100
AcDbEntity
  8
0
  6
Continuous
 62
     7
370
    25
100
AcDbLine
 10
90.6197558352
 20
10.0269779909
 30
0.0
 11
90.6199226663
 21
10.0250420593
 31
0.0
  0
LINE
  5
578
330
1F
100
AcDbEntity
  8
0
  6
Continuous
 62
     7
370
    25
100
AcDbLine
 10
90.3235593632
 20
9.821512846
 30
0.0
 11
90.6199226663
 21
10.0250420593
 31
0.0
  0
LINE
  5
579
330
1F
100
AcDbEntity
  8
0
  6
Continuous
 62
     7
370
    25
100
AcDbLine
 10
90.3233925322
 20
9.8234487776
 30
0.0
 11
90.3235593632
 21
9.821512846
 31
0.0
  0
LINE
  5
57A
330
1F
100
AcDbEntity
  8
0
  6
Continuous
 62
     7
370
    25
100
AcDbLine
 10
90.3216326551
 20
9.8222401718
 30
0.0
 11
90.3233925322
 21
9.8234487776
 31
0.0
  0
LINE
  5
57B
330
1F
100
AcDbEntity
  8
0
  6
Continuous
 62
     7
370
    25
100
AcDbLine
 10
87.9212754382
 20
37.69795979
 30
0.0
 11
87.9195155611
 21
37.6967511843
 31
0.0
  0
LINE
  5
57C
330
1F
100
AcDbEntity
  8
0
  6
Continuous
 62
     7
370
    25
100
AcDbLine
 10
87.9211086071
 20
37.6998957216
 30
0.0
 11
87.9212754382
 21
37.69795979
 31
0.0
  0
LINE
  5
57D
330
1F
100
AcDbEntity
  8
0
  6
Continuous
 62
     7
370
    25
100
AcDbLine
 10
88.2174719102
 20
37.9034249349
 30
0.0
 11
88.2176387412
 21
37.9014890033
 31
0.0
  0
LINE
  5
57E
330
1F
100
AcDbEntity
  8
0
  6
Continuous
 62
     7
370
    25
100
AcDbLine
 10
87.9085475161
 20
37.705307463
 30
0.0
 11
87.9212754382
 21
37.69795979
 31
0.0
  0
LINE
  5
57F
330
1F
100
AcDbEntity
  8
0
  6
Continuous
 62
     7
370
    25
100
AcDbLine
 10
87.908380685
 20
37.7072433946
 30
0.0
 11
87.9085475161
 21
37.705307463
 31
0.0
  0
LINE
  5
580
330
1F
100
AcDbEntity
  8
0
  6
Continuous
 62
     7
370
    25
100
AcDbLine
 10
87.9085475161
 20
37.705307463
 30
0.0
 11
87.906787639
 21
37.7040988573
 31
0.0
  0
LINE
  5
581
330
1F
100
AcDbEntity
  8
0
  6
Continuous
 62
     7
370
    25
100
AcDbLine
 10
87.5795007822
 20
37.5372563166
 30
0.0
 11
87.8569543491
 21
37.6959053597
 31
0.0
  0
LINE
  5
582
330
1F
100
AcDbEntity
  8
0
  6
Continuous
 62
     7
370
    25
100
AcDbLine
 10
87.5795007822
 20
37.5372563166
 30
0.0
 11
75.4669635235
 21
44.5296752382
 31
0.0
  0
LINE
  5
583
330
1F
100
AcDbEntity
  8
0
  6
Continuous
 62
     7
370
    25
100
AcDbLine
 10
75.1316839381
 20
45.0420476009
 30
0.0
 11
75.4669635235
 21
44.5296752382
 31
0.0
  0
LINE
  5
584
330
1F
100
AcDbEntity
  8
0
  6
Continuous
 62
     7
370
    25
100
AcDbLine
 10
75.1316350745
 20
45.0426146222
 30
0.0
 11
75.1316839381
 21
45.0420476009
 31
0.0
  0
LINE
  5
585
330
1F
100
AcDbEntity
  8
0
  6
Continuous
 62
     7
370
    25
100
AcDbLine
 10
87.8569543491
 20
37.6959053597
 30
0.0
 11
87.8569054854
 21
37.696472381
 31
0.0
  0
LINE
  5
586
330
1F
100
AcDbEntity
  8
0
  6
Continuous
 62
     7
370
    25
100
AcDbLine
 10
87.8696254642
 20
37.7046073214
 30
0.0
 11
87.8695766005
 21
37.7051743426
 31
0.0
  0
LINE
  5
587
330
1F
100
AcDbEntity
  8
0
  6
Continuous
 62
     7
370
    25
100
AcDbLine
 10
87.8696254642
 20
37.7046073214
 30
0.0
 11
87.8569543491
 21
37.6959053597
 31
0.0
  0
LINE
  5
588
330
1F
100
AcDbEntity
  8
0
  6
Continuous
 62
     7
370
    25
100
AcDbLine
 10
89.9251598251
 20
10.3316761901
 30
0.0
 11
90.2604394104
 21
9.8193038273
 31
0.0
  0
LINE
  5
589
330
1F
100
AcDbEntity
  8
0
  6
Continuous
 62
     7
370
    25
100
AcDbLine
 10
89.9251598251
 20
10.3316761901
 30
0.0
 11
87.5808687496
 21
37.5351657966
 31
0.0
  0
LINE
  5
58A
330
1F
100
AcDbEntity
  8
0
  6
Continuous
 62
     7
370
    25
100
AcDbLine
 10
87.8583223165
 20
37.6938148398
 30
0.0
 11
87.5808687496
 21
37.5351657966
 31
0.0
  0
LINE
  5
58B
330
1F
100
AcDbEntity
  8
0
  6
Continuous
 62
     7
370
    25
100
AcDbLine
 10
87.8588400834
 20
37.6935159393
 30
0.0
 11
87.8583223165
 21
37.6938148398
 31
0.0
  0
LINE
  5
58C
330
1F
100
AcDbEntity
  8
0
  6
Continuous
 62
     7
370
    25
100
AcDbLine
 10
90.2604394104
 20
9.8193038273
 30
0.0
 11
90.2609571774
 21
9.8190049268
 31
0.0
  0
LINE
  5
58D
330
1F
100
AcDbEntity
  8
0
  6
Continuous
 62
     7
370
    25
100
AcDbLine
 10
87.8709934315
 20
37.7025168014
 30
0.0
 11
87.8583223165
 21
37.6938148398
 31
0.0
  0
LINE
  5
58E
330
1F
100
AcDbEntity
  8
0
  6
Continuous
 62
     7
370
    25
100
AcDbLine
 10
87.8715111985
 20
37.7022179009
 30
0.0
 11
87.8709934315
 21
37.7025168014
 31
0.0
  0
LINE
  5
58F
330
1F
100
AcDbEntity
  8
0
  6
Continuous
 62
     7
370
    25
100
AcDbLine
 10
87.5935398647
 20
37.5438677582
 30
0.0
 11
87.5808687496
 21
37.5351657966
 31
0.0
  0
LINE
  5
590
330
1F
100
AcDbEntity
  8
0
  6
Continuous
 62
     7
370
    25
100
AcDbLine
 10
87.8709934315
 20
37.7025168014
 30
0.0
 11
87.5935398647
 21
37.5438677582
 31
0.0
  0
ARC
  5
591
330
1F
100
AcDbEntity
  8
0
  6
Continuous
 62
     7
370
    25
100
AcDbCircle
 10
75.4742514304
 20
45.2851525433
 30
0.0
 40
0.0232627855406541
100
AcDbArc
 50
67.1461587608
 51
131.2325961823
  0
LWPOLYLINE
  5
592
330
1F
100
AcDbEntity
  8
0
  6
Continuous
 62
     7
370
    25
100
AcDbPolyline
 90
        9
 70
   128
 43
0.0
 10
88.1841889344
 20
37.9565048485
 10
88.1901494328
 20
37.9599205778
 10
88.1959911456
 20
37.9619254181
 10
88.2014895791
 20
37.9624423245
 10
88.2064334315
 20
37.9614514328
 10
88.2106327135
 20
37.9589908222
 10
88.213926049
 20
37.9551550527
 10
88.2161868769
 20
37.9500915307
 10
88.2173283148
 20
37.9439948446
  0
LINE
  5
593
330
1F
100
AcDbEntity
  8
0
  6
Continuous
 62
     7
370
    25
100
AcDbLine
 10
88.2046571997
 20
37.935292883
 30
0.0
 11
88.2173283148
 21
37.9439948446
 31
0.0
  0
ARC
  5
594
330
1F
100
AcDbEntity
  8
0
  6
Continuous
 62
     7
370
    25
100
AcDbCircle
 10
88.1944484444
 20
37.9358223253
 30
0.0
 40
0.010222474909731
100
AcDbArc
 50
357.0312094071
 51
86.8098058681
  0
ARC
  5
595
330
1F
100
AcDbEntity
  8
0
  6
Continuous
 62
     7
370
    25
100
AcDbCircle
 10
88.2103536581
 20
37.9218362319
 30
0.0
 40
0.0211683298563306
100
AcDbArc
 50
295.2955332116
 51
65.1100567991
  0
ARC
  5
596
330
1F
100
AcDbEntity
  8
0
  6
Continuous
 62
     7
370
    25
100
AcDbCircle
 10
88.2017857405
 20
37.9213001518
 30
0.0
 40
0.0120373531452929
100
AcDbArc
 50
347.9279601117
 51
66.4679517297
  0
LINE
  5
597
330
1F
100
AcDbEntity
  8
0
  6
Continuous
 62
     7
370
    25
100
AcDbLine
 10
88.2065917977
 20
37.9323364412
 30
0.0
 11
88.2192629128
 21
37.9410384028
 31
0.0
  0
ARC
  5
598
330
1F
100
AcDbEntity
  8
0
  6
Continuous
 62
     7
370
    25
100
AcDbCircle
 10
90.6103104329
 20
10.0490075869
 30
0.0
 40
0.0236447018417984
100
AcDbArc
 50
298.2879053748
 51
1.0267003453
  0
LINE
  5
599
330
1F
100
AcDbEntity
  8
0
  6
Continuous
 62
     7
370
    25
100
AcDbLine
 10
88.2046571997
 20
37.935292883
 30
0.0
 11
88.2046994684
 21
37.9348023905
 31
0.0
  0
LINE
  5
59A
330
1F
100
AcDbEntity
  8
0
  6
Continuous
 62
     7
370
    25
100
AcDbLine
 10
88.2173283148
 20
37.9439948446
 30
0.0
 11
88.2173771785
 21
37.9434278233
 31
0.0
  0
LINE
  5
59B
330
1F
100
AcDbEntity
  8
0
  6
Continuous
 62
     7
370
    25
100
AcDbLine
 10
88.2046994684
 20
37.9348023905
 30
0.0
 11
88.2173771785
 21
37.9434278233
 31
0.0
  0
LINE
  5
59C
330
1F
100
AcDbEntity
  8
0
  6
Continuous
 62
     7
370
    25
100
AcDbLine
 10
88.2062645364
 20
37.9325253652
 30
0.0
 11
88.2065917977
 21
37.9323364412
 31
0.0
  0
LINE
  5
59D
330
1F
100
AcDbEntity
  8
0
  6
Continuous
 62
     7
370
    25
100
AcDbLine
 10
88.2187451459
 20
37.9413373033
 30
0.0
 11
88.2192629128
 21
37.9410384028
 31
0.0
  0
LINE
  5
59E
330
1F
100
AcDbEntity
  8
0
  6
Continuous
 62
     7
370
    25
100
AcDbLine
 10
88.2061546369
 20
37.9326906984
 30
0.0
 11
88.2187451459
 21
37.9413373033
 31
0.0
  0
LINE
  5
59F
330
1F
100
AcDbEntity
  8
0
  6
Continuous
 62
     7
370
    25
100
AcDbLine
 10
88.2054478684
 20
37.9337338677
 30
0.0
 11
88.2187451459
 21
37.9413373033
 31
0.0
  0
LINE
  5
5A0
330
1F
100
AcDbEntity
  8
0
  6
Continuous
 62
     7
370
    25
100
AcDbLine
 10
75.4658314909
 20
44.5290279375
 30
0.0
 11
75.1305519055
 21
45.0414003002
 31
0.0
  0
LINE
  5
5A1
330
1F
100
AcDbEntity
  8
0
  6
Continuous
 62
     7
370
    25
100
AcDbLine
 10
75.4658314909
 20
44.5290279375
 30
0.0
 11
77.8097734067
 21
17.3295900291
 31
0.0
  0
LINE
  5
5A2
330
1F
100
AcDbEntity
  8
0
  6
Continuous
 62
     7
370
    25
100
AcDbLine
 10
77.5318509366
 20
17.1706728652
 30
0.0
 11
77.8097734067
 21
17.3295900291
 31
0.0
  0
LINE
  5
5A3
330
1F
100
AcDbEntity
  8
0
  6
Continuous
 62
     7
370
    25
100
AcDbLine
 10
75.1300341386
 20
45.0416992007
 30
0.0
 11
77.5318509366
 21
17.1706728652
 31
0.0
  0
LINE
  5
5A4
330
1F
100
AcDbEntity
  8
0
  6
Continuous
 62
     7
370
    25
100
AcDbLine
 10
75.1305519055
 20
45.0414003002
 30
0.0
 11
75.1300341386
 21
45.0416992007
 31
0.0
  0
LINE
  5
5A5
330
1F
100
AcDbEntity
  8
0
  6
Continuous
 62
     7
370
    25
100
AcDbLine
 10
75.1316733507
 20
45.0421704592
 30
0.0
 11
75.1305519055
 21
45.0414003002
 31
0.0
  0
LINE
  5
5A6
330
1F
100
AcDbEntity
  8
0
  6
Continuous
 62
     7
370
    25
100
AcDbLine
 10
75.4669047731
 20
44.5297650203
 30
0.0
 11
75.4658314909
 21
44.5290279375
 31
0.0
  0
LWPOLYLINE
  5
5A7
330
1F
100
AcDbEntity
  8
0
  6
Continuous
 62
     7
370
    25
100
AcDbPolyline
 90
        9
 70
   128
 43
0.0
 10
75.1314914791
 20
45.0831845319
 10
75.1315159034
 20
45.0893433824
 10
75.132707859
 20
45.0945910084
 10
75.1350215396
 20
45.0987257466
 10
75.1383680318
 20
45.1015887014
 10
75.1426187317
 20
45.103069851
 10
75.1476102874
 20
45.1031122757
 10
75.1531508762
 20
45.1017143451
 10
75.1590275763
 20
45.0989297809
  0
LWPOLYLINE
  5
5A8
330
1F
100
AcDbEntity
  8
0
  6
Continuous
 62
     7
370
    25
100
AcDbPolyline
 90
        3
 70
   128
 43
0.0
 10
75.1451648238
 20
45.0830494625
 10
75.1462717619
 20
45.0848724489
 10
75.1477442664
 20
45.0862399629
  0
ARC
  5
5A9
330
1F
100
AcDbEntity
  8
0
  6
Continuous
 62
     7
370
    25
100
AcDbCircle
 10
75.4430374528
 20
45.2873711163
 30
0.0
 40
0.0195000308958053
100
AcDbArc
 50
50.6905828494
 51
117.8842310255
  0
LWPOLYLINE
  5
5AA
330
1F
100
AcDbEntity
  8
0
  6
Continuous
 62
     7
370
    25
100
AcDbPolyline
 90
        5
 70
   128
 43
0.0
 10
77.520523457
 20
17.1735479125
 10
77.5205113316
 20
17.1734799662
 10
77.5217151109
 20
17.1707686803
 10
77.524408293
 20
17.1692969603
 10
77.5318509366
 20
17.1706728652
  0
ARC
  5
5AB
330
1F
100
AcDbEntity
  8
0
  6
Continuous
 62
     7
370
    25
100
AcDbCircle
 10
75.1389433932
 20
45.0609013717
 30
0.0
 40
0.0211683298561549
100
AcDbArc
 50
115.2955332113
 51
245.1100567994
  0
LINE
  5
5AC
330
1F
100
AcDbEntity
  8
0
  6
Continuous
 62
     7
370
    25
100
AcDbLine
 10
77.8224445218
 20
17.3382919907
 30
0.0
 11
77.8097734067
 21
17.3295900291
 31
0.0
  0
LINE
  5
5AD
330
1F
100
AcDbEntity
  8
0
  6
Continuous
 62
     7
370
    25
100
AcDbLine
 10
75.4798371688
 20
44.522243441
 30
0.0
 11
77.8224445218
 21
17.3382919907
 31
0.0
  0
LINE
  5
5AE
330
1F
100
AcDbEntity
  8
0
  6
Continuous
 62
     7
370
    25
100
AcDbLine
 10
75.1316583101
 20
45.0812486003
 30
0.0
 11
75.1314914791
 21
45.0831845319
 31
0.0
  0
LINE
  5
5AF
330
1F
100
AcDbEntity
  8
0
  6
Continuous
 62
     7
370
    25
100
AcDbLine
 10
75.1405705341
 20
45.0761036829
 30
0.0
 11
75.1316583101
 21
45.0812486003
 31
0.0
  0
LINE
  5
5B0
330
1F
100
AcDbEntity
  8
0
  6
Continuous
 62
     7
370
    25
100
AcDbLine
 10
75.129898433
 20
45.0800399945
 30
0.0
 11
75.1316583101
 21
45.0812486003
 31
0.0
  0
LINE
  5
5B1
330
1F
100
AcDbEntity
  8
0
  6
Continuous
 62
     7
370
    25
100
AcDbLine
 10
77.8102405337
 20
17.3241694207
 30
0.0
 11
89.9240277925
 21
10.3310288894
 31
0.0
  0
LINE
  5
5B2
330
1F
100
AcDbEntity
  8
0
  6
Continuous
 62
     7
370
    25
100
AcDbLine
 10
90.2593073778
 20
9.8186565266
 30
0.0
 11
89.9240277925
 21
10.3310288894
 31
0.0
  0
LINE
  5
5B3
330
1F
100
AcDbEntity
  8
0
  6
Continuous
 62
     7
370
    25
100
AcDbLine
 10
90.2593562415
 20
9.8180895054
 30
0.0
 11
90.2593073778
 21
9.8186565266
 31
0.0
  0
LINE
  5
5B4
330
1F
100
AcDbEntity
  8
0
  6
Continuous
 62
     7
370
    25
100
AcDbLine
 10
77.5323180636
 20
17.1652522567
 30
0.0
 11
90.2593562415
 21
9.8180895054
 31
0.0
  0
LINE
  5
5B5
330
1F
100
AcDbEntity
  8
0
  6
Continuous
 62
     7
370
    25
100
AcDbLine
 10
77.8102405337
 20
17.3241694207
 30
0.0
 11
77.5323180636
 21
17.1652522567
 31
0.0
  0
LINE
  5
5B6
330
1F
100
AcDbEntity
  8
0
  6
Continuous
 62
     7
370
    25
100
AcDbLine
 10
89.9251492377
 20
10.3317990483
 30
0.0
 11
89.9240277925
 21
10.3310288894
 31
0.0
  0
LINE
  5
5B7
330
1F
100
AcDbEntity
  8
0
  6
Continuous
 62
     7
370
    25
100
AcDbLine
 10
90.26038066
 20
9.8193936094
 30
0.0
 11
90.2593073778
 21
9.8186565266
 31
0.0
  0
LINE
  5
5B8
330
1F
100
AcDbEntity
  8
0
  6
Continuous
 62
     7
370
    25
100
AcDbLine
 10
77.8229116488
 20
17.3328713823
 30
0.0
 11
77.8102405337
 21
17.3241694207
 31
0.0
  0
LINE
  5
5B9
330
1F
100
AcDbEntity
  8
0
  6
Continuous
 62
     7
370
    25
100
AcDbLine
 10
77.8229116488
 20
17.3328713823
 30
0.0
 11
89.9238252623
 21
10.3471626482
 31
0.0
  0
LWPOLYLINE
  5
5BA
330
1F
100
AcDbEntity
  8
0
  6
Continuous
 62
     7
370
    25
100
AcDbPolyline
 90
        9
 70
   128
 43
0.0
 10
90.3235593632
 20
9.821512846
 10
90.3235349389
 20
9.8153539956
 10
90.3223429833
 20
9.8101063696
 10
90.3200293027
 20
9.8059716313
 10
90.3166828105
 20
9.8031086765
 10
90.3124321106
 20
9.8016275269
 10
90.3074405549
 20
9.8015851022
 10
90.3018999661
 20
9.8029830328
 10
90.2960232659
 20
9.8057675971
  0
ARC
  5
5BB
330
1F
100
AcDbEntity
  8
0
  6
Continuous
 62
     7
370
    25
100
AcDbCircle
 10
90.60164313
 20
10.0212618941
 30
0.0
 40
0.0186663091579554
100
AcDbArc
 50
310.8804036633
 51
11.6839350131
  0
LWPOLYLINE
  5
5BC
330
1F
100
AcDbEntity
  8
0
  6
Continuous
 62
     7
370
    25
100
AcDbPolyline
 90
        9
 70
   128
 43
0.0
 10
90.2924956219
 20
9.8055795014
 10
90.2865351235
 20
9.8021637722
 10
90.2806934108
 20
9.8001589319
 10
90.2751949773
 20
9.7996420254
 10
90.2702511248
 20
9.8006329172
 10
90.2660518428
 20
9.8030935278
 10
90.2627585073
 20
9.8069292973
 10
90.2604976795
 20
9.8119928193
 10
90.2593562415
 20
9.8180895054
  0
LWPOLYLINE
  5
5BD
330
1F
100
AcDbEntity
  8
0
  6
Continuous
 62
     7
370
    25
100
AcDbPolyline
 90
        4
 70
   128
 43
0.0
 10
77.5323180636
 20
17.1652522567
 10
77.5274437809
 20
17.1599513972
 10
77.5273535339
 20
17.1574453266
 10
77.5286837378
 20
17.1561236733
  0
LWPOLYLINE
  5
5BE
330
1F
100
AcDbEntity
  8
0
  6
Continuous
 62
     7
370
    25
100
AcDbPolyline
 90
        3
 70
   128
 43
0.0
 10
77.5449891787
 20
17.1739542183
 10
77.5390638356
 20
17.1726569839
 10
77.5377657771
 20
17.1717019197
  0
LWPOLYLINE
  5
5BF
330
1F
100
AcDbEntity
  8
0
  6
Continuous
 62
     7
370
    25
100
AcDbPolyline
 90
        3
 70
   128
 43
0.0
 10
77.5409937773
 20
17.1731869276
 10
77.5433758512
 20
17.1746994161
 10
77.5465785908
 20
17.1768860616
  0
LINE
  5
5C0
330
1F
100
AcDbEntity
  8
0
  6
Continuous
 62
     7
370
    25
100
AcDbLine
 10
77.5657878021
 20
17.1900780986
 30
0.0
 11
77.5465785908
 21
17.1768860616
 31
0.0
  0
LINE
  5
5C1
330
1F
100
AcDbEntity
  8
0
  6
Continuous
 62
     7
370
    25
100
AcDbLine
 10
90.2960232659
 20
9.8057675971
 30
0.0
 11
90.294255499
 21
9.8067881072
 31
0.0
  0
LINE
  5
5C2
330
1F
100
AcDbEntity
  8
0
  6
Continuous
 62
     7
370
    25
100
AcDbLine
 10
90.2937328316
 20
9.8128532151
 30
0.0
 11
90.294255499
 21
9.8067881072
 31
0.0
  0
LINE
  5
5C3
330
1F
100
AcDbEntity
  8
0
  6
Continuous
 62
     7
370
    25
100
AcDbLine
 10
90.294255499
 20
9.8067881072
 30
0.0
 11
90.2924956219
 21
9.8055795014
 31
0.0
  0
LINE
  5
5C4
330
1F
100
AcDbEntity
  8
0
  6
Continuous
 62
     7
370
    25
100
AcDbLine
 10
77.5449891787
 20
17.1739542183
 30
0.0
 11
77.5323180636
 21
17.1652522567
 31
0.0
  0
LINE
  5
5C5
330
1F
100
AcDbEntity
  8
0
  6
Continuous
 62
     7
370
    25
100
AcDbLine
 10
77.8229116488
 20
17.3328713823
 30
0.0
 11
77.5449891787
 21
17.1739542183
 31
0.0
  0
LINE
  5
5C6
330
1F
100
AcDbEntity
  8
0
  6
Continuous
 62
     8
370
    25
100
AcDbLine
 10
88.2502669095
 20
37.8942435012
 30
0.0
 11
88.2352804947
 21
37.8839514941
 31
0.0
  0
LINE
  5
5C7
330
1F
100
AcDbEntity
  8
0
  6
Continuous
 62
     8
370
    25
100
AcDbLine
 10
90.6276103061
 20
39.5307321522
 30
0.0
 11
90.6276103061
 21
39.4911452856
 31
0.0
  0
LINE
  5
5C8
330
1F
100
AcDbEntity
  8
0
  6
Continuous
 62
     8
370
    25
100
AcDbLine
 10
90.5422940876
 20
39.5956674176
 30
0.0
 11
90.5708701243
 21
39.5791708227
 31
0.0
  0
LINE
  5
5C9
330
1F
100
AcDbEntity
  8
0
  6
Continuous
 62
     8
370
    25
100
AcDbLine
 10
75.6020608166
 20
45.3514063231
 30
0.0
 11
75.5788610033
 21
45.3354737171
 31
0.0
  0
LINE
  5
5CA
330
1F
100
AcDbEntity
  8
0
  6
Continuous
 62
     8
370
    25
100
AcDbLine
 10
88.184390733
 20
37.9541631484
 30
0.0
 11
88.1841889344
 21
37.9565048485
 31
0.0
  0
LINE
  5
5CB
330
1F
100
AcDbEntity
  8
0
  6
Continuous
 62
     8
370
    25
100
AcDbLine
 10
88.2174347508
 20
37.9038313256
 30
0.0
 11
88.2193986183
 21
37.902697609
 31
0.0
  0
LINE
  5
5CC
330
1F
100
AcDbEntity
  8
0
  6
Continuous
 62
     8
370
    25
100
AcDbLine
 10
88.2041234342
 20
37.9356010193
 30
0.0
 11
88.2046571997
 21
37.935292883
 31
0.0
  0
LINE
  5
5CD
330
1F
100
AcDbEntity
  8
0
  6
Continuous
 62
     8
370
    25
100
AcDbLine
 10
88.2065917977
 20
37.9323364412
 30
0.0
 11
88.2066224392
 21
37.9319808726
 31
0.0
  0
LINE
  5
5CE
330
1F
100
AcDbEntity
  8
0
  6
Continuous
 62
     8
370
    25
100
AcDbLine
 10
75.1592093803
 20
45.0968201015
 30
0.0
 11
75.1590275763
 21
45.0989297809
 31
0.0
  0
LINE
  5
5CF
330
1F
100
AcDbEntity
  8
0
  6
Continuous
 62
     8
370
    25
100
AcDbLine
 10
75.1413880168
 20
45.0774713823
 30
0.0
 11
75.1314914791
 21
45.0831845319
 31
0.0
  0
LINE
  5
5D0
330
1F
100
AcDbEntity
  8
0
  6
Continuous
 62
     8
370
    25
100
AcDbLine
 10
75.1316205136
 20
45.042788653
 30
0.0
 11
75.1300341386
 21
45.0416992007
 31
0.0
  0
LINE
  5
5D1
330
1F
100
AcDbEntity
  8
0
  6
Continuous
 62
     8
370
    25
100
AcDbLine
 10
75.1396214406
 20
45.0744270217
 30
0.0
 11
75.129898433
 21
45.0800399945
 31
0.0
  0
LINE
  5
5D2
330
1F
100
AcDbEntity
  8
0
  6
Continuous
 62
     8
370
    25
100
AcDbLine
 10
90.321937185
 20
9.8224493096
 30
0.0
 11
90.3235593632
 21
9.821512846
 31
0.0
  0
LINE
  5
5D3
330
1F
100
AcDbEntity
  8
0
  6
Continuous
 62
     8
370
    25
100
AcDbLine
 10
90.2953981256
 20
9.8130218155
 30
0.0
 11
90.2960232659
 21
9.8057675971
 31
0.0
  0
LINE
  5
5D4
330
1F
100
AcDbEntity
  8
0
  6
Continuous
 62
     8
370
    25
100
AcDbLine
 10
90.2608115886
 20
9.8190889735
 30
0.0
 11
90.2593562415
 21
9.8180895054
 31
0.0
  0
LINE
  5
5D5
330
1F
100
AcDbEntity
  8
0
  6
Continuous
 62
     8
370
    25
100
AcDbLine
 10
90.2918808034
 20
9.8127139438
 30
0.0
 11
90.2924956219
 21
9.8055795014
 31
0.0
  0
LINE
  5
5D6
330
1F
100
AcDbEntity
  8
0
  6
Continuous
 62
     8
370
    25
100
AcDbLine
 10
77.5483391216
 20
17.1758697289
 30
0.0
 11
77.5465785908
 21
17.1768860616
 31
0.0
  0
INSERT
  5
5DC
330
1F
100
AcDbEntity
  8
NOTES
100
AcDbBlockReference
  2
SW_NOTE_0_3
 10
151.4244566423
 20
47.5097042385
 30
0.0
  0
INSERT
  5
5E2
330
1F
100
AcDbEntity
  8
NOTES
100
AcDbBlockReference
  2
SW_NOTE_0_4
 10
83.8919161038
 20
9.5121889901
 30
0.0
  0
ENDSEC
  0
SECTION
  2
OBJECTS
  0
DICTIONARY
  5
C
330
0
100
AcDbDictionary
281
     1
  3
ACAD_DETAILVIEWSTYLE
350
5EC
  3
ACAD_GROUP
350
D
  3
ACAD_LAYOUT
350
1A
  3
ACAD_MATERIAL
350
43
  3
ACAD_MLEADERSTYLE
350
6B
  3
ACAD_MLINESTYLE
350
17
  3
ACAD_PLOTSETTINGS
350
19
  3
ACAD_PLOTSTYLENAME
350
E
  3
ACAD_SCALELIST
350
47
  3
ACAD_SECTIONVIEWSTYLE
350
5ED
  3
ACAD_TABLESTYLE
350
69
  3
ACDB_RECOMPOSE_DATA
350
5E9
  3
AcDbVariableDictionary
350
5E3
  0
DICTIONARY
  5
5EC
102
{ACAD_REACTORS
330
C
102
}
330
C
100
AcDbDictionary
281
     1
  0
DICTIONARY
  5
D
102
{ACAD_REACTORS
330
C
102
}
330
C
100
AcDbDictionary
281
     1
  0
DICTIONARY
  5
1A
102
{ACAD_REACTORS
330
C
102
}
330
C
100
AcDbDictionary
281
     1
  3
Layout1
350
1E
  3
Layout2
350
26
  3
Model
350
22
  0
DICTIONARY
  5
43
102
{ACAD_REACTORS
330
C
102
}
330
C
100
AcDbDictionary
281
     1
  3
ByBlock
350
45
  3
ByLayer
350
44
  3
Global
350
46
  0
DICTIONARY
  5
6B
102
{ACAD_REACTORS
330
C
102
}
330
C
100
AcDbDictionary
281
     1
  3
Standard
350
6C
  0
DICTIONARY
  5
17
102
{ACAD_REACTORS
330
C
102
}
330
C
100
AcDbDictionary
281
     1
  3
Standard
350
18
  0
DICTIONARY
  5
19
102
{ACAD_REACTORS
330
C
102
}
330
C
100
AcDbDictionary
281
     1
  0
ACDBDICTIONARYWDFLT
  5
E
102
{ACAD_REACTORS
330
C
102
}
330
C
100
AcDbDictionary
281
     1
  3
Normal
350
F
100
AcDbDictionaryWithDefault
340
F
  0
DICTIONARY
  5
47
102
{ACAD_REACTORS
330
C
102
}
330
C
100
AcDbDictionary
281
     1
  3
A0
350
48
  3
A1
350
49
  3
A2
350
4A
  3
A3
350
4B
  3
A4
350
4C
  3
A5
350
4D
  3
A6
350
4E
  3
A7
350
4F
  3
A8
350
50
  3
A9
350
51
  3
B0
350
52
  3
B1
350
53
  3
B2
350
54
  3
B3
350
55
  3
B4
350
56
  3
B5
350
57
  3
B6
350
58
  3
B7
350
59
  3
B8
350
5A
  3
B9
350
5B
  3
C0
350
5C
  3
C1
350
5D
  3
C2
350
5E
  3
C3
350
5F
  3
C4
350
60
  3
C5
350
61
  3
C6
350
62
  3
C7
350
63
  3
C8
350
64
  3
C9
350
65
  3
D0
350
66
  3
D1
350
67
  3
D2
350
68
  0
DICTIONARY
  5
5ED
102
{ACAD_REACTORS
330
C
102
}
330
C
100
AcDbDictionary
281
     1
  0
DICTIONARY
  5
69
102
{ACAD_REACTORS
330
C
102
}
330
C
100
AcDbDictionary
281
     1
  3
Standard
350
6A
  0
XRECORD
  5
5E9
102
{ACAD_REACTORS
330
C
102
}
330
C
100
AcDbXrecord
280
     1
 90
        1
330
6A
  0
DICTIONARY
  5
5E3
102
{ACAD_REACTORS
330
C
102
}
330
C
100
AcDbDictionary
281
     1
  3
CANNOSCALE
350
5E4
  3
CMLEADERSTYLE
350
5EB
  3
CTABLESTYLE
350
5EA
  0
LAYOUT
  5
1E
102
{ACAD_REACTORS
330
1A
102
}
330
1A
100
AcDbPlotSettings
  1

  2
none_device
  4

  6

 40
0.0
 41
0.0
 42
0.0
 43
0.0
 44
0.0
 45
0.0
 46
0.0
 47
0.0
 48
0.0
 49
0.0
140
0.0
141
0.0
142
1.0
143
1.0
 70
   688
 72
     0
 73
     0
 74
     5
  7

 75
    16
 76
     0
 77
     2
 78
   300
147
1.0
148
0.0
149
0.0
100
AcDbLayout
  1
Layout1
 70
     1
 71
     1
 10
0.0
 20
0.0
 11
12.0
 21
9.0
 12
0.0
 22
0.0
 32
0.0
 14
1.0000000000E+20
 24
1.0000000000E+20
 34
1.0000000000E+20
 15
-1.0000000000E+20
 25
-1.0000000000E+20
 35
-1.0000000000E+20
146
0.0
 13
0.0
 23
0.0
 33
0.0
 16
1.0
 26
0.0
 36
0.0
 17
0.0
 27
1.0
 37
0.0
 76
     0
330
1B
  0
LAYOUT
  5
26
102
{ACAD_REACTORS
330
1A
102
}
330
1A
100
AcDbPlotSettings
  1

  2
none_device
  4

  6

 40
0.0
 41
0.0
 42
0.0
 43
0.0
 44
0.0
 45
0.0
 46
0.0
 47
0.0
 48
0.0
 49
0.0
140
0.0
141
0.0
142
1.0
143
1.0
 70
   688
 72
     0
 73
     0
 74
     5
  7

 75
    16
 76
     0
 77
     2
 78
   300
147
1.0
148
0.0
149
0.0
100
AcDbLayout
  1
Layout2
 70
     1
 71
     2
 10
0.0
 20
0.0
 11
0.0
 21
0.0
 12
0.0
 22
0.0
 32
0.0
 14
0.0
 24
0.0
 34
0.0
 15
0.0
 25
0.0
 35
0.0
146
0.0
 13
0.0
 23
0.0
 33
0.0
 16
1.0
 26
0.0
 36
0.0
 17
0.0
 27
1.0
 37
0.0
 76
     0
330
23
  0
LAYOUT
  5
22
102
{ACAD_REACTORS
330
1A
102
}
330
1A
100
AcDbPlotSettings
  1

  2
none_device
  4
Letter_(8.50_x_11.00_Inches)
  6

 40
6.35
 41
6.35
 42
6.35000508
 43
6.35000508
 44
215.9
 45
279.4
 46
0.0
 47
0.0
 48
0.0
 49
0.0
140
0.0
141
0.0
142
1.0
143
1.0
 70
  1712
 72
     0
 73
     0
 74
     0
  7

 75
     0
 76
     0
 77
     2
 78
   300
147
1.0
148
0.0
149
0.0
100
AcDbLayout
  1
Model
 70
     1
 71
     0
 10
0.0
 20
0.0
 11
95.0
 21
50.0
 12
0.0
 22
0.0
 32
0.0
 14
0.0
 24
0.0
 34
0.0
 15
95.0
 25
50.0
 35
0.0
146
0.0
 13
0.0
 23
0.0
 33
0.0
 16
1.0
 26
0.0
 36
0.0
 17
0.0
 27
1.0
 37
0.0
 76
     0
330
1F
331
29
  0
MATERIAL
  5
45
102
{ACAD_REACTORS
330
43
102
}
330
43
100
AcDbMaterial
  1
ByBlock
  0
MATERIAL
  5
44
102
{ACAD_REACTORS
330
43
102
}
330
43
100
AcDbMaterial
  1
ByLayer
  0
MATERIAL
  5
46
102
{ACAD_REACTORS
330
43
102
}
330
43
100
AcDbMaterial
  1
Global
  0
MLEADERSTYLE
  5
6C
102
{ACAD_REACTORS
330
6B
102
}
330
6B
100
AcDbMLeaderStyle
170
     2
171
     1
172
     0
 90
        2
 40
0.0
 41
0.0
173
     1
 91
-1056964608
340
14
 92
       -2
290
     1
 42
0.09
291
     1
 43
0.36
  3
Standard
341
0
 44
0.18
300

342
11
174
     1
178
     6
175
     1
176
     0
 93
-1056964608
 45
0.18
292
     0
297
     0
 46
0.18
343
0
 94
-1056964608
 47
1.0
 49
1.0
140
1.0
293
     1
141
0.0
294
     1
177
     0
142
1.0
295
     0
296
     0
143
0.125
1001
ACAD_MLEADERVER
1070
     2
  0
MLINESTYLE
  5
18
102
{ACAD_REACTORS
330
17
102
}
330
17
100
AcDbMlineStyle
  2
Standard
 70
     0
  3

 62
   256
 51
90.0
 52
90.0
 71
     2
 49
0.5
 62
   256
  6
BYLAYER
 49
-0.5
 62
   256
  6
BYLAYER
  0
ACDBPLACEHOLDER
  5
F
102
{ACAD_REACTORS
330
E
102
}
330
E
  0
SCALE
  5
48
102
{ACAD_REACTORS
330
47
102
}
330
47
100
AcDbScale
 70
     0
300
1:1
140
1.0
141
1.0
290
     1
  0
SCALE
  5
49
102
{ACAD_REACTORS
330
47
102
}
330
47
100
AcDbScale
 70
     0
300
1:2
140
1.0
141
2.0
290
     0
  0
SCALE
  5
4A
102
{ACAD_REACTORS
330
47
102
}
330
47
100
AcDbScale
 70
     0
300
1:4
140
1.0
141
4.0
290
     0
  0
SCALE
  5
4B
102
{ACAD_REACTORS
330
47
102
}
330
47
100
AcDbScale
 70
     0
300
1:5
140
1.0
141
5.0
290
     0
  0
SCALE
  5
4C
102
{ACAD_REACTORS
330
47
102
}
330
47
100
AcDbScale
 70
     0
300
1:8
140
1.0
141
8.0
290
     0
  0
SCALE
  5
4D
102
{ACAD_REACTORS
330
47
102
}
330
47
100
AcDbScale
 70
     0
300
1:10
140
1.0
141
10.0
290
     0
  0
SCALE
  5
4E
102
{ACAD_REACTORS
330
47
102
}
330
47
100
AcDbScale
 70
     0
300
1:16
140
1.0
141
16.0
290
     0
  0
SCALE
  5
4F
102
{ACAD_REACTORS
330
47
102
}
330
47
100
AcDbScale
 70
     0
300
1:20
140
1.0
141
20.0
290
     0
  0
SCALE
  5
50
102
{ACAD_REACTORS
330
47
102
}
330
47
100
AcDbScale
 70
     0
300
1:30
140
1.0
141
30.0
290
     0
  0
SCALE
  5
51
102
{ACAD_REACTORS
330
47
102
}
330
47
100
AcDbScale
 70
     0
300
1:40
140
1.0
141
40.0
290
     0
  0
SCALE
  5
52
102
{ACAD_REACTORS
330
47
102
}
330
47
100
AcDbScale
 70
     0
300
1:50
140
1.0
141
50.0
290
     0
  0
SCALE
  5
53
102
{ACAD_REACTORS
330
47
102
}
330
47
100
AcDbScale
 70
     0
300
1:100
140
1.0
141
100.0
290
     0
  0
SCALE
  5
54
102
{ACAD_REACTORS
330
47
102
}
330
47
100
AcDbScale
 70
     0
300
2:1
140
2.0
141
1.0
290
     0
  0
SCALE
  5
55
102
{ACAD_REACTORS
330
47
102
}
330
47
100
AcDbScale
 70
     0
300
4:1
140
4.0
141
1.0
290
     0
  0
SCALE
  5
56
102
{ACAD_REACTORS
330
47
102
}
330
47
100
AcDbScale
 70
     0
300
8:1
140
8.0
141
1.0
290
     0
  0
SCALE
  5
57
102
{ACAD_REACTORS
330
47
102
}
330
47
100
AcDbScale
 70
     0
300
10:1
140
10.0
141
1.0
290
     0
  0
SCALE
  5
58
102
{ACAD_REACTORS
330
47
102
}
330
47
100
AcDbScale
 70
     0
300
100:1
140
100.0
141
1.0
290
     0
  0
SCALE
  5
59
102
{ACAD_REACTORS
330
47
102
}
330
47
100
AcDbScale
 70
     0
300
1/128" = 1'-0"
140
0.0078125
141
12.0
290
     0
  0
SCALE
  5
5A
102
{ACAD_REACTORS
330
47
102
}
330
47
100
AcDbScale
 70
     0
300
1/64" = 1'-0"
140
0.015625
141
12.0
290
     0
  0
SCALE
  5
5B
102
{ACAD_REACTORS
330
47
102
}
330
47
100
AcDbScale
 70
     0
300
1/32" = 1'-0"
140
0.03125
141
12.0
290
     0
  0
SCALE
  5
5C
102
{ACAD_REACTORS
330
47
102
}
330
47
100
AcDbScale
 70
     0
300
1/16" = 1'-0"
140
0.0625
141
12.0
290
     0
  0
SCALE
  5
5D
102
{ACAD_REACTORS
330
47
102
}
330
47
100
AcDbScale
 70
     0
300
3/32" = 1'-0"
140
0.09375
141
12.0
290
     0
  0
SCALE
  5
5E
102
{ACAD_REACTORS
330
47
102
}
330
47
100
AcDbScale
 70
     0
300
1/8" = 1'-0"
140
0.125
141
12.0
290
     0
  0
SCALE
  5
5F
102
{ACAD_REACTORS
330
47
102
}
330
47
100
AcDbScale
 70
     0
300
3/16" = 1'-0"
140
0.1875
141
12.0
290
     0
  0
SCALE
  5
60
102
{ACAD_REACTORS
330
47
102
}
330
47
100
AcDbScale
 70
     0
300
1/4" = 1'-0"
140
0.25
141
12.0
290
     0
  0
SCALE
  5
61
102
{ACAD_REACTORS
330
47
102
}
330
47
100
AcDbScale
 70
     0
300
3/8" = 1'-0"
140
0.375
141
12.0
290
     0
  0
SCALE
  5
62
102
{ACAD_REACTORS
330
47
102
}
330
47
100
AcDbScale
 70
     0
300
1/2" = 1'-0"
140
0.5
141
12.0
290
     0
  0
SCALE
  5
63
102
{ACAD_REACTORS
330
47
102
}
330
47
100
AcDbScale
 70
     0
300
3/4" = 1'-0"
140
0.75
141
12.0
290
     0
  0
SCALE
  5
64
102
{ACAD_REACTORS
330
47
102
}
330
47
100
AcDbScale
 70
     0
300
1" = 1'-0"
140
1.0
141
12.0
290
     0
  0
SCALE
  5
65
102
{ACAD_REACTORS
330
47
102
}
330
47
100
AcDbScale
 70
     0
300
1-1/2" = 1'-0"
140
1.5
141
12.0
290
     0
  0
SCALE
  5
66
102
{ACAD_REACTORS
330
47
102
}
330
47
100
AcDbScale
 70
     0
300
3" = 1'-0"
140
3.0
141
12.0
290
     0
  0
SCALE
  5
67
102
{ACAD_REACTORS
330
47
102
}
330
47
100
AcDbScale
 70
     0
300
6" = 1'-0"
140
6.0
141
12.0
290
     0
  0
SCALE
  5
68
102
{ACAD_REACTORS
330
47
102
}
330
47
100
AcDbScale
 70
     0
300
1'-0" = 1'-0"
140
12.0
141
12.0
290
     0
  0
TABLESTYLE
  5
6A
102
{ACAD_REACTORS
330
69
102
}
102
{ACAD_XDICTIONARY
360
5E5
102
}
330
69
100
AcDbTableStyle
  3
Standard
 70
     0
 71
     0
 40
0.06
 41
0.06
280
     0
281
     0
  7
Standard
140
0.18
170
     2
 62
     0
 63
   257
283
     0
274
    -2
284
     1
 64
     0
275
    -2
285
     1
 65
     0
276
    -2
286
     1
 66
     0
277
    -2
287
     1
 67
     0
278
    -2
288
     1
 68
     0
279
    -2
289
     1
 69
     0
  7
Standard
140
0.25
170
     5
 62
     0
 63
   257
283
     0
274
    -2
284
     1
 64
     0
275
    -2
285
     1
 65
     0
276
    -2
286
     1
 66
     0
277
    -2
287
     1
 67
     0
278
    -2
288
     1
 68
     0
279
    -2
289
     1
 69
     0
  7
Standard
140
0.18
170
     5
 62
     0
 63
   257
283
     0
274
    -2
284
     1
 64
     0
275
    -2
285
     1
 65
     0
276
    -2
286
     1
 66
     0
277
    -2
287
     1
 67
     0
278
    -2
288
     1
 68
     0
279
    -2
289
     1
 69
     0
  0
DICTIONARYVAR
  5
5E4
102
{ACAD_REACTORS
330
5E3
102
}
330
5E3
100
DictionaryVariables
280
     0
  1
1:1
  0
DICTIONARYVAR
  5
5EB
102
{ACAD_REACTORS
330
5E3
102
}
330
5E3
100
DictionaryVariables
280
     0
  1
Standard
  0
DICTIONARYVAR
  5
5EA
102
{ACAD_REACTORS
330
5E3
102
}
330
5E3
100
DictionaryVariables
280
     0
  1
Standard
  0
DICTIONARY
  5
5E5
330
6A
100
AcDbDictionary
280
     1
281
     1
  3
ACAD_ROUNDTRIP_2008_TABLESTYLE_CELLSTYLEMAP
360
5E7
  3
ACAD_XREC_ROUNDTRIP
360
5E6
  0
CELLSTYLEMAP
  5
5E7
102
{ACAD_REACTORS
330
5E5
102
}
330
5E5
100
AcDbCellStyleMap
 90
        3
300
CELLSTYLE
  1
TABLEFORMAT_BEGIN
 90
        5
170
     1
 91
        0
 92
    32768
 62
   257
 93
        1
300
CONTENTFORMAT
  1
CONTENTFORMAT_BEGIN
 90
        0
 91
        0
 92
        4
 93
        0
300

 40
0.0
140
1.0
 94
        5
 62
     0
340
11
144
0.25
309
CONTENTFORMAT_END
171
     1
301
MARGIN
  1
CELLMARGIN_BEGIN
 40
0.06
 40
0.06
 40
0.06
 40
0.06
 40
0.06
 40
0.06
309
CELLMARGIN_END
 94
        6
 95
        1
302
GRIDFORMAT
  1
GRIDFORMAT_BEGIN
 90
        0
 91
        1
 62
     0
 92
       -2
340
14
 93
        0
 40
0.045
309
GRIDFORMAT_END
 95
        2
302
GRIDFORMAT
  1
GRIDFORMAT_BEGIN
 90
        0
 91
        1
 62
     0
 92
       -2
340
14
 93
        0
 40
0.045
309
GRIDFORMAT_END
 95
        4
302
GRIDFORMAT
  1
GRIDFORMAT_BEGIN
 90
        0
 91
        1
 62
     0
 92
       -2
340
14
 93
        0
 40
0.045
309
GRIDFORMAT_END
 95
        8
302
GRIDFORMAT
  1
GRIDFORMAT_BEGIN
 90
        0
 91
        1
 62
     0
 92
       -2
340
14
 93
        0
 40
0.045
309
GRIDFORMAT_END
 95
       16
302
GRIDFORMAT
  1
GRIDFORMAT_BEGIN
 90
        0
 91
        1
 62
     0
 92
       -2
340
14
 93
        0
 40
0.045
309
GRIDFORMAT_END
 95
       32
302
GRIDFORMAT
  1
GRIDFORMAT_BEGIN
 90
        0
 91
        1
 62
     0
 92
       -2
340
14
 93
        0
 40
0.045
309
GRIDFORMAT_END
309
TABLEFORMAT_END
  1
CELLSTYLE_BEGIN
 90
        1
 91
        1
300
_TITLE
309
CELLSTYLE_END
300
CELLSTYLE
  1
TABLEFORMAT_BEGIN
 90
        5
170
     1
 91
        0
 92
        0
 62
   257
 93
        1
300
CONTENTFORMAT
  1
CONTENTFORMAT_BEGIN
 90
        0
 91
        0
 92
        4
 93
        0
300

 40
0.0
140
1.0
 94
        5
 62
     0
340
11
144
0.18
309
CONTENTFORMAT_END
171
     1
301
MARGIN
  1
CELLMARGIN_BEGIN
 40
0.06
 40
0.06
 40
0.06
 40
0.06
 40
0.06
 40
0.06
309
CELLMARGIN_END
 94
        6
 95
        1
302
GRIDFORMAT
  1
GRIDFORMAT_BEGIN
 90
        0
 91
        1
 62
     0
 92
       -2
340
14
 93
        0
 40
0.045
309
GRIDFORMAT_END
 95
        2
302
GRIDFORMAT
  1
GRIDFORMAT_BEGIN
 90
        0
 91
        1
 62
     0
 92
       -2
340
14
 93
        0
 40
0.045
309
GRIDFORMAT_END
 95
        4
302
GRIDFORMAT
  1
GRIDFORMAT_BEGIN
 90
        0
 91
        1
 62
     0
 92
       -2
340
14
 93
        0
 40
0.045
309
GRIDFORMAT_END
 95
        8
302
GRIDFORMAT
  1
GRIDFORMAT_BEGIN
 90
        0
 91
        1
 62
     0
 92
       -2
340
14
 93
        0
 40
0.045
309
GRIDFORMAT_END
 95
       16
302
GRIDFORMAT
  1
GRIDFORMAT_BEGIN
 90
        0
 91
        1
 62
     0
 92
       -2
340
14
 93
        0
 40
0.045
309
GRIDFORMAT_END
 95
       32
302
GRIDFORMAT
  1
GRIDFORMAT_BEGIN
 90
        0
 91
        1
 62
     0
 92
       -2
340
14
 93
        0
 40
0.045
309
GRIDFORMAT_END
309
TABLEFORMAT_END
  1
CELLSTYLE_BEGIN
 90
        2
 91
        1
300
_HEADER
309
CELLSTYLE_END
300
CELLSTYLE
  1
TABLEFORMAT_BEGIN
 90
        5
170
     1
 91
        0
 92
        0
 62
   257
 93
        1
300
CONTENTFORMAT
  1
CONTENTFORMAT_BEGIN
 90
        0
 91
        0
 92
        4
 93
        0
300

 40
0.0
140
1.0
 94
        2
 62
     0
340
11
144
0.18
309
CONTENTFORMAT_END
171
     1
301
MARGIN
  1
CELLMARGIN_BEGIN
 40
0.06
 40
0.06
 40
0.06
 40
0.06
 40
0.06
 40
0.06
309
CELLMARGIN_END
 94
        6
 95
        1
302
GRIDFORMAT
  1
GRIDFORMAT_BEGIN
 90
        0
 91
        1
 62
     0
 92
       -2
340
14
 93
        0
 40
0.045
309
GRIDFORMAT_END
 95
        2
302
GRIDFORMAT
  1
GRIDFORMAT_BEGIN
 90
        0
 91
        1
 62
     0
 92
       -2
340
14
 93
        0
 40
0.045
309
GRIDFORMAT_END
 95
        4
302
GRIDFORMAT
  1
GRIDFORMAT_BEGIN
 90
        0
 91
        1
 62
     0
 92
       -2
340
14
 93
        0
 40
0.045
309
GRIDFORMAT_END
 95
        8
302
GRIDFORMAT
  1
GRIDFORMAT_BEGIN
 90
        0
 91
        1
 62
     0
 92
       -2
340
14
 93
        0
 40
0.045
309
GRIDFORMAT_END
 95
       16
302
GRIDFORMAT
  1
GRIDFORMAT_BEGIN
 90
        0
 91
        1
 62
     0
 92
       -2
340
14
 93
        0
 40
0.045
309
GRIDFORMAT_END
 95
       32
302
GRIDFORMAT
  1
GRIDFORMAT_BEGIN
 90
        0
 91
        1
 62
     0
 92
       -2
340
14
 93
        0
 40
0.045
309
GRIDFORMAT_END
309
TABLEFORMAT_END
  1
CELLSTYLE_BEGIN
 90
        3
 91
        2
300
_DATA
309
CELLSTYLE_END
  0
XRECORD
  5
5E6
102
{ACAD_REACTORS
330
5E5
102
}
330
5E5
100
AcDbXrecord
280
     1
102
ACAD_ROUNDTRIP_PRE2007_TABLESTYLE
 90
        4
 91
        0
  1

 92
        4
 93
        0
  2

 94
        4
 95
        0
  3

  0
ENDSEC
  0
EOF
