  0
SECTION
  2
HEADER
  9
$ACADVER
  1
AC1018
  9
$ACADMAINTVER
 70
    39
  9
$DWGCODEPAGE
  3
ANSI_1252
  9
$LASTSAVEDBY
  1
fottrem
  9
$INSBASE
 10
0.0
 20
0.0
 30
0.0
  9
$EXTMIN
 10
0.1653543307086614
 20
0.1653543307086614
 30
-0.2102434779826743
  9
$EXTMAX
 10
69.83464566929135
 20
49.83464566929134
 30
9.026449999999837
  9
$LIMMIN
 10
0.0
 20
0.0
  9
$LIMMAX
 10
70.0
 20
50.0
  9
$ORTHOMODE
 70
     0
  9
$REGENMODE
 70
     1
  9
$FILLMODE
 70
     1
  9
$QTEXTMODE
 70
     0
  9
$MIRRTEXT
 70
     1
  9
$LTSCALE
 40
1.0
  9
$ATTMODE
 70
     1
  9
$TEXTSIZE
 40
0.5
  9
$TRACEWID
 40
0.05
  9
$TEXTSTYLE
  7
Standard
  9
$CLAYER
  8
0
  9
$CELTYPE
  6
ByLayer
  9
$CECOLOR
 62
   256
  9
$CELTSCALE
 40
1.0
  9
$DISPSILH
 70
     0
  9
$DIMSCALE
 40
1.0
  9
$DIMASZ
 40
0.3
  9
$DIMEXO
 40
0.1666666666666667
  9
$DIMDLI
 40
0.38
  9
$DIMRND
 40
0.0
  9
$DIMDLE
 40
0.0
  9
$DIMEXE
 40
0.3750000000000001
  9
$DIMTP
 40
0.0
  9
$DIMTM
 40
0.0
  9
$DIMTXT
 40
0.5
  9
$DIMCEN
 40
0.09
  9
$DIMTSZ
 40
0.0
  9
$DIMTOL
 70
     0
  9
$DIMLIM
 70
     0
  9
$DIMTIH
 70
     1
  9
$DIMTOH
 70
     1
  9
$DIMSE1
 70
     0
  9
$DIMSE2
 70
     0
  9
$DIMTAD
 70
     0
  9
$DIMZIN
 70
     1
  9
$DIMBLK
  1

  9
$DIMASO
 70
     1
  9
$DIMSHO
 70
     1
  9
$DIMPOST
  1

  9
$DIMAPOST
  1

  9
$DIMALT
 70
     0
  9
$DIMALTD
 70
     2
  9
$DIMALTF
 40
25.4
  9
$DIMLFAC
 40
1.0
  9
$DIMTOFL
 70
     0
  9
$DIMTVP
 40
0.0
  9
$DIMTIX
 70
     0
  9
$DIMSOXD
 70
     0
  9
$DIMSAH
 70
     0
  9
$DIMBLK1
  1

  9
$DIMBLK2
  1

  9
$DIMSTYLE
  2
Standard
  9
$DIMCLRD
 70
     0
  9
$DIMCLRE
 70
     0
  9
$DIMCLRT
 70
     0
  9
$DIMTFAC
 40
1.0
  9
$DIMGAP
 40
0.125
  9
$DIMJUST
 70
     0
  9
$DIMSD1
 70
     0
  9
$DIMSD2
 70
     0
  9
$DIMTOLJ
 70
     1
  9
$DIMTZIN
 70
     1
  9
$DIMALTZ
 70
     0
  9
$DIMALTTZ
 70
     0
  9
$DIMUPT
 70
     0
  9
$DIMDEC
 70
     2
  9
$DIMTDEC
 70
     2
  9
$DIMALTU
 70
     2
  9
$DIMALTTD
 70
     2
  9
$DIMTXSTY
  7
Standard
  9
$DIMAUNIT
 70
     0
  9
$DIMADEC
 70
     2
  9
$DIMALTRND
 40
0.0
  9
$DIMAZIN
 70
     0
  9
$DIMDSEP
 70
    46
  9
$DIMATFIT
 70
     3
  9
$DIMFRAC
 70
     0
  9
$DIMLDRBLK
  1

  9
$DIMLUNIT
 70
     2
  9
$DIMLWD
 70
    -2
  9
$DIMLWE
 70
    -2
  9
$DIMTMOVE
 70
     0
  9
$LUNITS
 70
     2
  9
$LUPREC
 70
     4
  9
$SKETCHINC
 40
0.1
  9
$FILLETRAD
 40
0.5
  9
$AUNITS
 70
     0
  9
$AUPREC
 70
     2
  9
$MENU
  1
.
  9
$ELEVATION
 40
0.0
  9
$PELEVATION
 40
0.0
  9
$THICKNESS
 40
0.0
  9
$LIMCHECK
 70
     0
  9
$CHAMFERA
 40
0.0
  9
$CHAMFERB
 40
0.0
  9
$CHAMFERC
 40
0.0
  9
$CHAMFERD
 40
0.0
  9
$SKPOLY
 70
     0
  9
$TDCREATE
 40
2453353.550459155
  9
$TDUCREATE
 40
2453353.717125822
  9
$TDUPDATE
 40
2459488.651032801
  9
$TDUUPDATE
 40
2459488.817699468
  9
$TDINDWG
 40
0.0428472338
  9
$TDUSRTIMER
 40
0.0428472338
  9
$USRTIMER
 70
     1
  9
$ANGBASE
 50
0.0
  9
$ANGDIR
 70
     0
  9
$PDMODE
 70
     0
  9
$PDSIZE
 40
-1.0
  9
$PLINEWID
 40
0.0
  9
$SPLFRAME
 70
     0
  9
$SPLINETYPE
 70
     6
  9
$SPLINESEGS
 70
     8
  9
$HANDSEED
  5
3CD
  9
$SURFTAB1
 70
     6
  9
$SURFTAB2
 70
     6
  9
$SURFTYPE
 70
     6
  9
$SURFU
 70
     6
  9
$SURFV
 70
     6
  9
$UCSBASE
  2

  9
$UCSNAME
  2

  9
$UCSORG
 10
0.0
 20
0.0
 30
0.0
  9
$UCSXDIR
 10
1.0
 20
0.0
 30
0.0
  9
$UCSYDIR
 10
0.0
 20
1.0
 30
0.0
  9
$UCSORTHOREF
  2

  9
$UCSORTHOVIEW
 70
     0
  9
$UCSORGTOP
 10
0.0
 20
0.0
 30
0.0
  9
$UCSORGBOTTOM
 10
0.0
 20
0.0
 30
0.0
  9
$UCSORGLEFT
 10
0.0
 20
0.0
 30
0.0
  9
$UCSORGRIGHT
 10
0.0
 20
0.0
 30
0.0
  9
$UCSORGFRONT
 10
0.0
 20
0.0
 30
0.0
  9
$UCSORGBACK
 10
0.0
 20
0.0
 30
0.0
  9
$PUCSBASE
  2

  9
$PUCSNAME
  2

  9
$PUCSORG
 10
0.0
 20
0.0
 30
0.0
  9
$PUCSXDIR
 10
1.0
 20
0.0
 30
0.0
  9
$PUCSYDIR
 10
0.0
 20
1.0
 30
0.0
  9
$PUCSORTHOREF
  2

  9
$PUCSORTHOVIEW
 70
     0
  9
$PUCSORGTOP
 10
0.0
 20
0.0
 30
0.0
  9
$PUCSORGBOTTOM
 10
0.0
 20
0.0
 30
0.0
  9
$PUCSORGLEFT
 10
0.0
 20
0.0
 30
0.0
  9
$PUCSORGRIGHT
 10
0.0
 20
0.0
 30
0.0
  9
$PUCSORGFRONT
 10
0.0
 20
0.0
 30
0.0
  9
$PUCSORGBACK
 10
0.0
 20
0.0
 30
0.0
  9
$USERI1
 70
     0
  9
$USERI2
 70
     0
  9
$USERI3
 70
     0
  9
$USERI4
 70
     0
  9
$USERI5
 70
     0
  9
$USERR1
 40
0.0
  9
$USERR2
 40
0.0
  9
$USERR3
 40
0.0
  9
$USERR4
 40
0.0
  9
$USERR5
 40
0.0
  9
$WORLDVIEW
 70
     1
  9
$SHADEDGE
 70
     3
  9
$SHADEDIF
 70
    70
  9
$TILEMODE
 70
     1
  9
$MAXACTVP
 70
    64
  9
$PINSBASE
 10
0.0
 20
0.0
 30
0.0
  9
$PLIMCHECK
 70
     0
  9
$PEXTMIN
 10
1.000000000000000E+20
 20
1.000000000000000E+20
 30
1.000000000000000E+20
  9
$PEXTMAX
 10
-1.000000000000000E+20
 20
-1.000000000000000E+20
 30
-1.000000000000000E+20
  9
$PLIMMIN
 10
0.0
 20
0.0
  9
$PLIMMAX
 10
12.0
 20
9.0
  9
$UNITMODE
 70
     0
  9
$VISRETAIN
 70
     1
  9
$PLINEGEN
 70
     0
  9
$PSLTSCALE
 70
     1
  9
$TREEDEPTH
 70
  3020
  9
$CMLSTYLE
  2
Standard
  9
$CMLJUST
 70
     0
  9
$CMLSCALE
 40
1.0
  9
$PROXYGRAPHICS
 70
     1
  9
$MEASUREMENT
 70
     0
  9
$CELWEIGHT
370
    -1
  9
$ENDCAPS
280
     0
  9
$JOINSTYLE
280
     0
  9
$LWDISPLAY
290
     1
  9
$INSUNITS
 70
     1
  9
$HYPERLINKBASE
  1

  9
$STYLESHEET
  1

  9
$XEDIT
290
     0
  9
$CEPSNTYPE
380
     0
  9
$PSTYLEMODE
290
     1
  9
$FINGERPRINTGUID
  2
{9fbf8f4d-bb2c-49ab-8e97-e6b45af72b4f}
  9
$VERSIONGUID
  2
{FAEB1C32-E019-11D5-929B-00C0DF256EC4}
  9
$EXTNAMES
290
     1
  9
$PSVPSCALE
 40
0.0
  9
$OLESTARTUP
290
     0
  9
$SORTENTS
280
   127
  9
$INDEXCTL
280
     0
  9
$HIDETEXT
280
     1
  9
$XCLIPFRAME
290
     0
  9
$HALOGAP
280
     0
  9
$OBSCOLOR
 70
   257
  9
$OBSLTYPE
280
     0
  9
$INTERSECTIONDISPLAY
280
     0
  9
$INTERSECTIONCOLOR
 70
   257
  9
$DIMASSOC
280
     2
  9
$PROJECTNAME
  1

  0
ENDSEC
  0
SECTION
  2
CLASSES
  0
CLASS
  1
ACDBDICTIONARYWDFLT
  2
AcDbDictionaryWithDefault
  3
ObjectDBX Classes
 90
        0
 91
        3
280
     0
281
     0
  0
CLASS
  1
ACDBPLACEHOLDER
  2
AcDbPlaceHolder
  3
ObjectDBX Classes
 90
        0
 91
        1
280
     0
281
     0
  0
CLASS
  1
LAYOUT
  2
AcDbLayout
  3
ObjectDBX Classes
 90
        0
 91
        1
280
     0
281
     0
  0
CLASS
  1
DICTIONARYVAR
  2
AcDbDictionaryVar
  3
ObjectDBX Classes
 90
        0
 91
        3
280
     0
281
     0
  0
CLASS
  1
TABLESTYLE
  2
AcDbTableStyle
  3
ObjectDBX Classes
 90
     2047
 91
        3
280
     0
281
     0
  0
CLASS
  1
SCALE
  2
AcDbScale
  3
ObjectDBX Classes
 90
     1153
 91
       67
280
     1
281
     0
  0
ENDSEC
  0
SECTION
  2
TABLES
  0
TABLE
  2
VPORT
  5
8
330
0
100
AcDbSymbolTable
 70
     2
  0
VPORT
  5
97
330
8
100
AcDbSymbolTableRecord
100
AcDbViewportTableRecord
  2
*Active
 70
     0
 10
0.0
 20
0.0
 11
1.0
 21
1.0
 12
35.00000000000001
 22
25.0
 13
0.0
 23
0.0
 14
0.5
 24
0.5
 15
0.5
 25
0.5
 16
0.0
 26
0.0
 36
1.0
 17
0.0
 27
0.0
 37
0.0
 40
50.66267716535433
 41
1.4
 42
50.0
 43
0.0
 44
0.0
 50
0.0
 51
0.0
 71
    16
 72
  2000
 73
     1
 74
     1
 75
     0
 76
     0
 77
     0
 78
     0
281
     0
 65
     0
110
0.0
120
0.0
130
0.0
111
1.0
121
0.0
131
0.0
112
0.0
122
1.0
132
0.0
 79
     0
146
0.0
  0
ENDTAB
  0
TABLE
  2
LTYPE
  5
5
330
0
100
AcDbSymbolTable
 70
     8
  0
LTYPE
  5
14
330
5
100
AcDbSymbolTableRecord
100
AcDbLinetypeTableRecord
  2
ByBlock
 70
     0
  3

 72
    65
 73
     0
 40
0.0
  0
LTYPE
  5
15
330
5
100
AcDbSymbolTableRecord
100
AcDbLinetypeTableRecord
  2
ByLayer
 70
     0
  3

 72
    65
 73
     0
 40
0.0
  0
LTYPE
  5
16
330
5
100
AcDbSymbolTableRecord
100
AcDbLinetypeTableRecord
  2
Continuous
 70
     0
  3
Solid line
 72
    65
 73
     0
 40
0.0
  0
LTYPE
  5
399
330
5
100
AcDbSymbolTableRecord
100
AcDbLinetypeTableRecord
  2
SLD-Solid
 70
     0
  3
SolidWorks Line Style
 72
    65
 73
     0
 40
0.0
  0
LTYPE
  5
39A
330
5
100
AcDbSymbolTableRecord
100
AcDbLinetypeTableRecord
  2
SLD-Dashed
 70
     0
  3
SolidWorks Line Style
 72
    65
 73
     2
 40
0.075
 49
0.05
 74
     4
 75
     0
340
0
 46
1.0
 50
0.0
 44
0.0
 45
0.0
 49
-0.025
 74
     4
 75
     0
340
0
 46
1.0
 50
0.0
 44
0.0
 45
0.0
  0
LTYPE
  5
39B
330
5
100
AcDbSymbolTableRecord
100
AcDbLinetypeTableRecord
  2
SLD-Phantom
 70
     0
  3
SolidWorks Line Style
 72
    65
 73
     6
 40
0.4999999999999999
 49
0.25
 74
     4
 75
     0
340
0
 46
1.0
 50
0.0
 44
0.0
 45
0.0
 49
-0.05
 74
     4
 75
     0
340
0
 46
1.0
 50
0.0
 44
0.0
 45
0.0
 49
0.05
 74
     4
 75
     0
340
0
 46
1.0
 50
0.0
 44
0.0
 45
0.0
 49
-0.05
 74
     4
 75
     0
340
0
 46
1.0
 50
0.0
 44
0.0
 45
0.0
 49
0.05
 74
     4
 75
     0
340
0
 46
1.0
 50
0.0
 44
0.0
 45
0.0
 49
-0.05
 74
     4
 75
     0
340
0
 46
1.0
 50
0.0
 44
0.0
 45
0.0
  0
LTYPE
  5
39C
330
5
100
AcDbSymbolTableRecord
100
AcDbLinetypeTableRecord
  2
SLD-Chain
 70
     0
  3
SolidWorks Line Style
 72
    65
 73
     4
 40
0.4
 49
0.25
 74
     4
 75
     0
340
0
 46
1.0
 50
0.0
 44
0.0
 45
0.0
 49
-0.05
 74
     4
 75
     0
340
0
 46
1.0
 50
0.0
 44
0.0
 45
0.0
 49
0.05
 74
     4
 75
     0
340
0
 46
1.0
 50
0.0
 44
0.0
 45
0.0
 49
-0.05
 74
     4
 75
     0
340
0
 46
1.0
 50
0.0
 44
0.0
 45
0.0
  0
LTYPE
  5
39D
330
5
100
AcDbSymbolTableRecord
100
AcDbLinetypeTableRecord
  2
SLD-Center
 70
     0
  3
SolidWorks Line Style
 72
    65
 73
     4
 40
0.7500000000000002
 49
0.6000000000000001
 74
     4
 75
     0
340
0
 46
1.0
 50
0.0
 44
0.0
 45
0.0
 49
-0.05
 74
     4
 75
     0
340
0
 46
1.0
 50
0.0
 44
0.0
 45
0.0
 49
0.05
 74
     4
 75
     0
340
0
 46
1.0
 50
0.0
 44
0.0
 45
0.0
 49
-0.05
 74
     4
 75
     0
340
0
 46
1.0
 50
0.0
 44
0.0
 45
0.0
  0
LTYPE
  5
39E
330
5
100
AcDbSymbolTableRecord
100
AcDbLinetypeTableRecord
  2
SLD-Stitch
 70
     0
  3
SolidWorks Line Style
 72
    65
 73
     2
 40
0.025
 49
0.0
 74
     4
 75
     0
340
0
 46
1.0
 50
0.0
 44
0.0
 45
0.0
 49
-0.025
 74
     4
 75
     0
340
0
 46
1.0
 50
0.0
 44
0.0
 45
0.0
  0
LTYPE
  5
39F
330
5
100
AcDbSymbolTableRecord
100
AcDbLinetypeTableRecord
  2
SLD-Thin-Thick-Chain
 70
     0
  3
SolidWorks Line Style
 72
    65
 73
     4
 40
0.4
 49
0.25
 74
     4
 75
     0
340
0
 46
1.0
 50
0.0
 44
0.0
 45
0.0
 49
-0.05
 74
     4
 75
     0
340
0
 46
1.0
 50
0.0
 44
0.0
 45
0.0
 49
0.05
 74
     4
 75
     0
340
0
 46
1.0
 50
0.0
 44
0.0
 45
0.0
 49
-0.05
 74
     4
 75
     0
340
0
 46
1.0
 50
0.0
 44
0.0
 45
0.0
  0
ENDTAB
  0
TABLE
  2
LAYER
  5
2
330
0
100
AcDbSymbolTable
 70
     6
  0
LAYER
  5
10
330
2
100
AcDbSymbolTableRecord
100
AcDbLayerTableRecord
  2
0
 70
     0
 62
     7
  6
Continuous
370
    -3
390
F
  0
LAYER
  5
3A0
330
2
100
AcDbSymbolTableRecord
100
AcDbLayerTableRecord
  2
FORMAT
 70
     0
 62
     7
  6
SLD-Solid
370
    -3
390
F
  0
LAYER
  5
3A1
330
2
100
AcDbSymbolTableRecord
100
AcDbLayerTableRecord
  2
NOTES
 70
     0
 62
     1
  6
SLD-Solid
370
    -3
390
F
  0
LAYER
  5
77
330
2
100
AcDbSymbolTableRecord
100
AcDbLayerTableRecord
  2
OBJECT
 70
     0
 62
     7
  6
SLD-Solid
370
    25
390
F
  0
LAYER
  5
78
330
2
100
AcDbSymbolTableRecord
100
AcDbLayerTableRecord
  2
DIMS
 70
     0
 62
     5
  6
SLD-Solid
370
    -3
390
F
  0
LAYER
  5
79
330
2
100
AcDbSymbolTableRecord
100
AcDbLayerTableRecord
  2
TITLE
 70
     0
 62
     8
  6
SLD-Solid
370
    -3
390
F
  0
ENDTAB
  0
TABLE
  2
STYLE
  5
3
330
0
100
AcDbSymbolTable
 70
     5
  0
STYLE
  5
11
330
3
100
AcDbSymbolTableRecord
100
AcDbTextStyleTableRecord
  2
Standard
 70
     0
 40
0.0
 41
1.0
 50
0.0
 71
     0
 42
0.5
  3
GOTHIC.TTF
  4

1001
ACAD
1000
CENTURY GOTHIC
1071
       34
  0
STYLE
  5
101
330
3
100
AcDbSymbolTableRecord
100
AcDbTextStyleTableRecord
  2
SLDTEXTSTYLE0
 70
     0
 40
0.0
 41
0.913
 50
0.0
 71
     0
 42
0.5
  3
GOTHIC.TTF
  4

1001
ACAD
1000
Century Gothic
1071
      290
  0
STYLE
  5
10B
330
3
100
AcDbSymbolTableRecord
100
AcDbTextStyleTableRecord
  2
SLDTEXTSTYLE1
 70
     0
 40
0.0
 41
0.948
 50
0.0
 71
     0
 42
0.5
  3
ARIAL.TTF
  4

1001
ACAD
1000
Arial
1071
      290
  0
STYLE
  5
11D
330
3
100
AcDbSymbolTableRecord
100
AcDbTextStyleTableRecord
  2
SLDTEXTSTYLE2
 70
     0
 40
0.0
 41
0.87
 50
0.0
 71
     0
 42
0.5
  3
ARIALNB.TTF
  4

1001
ACAD
1000
Arial Narrow
1071
 33554722
  0
STYLE
  5
11F
330
3
100
AcDbSymbolTableRecord
100
AcDbTextStyleTableRecord
  2
SLDTEXTSTYLE3
 70
     0
 40
0.0
 41
0.87
 50
0.0
 71
     0
 42
0.5
  3
ARIALN.TTF
  4

1001
ACAD
1000
Arial Narrow
1071
      290
  0
ENDTAB
  0
TABLE
  2
VIEW
  5
6
330
0
100
AcDbSymbolTable
 70
     0
  0
ENDTAB
  0
TABLE
  2
UCS
  5
7
330
0
100
AcDbSymbolTable
 70
     0
  0
ENDTAB
  0
TABLE
  2
APPID
  5
9
330
0
100
AcDbSymbolTable
 70
     1
  0
APPID
  5
12
330
9
100
AcDbSymbolTableRecord
100
AcDbRegAppTableRecord
  2
ACAD
 70
     0
  0
ENDTAB
  0
TABLE
  2
DIMSTYLE
  5
A
330
0
100
AcDbSymbolTable
 70
     4
100
AcDbDimStyleTable
  0
DIMSTYLE
105
27
330
A
100
AcDbSymbolTableRecord
100
AcDbDimStyleTableRecord
  2
Standard
 70
     0
340
11
  0
DIMSTYLE
105
1DE
102
{ACAD_REACTORS
330
1DD
330
311
330
32B
102
}
330
A
100
AcDbSymbolTableRecord
100
AcDbDimStyleTableRecord
  2
SLDDIMSTYLE0
 70
     0
 41
0.3
 44
0.0
 45
0.000000001
 78
    12
 79
     3
140
0.5
147
0.125
173
     1
271
     2
272
     2
276
     2
277
     5
284
    12
340
101
341
3A2
343
3A2
344
3A2
  0
DIMSTYLE
105
1EE
102
{ACAD_REACTORS
330
1ED
330
21D
330
22C
330
23B
330
302
330
31C
102
}
330
A
100
AcDbSymbolTableRecord
100
AcDbDimStyleTableRecord
  2
SLDDIMSTYLE1
 70
     0
 41
0.3
 44
0.0
 45
0.000000001
 78
    12
 79
     3
140
0.5
147
0.125
173
     1
271
     6
272
     2
276
     2
277
     5
284
    12
340
101
341
3A2
343
3A2
344
3A2
  0
DIMSTYLE
105
2F5
102
{ACAD_REACTORS
330
2F4
102
}
330
A
100
AcDbSymbolTableRecord
100
AcDbDimStyleTableRecord
  2
SLDDIMSTYLE2
 70
     0
 41
0.3
 44
0.0
 45
0.000000001
 78
    12
 79
     3
140
0.5
141
0.0
147
0.125
173
     1
271
     2
272
     2
276
     2
277
     5
284
    12
340
101
341
3A2
343
3A2
344
3A2
  0
ENDTAB
  0
TABLE
  2
BLOCK_RECORD
  5
1
330
0
100
AcDbSymbolTable
 70
    16
  0
BLOCK_RECORD
  5
1F
330
1
100
AcDbSymbolTableRecord
100
AcDbBlockTableRecord
  2
*Model_Space
340
22
  0
BLOCK_RECORD
  5
73
330
1
100
AcDbSymbolTableRecord
100
AcDbBlockTableRecord
  2
*Paper_Space
340
74
  0
BLOCK_RECORD
  5
3A2
330
1
100
AcDbSymbolTableRecord
100
AcDbBlockTableRecord
  2
_Open90
340
0
102
{BLKREFS
331
1E8
331
1E9
331
1F2
331
1F3
331
221
331
222
331
230
331
231
331
23F
331
240
331
2F9
331
306
331
307
331
315
331
316
331
320
331
321
331
32F
331
330
102
}
  0
BLOCK_RECORD
  5
23
330
1
100
AcDbSymbolTableRecord
100
AcDbBlockTableRecord
  2
*Paper_Space1
340
26
  0
BLOCK_RECORD
  5
104
330
1
100
AcDbSymbolTableRecord
100
AcDbBlockTableRecord
  2
SW_NOTE_0
340
0
102
{BLKREFS
331
109
102
}
  0
BLOCK_RECORD
  5
114
330
1
100
AcDbSymbolTableRecord
100
AcDbBlockTableRecord
  2
SW_NOTE_0_1
340
0
  0
BLOCK_RECORD
  5
11A
330
1
100
AcDbSymbolTableRecord
100
AcDbBlockTableRecord
  2
SW_NOTE_0_2
340
0
102
{BLKREFS
331
123
102
}
  0
BLOCK_RECORD
  5
1E5
330
1
100
AcDbSymbolTableRecord
100
AcDbBlockTableRecord
  2
_D
340
0
  0
BLOCK_RECORD
  5
1EF
330
1
100
AcDbSymbolTableRecord
100
AcDbBlockTableRecord
  2
_D_1
340
0
  0
BLOCK_RECORD
  5
21E
330
1
100
AcDbSymbolTableRecord
100
AcDbBlockTableRecord
  2
_D_2
340
0
  0
BLOCK_RECORD
  5
22D
330
1
100
AcDbSymbolTableRecord
100
AcDbBlockTableRecord
  2
_D_3
340
0
  0
BLOCK_RECORD
  5
23C
330
1
100
AcDbSymbolTableRecord
100
AcDbBlockTableRecord
  2
_D_4
340
0
  0
BLOCK_RECORD
  5
2F6
330
1
100
AcDbSymbolTableRecord
100
AcDbBlockTableRecord
  2
_D_5
340
0
  0
BLOCK_RECORD
  5
303
330
1
100
AcDbSymbolTableRecord
100
AcDbBlockTableRecord
  2
_D_6
340
0
  0
BLOCK_RECORD
  5
312
330
1
100
AcDbSymbolTableRecord
100
AcDbBlockTableRecord
  2
_D_7
340
0
  0
BLOCK_RECORD
  5
31D
330
1
100
AcDbSymbolTableRecord
100
AcDbBlockTableRecord
  2
_D_8
340
0
  0
BLOCK_RECORD
  5
32C
330
1
100
AcDbSymbolTableRecord
100
AcDbBlockTableRecord
  2
_D_9
340
0
  0
BLOCK_RECORD
  5
38D
330
1
100
AcDbSymbolTableRecord
100
AcDbBlockTableRecord
  2
SW_NOTE_0_3
340
0
102
{BLKREFS
331
392
102
}
  0
ENDTAB
  0
ENDSEC
  0
SECTION
  2
BLOCKS
  0
BLOCK
  5
20
330
1F
100
AcDbEntity
  8
0
100
AcDbBlockBegin
  2
*Model_Space
 70
     0
 71
     0
 10
0.0
 20
0.0
 30
0.0
  3
*Model_Space
  1

  0
ENDBLK
  5
21
330
1F
100
AcDbEntity
  8
0
100
AcDbBlockEnd
  0
BLOCK
  5
75
330
73
100
AcDbEntity
 67
     1
  8
0
100
AcDbBlockBegin
  2
*Paper_Space
 70
     0
 71
     0
 10
0.0
 20
0.0
 30
0.0
  3
*Paper_Space
  1

  0
ENDBLK
  5
76
330
73
100
AcDbEntity
 67
     1
  8
0
100
AcDbBlockEnd
  0
BLOCK
  5
3A3
330
3A2
100
AcDbEntity
  8
0
100
AcDbBlockBegin
  2
_Open90
 70
     0
 71
     0
 10
0.0
 20
0.0
 30
0.0
  3
_Open90
  1

  0
LINE
  5
1E2
330
3A2
100
AcDbEntity
  8
0
  6
ByBlock
 62
     0
370
    -2
100
AcDbLine
 10
-0.5
 20
0.5
 30
0.0
 11
0.0
 21
0.0
 31
0.0
  0
LINE
  5
1E3
330
3A2
100
AcDbEntity
  8
0
  6
ByBlock
 62
     0
370
    -2
100
AcDbLine
 10
0.0
 20
0.0
 30
0.0
 11
-0.5
 21
-0.5
 31
0.0
  0
LINE
  5
1E4
330
3A2
100
AcDbEntity
  8
0
  6
ByBlock
 62
     0
370
    -2
100
AcDbLine
 10
0.0
 20
0.0
 30
0.0
 11
-1.0
 21
0.0
 31
0.0
  0
ENDBLK
  5
3A4
330
3A2
100
AcDbEntity
  8
0
100
AcDbBlockEnd
  0
BLOCK
  5
3AB
330
23
100
AcDbEntity
  8
0
100
AcDbBlockBegin
  2
*Paper_Space1
 70
     0
 71
     0
 10
0.0
 20
0.0
 30
0.0
  3
*Paper_Space1
  1

  0
ENDBLK
  5
3AC
330
23
100
AcDbEntity
  8
0
100
AcDbBlockEnd
  0
BLOCK
  5
3AD
330
104
100
AcDbEntity
  8
0
100
AcDbBlockBegin
  2
SW_NOTE_0
 70
     0
 71
     0
 10
0.0
 20
0.0
 30
0.0
  3
SW_NOTE_0
  1

  0
MTEXT
  5
107
330
104
100
AcDbEntity
  8
DIMS
 62
     0
100
AcDbMText
 10
0.0
 20
0.6386718750000004
 30
0.0
 40
0.5
 41
0.0
 71
     1
 72
     1
  1
(1220mm) bottom of mirror from floor. Positions may 
  7
SLDTEXTSTYLE0
 73
     1
 44
1.0
  0
MTEXT
  5
108
330
104
100
AcDbEntity
  8
DIMS
 62
     0
100
AcDbMText
 10
0.0
 20
-0.0078559229223743
 30
0.0
 40
0.5
 41
0.0
 71
     1
 72
     1
  1
vary depending on size and the type of installation
  7
SLDTEXTSTYLE0
 73
     1
 44
1.0
  0
ENDBLK
  5
3AE
330
104
100
AcDbEntity
  8
0
100
AcDbBlockEnd
  0
BLOCK
  5
3AF
330
114
100
AcDbEntity
  8
0
100
AcDbBlockBegin
  2
SW_NOTE_0_1
 70
     0
 71
     0
 10
0.0
 20
0.0
 30
0.0
  3
SW_NOTE_0_1
  1

  0
MTEXT
  5
117
330
114
100
AcDbEntity
  8
NOTES
 62
     0
100
AcDbMText
 10
0.0
 20
0.3759780907668229
 30
0.0
 40
0.2916666666666666
 41
0.0
 71
     1
 72
     1
  1
FROST PRODUCTS LTD.
  7
SLDTEXTSTYLE1
 73
     1
 44
1.0
  0
MTEXT
  5
118
330
114
100
AcDbEntity
  8
NOTES
 62
     0
100
AcDbMText
 10
0.0
 20
-0.0495142708586375
 30
0.0
 40
0.2291666666666666
 41
0.0
 71
     1
 72
     1
  1
5280 JOHN LUCUS DRIVE, BURLINGTON, ON, L7L 5Z9
  7
SLDTEXTSTYLE1
 73
     1
 44
1.0
  0
ENDBLK
  5
3B0
330
114
100
AcDbEntity
  8
0
100
AcDbBlockEnd
  0
BLOCK
  5
3B1
330
11A
100
AcDbEntity
  8
0
100
AcDbBlockBegin
  2
SW_NOTE_0_2
 70
     0
 71
     0
 10
0.0
 20
0.0
 30
0.0
  3
SW_NOTE_0_2
  1

  0
MTEXT
  5
11E
330
11A
100
AcDbEntity
  8
NOTES
 62
     0
100
AcDbMText
 10
0.0
 20
0.2381282770514712
 30
0.0
 40
0.1847290640394089
 41
0.0
 71
     1
 72
     1
  1
PROPRIETARY AND CONFIDENTIAL
  7
SLDTEXTSTYLE2
 73
     1
 44
1.0
  0
MTEXT
  5
120
330
11A
100
AcDbEntity
  8
NOTES
 62
     0
100
AcDbMText
 10
0.0
 20
-0.0504364795553608
 30
0.0
 40
0.25
 41
0.0
 71
     1
 72
     1
  1
THE INFORMATION CONTAINED IN THIS DRAWING IS THE SOLE PROPERTY OF 
  7
SLDTEXTSTYLE3
 73
     1
 44
1.0
  0
MTEXT
  5
121
330
11A
100
AcDbEntity
  8
NOTES
 62
     0
100
AcDbMText
 10
0.0
 20
-0.4231398940537119
 30
0.0
 40
0.25
 41
0.0
 71
     1
 72
     1
  1
FROST PRODUCTS LTD.  ANY REPRODUCTION IN PART OR AS A WHOLE WITHOUT 
  7
SLDTEXTSTYLE3
 73
     1
 44
1.0
  0
MTEXT
  5
122
330
11A
100
AcDbEntity
  8
NOTES
 62
     0
100
AcDbMText
 10
0.0
 20
-0.7958433085520636
 30
0.0
 40
0.25
 41
0.0
 71
     1
 72
     1
  1
THE WRITTEN PERMISSION OF FROST PRODUCTS LTD. IS PROHIBITED.
  7
SLDTEXTSTYLE3
 73
     1
 44
1.0
  0
ENDBLK
  5
3B2
330
11A
100
AcDbEntity
  8
0
100
AcDbBlockEnd
  0
BLOCK
  5
3B3
330
1E5
100
AcDbEntity
  8
0
100
AcDbBlockBegin
  2
_D
 70
     0
 71
     0
 10
0.0
 20
0.0
 30
0.0
  3
_D
  1

  0
INSERT
  5
1E8
330
1E5
100
AcDbEntity
  8
DIMS
100
AcDbBlockReference
  2
_Open90
 10
3.168438088211559
 20
11.58080627059498
 30
-0.0000000000001576
 41
0.3
 42
0.3
 50
90.00000000000063
  0
INSERT
  5
1E9
330
1E5
100
AcDbEntity
  8
DIMS
100
AcDbBlockReference
  2
_Open90
 10
3.168438088211588
 20
3.580806270594979
 30
-0.0000000000001576
 41
0.3
 42
0.3
 50
270.0000000000006
  0
LINE
  5
1EA
330
1E5
100
AcDbEntity
  8
DIMS
100
AcDbLine
 10
3.168438088211559
 20
11.58080627059498
 30
0.0
 11
3.168438088211578
 21
6.440254739262469
 31
0.0
  0
MTEXT
  5
1EB
330
1E5
100
AcDbEntity
  8
DIMS
100
AcDbMText
 10
2.695868660707271
 20
6.285176645396514
 30
0.0
 40
0.5
 41
0.0
 71
     1
 72
     1
  1
48"
  7
SLDTEXTSTYLE0
 73
     1
 44
1.0
  0
MTEXT
  5
1EC
330
1E5
100
AcDbEntity
  8
DIMS
100
AcDbMText
 10
3.076076976841692
 20
3.110176549935216
 30
0.0
 40
0.5
 41
0.0
 71
     1
 72
     1
  1
 
  7
SLDTEXTSTYLE0
 73
     1
 44
1.0
  0
ENDBLK
  5
3B4
330
1E5
100
AcDbEntity
  8
0
100
AcDbBlockEnd
  0
BLOCK
  5
3B5
330
1EF
100
AcDbEntity
  8
0
100
AcDbBlockBegin
  2
_D_1
 70
     0
 71
     0
 10
0.0
 20
0.0
 30
0.0
  3
_D_1
  1

  0
INSERT
  5
1F2
330
1EF
100
AcDbEntity
  8
DIMS
100
AcDbBlockReference
  2
_Open90
 10
1.982408178707893
 20
36.8636636422858
 30
-0.2102434779826743
 41
0.3
 42
0.3
 50
180.0000000000005
  0
INSERT
  5
1F3
330
1EF
100
AcDbEntity
  8
DIMS
100
AcDbBlockReference
  2
_Open90
 10
20.11070817870794
 20
36.86366364228583
 30
-0.2102434779826743
 41
0.3
 42
0.3
 50
0.0000000000004834
  0
LINE
  5
1F4
330
1EF
100
AcDbEntity
  8
DIMS
100
AcDbLine
 10
11.05489151744048
 20
36.91494834067392
 30
0.0
 11
11.57086376688502
 21
36.91494834067392
 31
0.0
  0
LINE
  5
1F5
330
1EF
100
AcDbEntity
  8
DIMS
100
AcDbLine
 10
1.982408178707894
 20
35.59312559455191
 30
0.0
 11
1.982408178707892
 21
37.2386636422858
 31
0.0
  0
LINE
  5
1F6
330
1EF
100
AcDbEntity
  8
DIMS
100
AcDbLine
 10
20.11070817870794
 20
35.59312559455198
 30
0.0
 11
20.11070817870794
 21
37.23866364228583
 31
0.0
  0
LINE
  5
1F7
330
1EF
100
AcDbEntity
  8
DIMS
100
AcDbLine
 10
1.982408178707893
 20
36.8636636422858
 30
0.0
 11
10.24273872449884
 21
36.86366364228581
 31
0.0
  0
LINE
  5
1F8
330
1EF
100
AcDbEntity
  8
DIMS
100
AcDbLine
 10
20.11070817870794
 20
36.86366364228583
 30
0.0
 11
11.85037763291701
 21
36.86366364228581
 31
0.0
  0
MTEXT
  5
1F9
330
1EF
100
AcDbEntity
  8
DIMS
100
AcDbMText
 10
10.24273872449884
 20
37.14434940110529
 30
0.0
 40
0.5
 41
0.0
 71
     1
 72
     1
  1
18
  7
SLDTEXTSTYLE0
 73
     1
 44
1.0
  0
MTEXT
  5
1FA
330
1EF
100
AcDbEntity
  8
DIMS
100
AcDbMText
 10
11.12815541942296
 20
37.5096619001508
 30
0.0
 40
0.5
 41
0.0
 71
     1
 72
     1
  1
1
  7
SLDTEXTSTYLE0
 73
     1
 44
1.0
  0
MTEXT
  5
1FB
330
1EF
100
AcDbEntity
  8
DIMS
100
AcDbMText
 10
11.12815541942296
 20
36.84848132160277
 30
0.0
 40
0.5
 41
0.0
 71
     1
 72
     1
  1
8
  7
SLDTEXTSTYLE0
 73
     1
 44
1.0
  0
MTEXT
  5
1FC
330
1EF
100
AcDbEntity
  8
DIMS
100
AcDbMText
 10
11.64412766886751
 20
37.14434940110529
 30
0.0
 40
0.5
 41
0.0
 71
     1
 72
     1
  1
"
  7
SLDTEXTSTYLE0
 73
     1
 44
1.0
  0
ENDBLK
  5
3B6
330
1EF
100
AcDbEntity
  8
0
100
AcDbBlockEnd
  0
BLOCK
  5
3B7
330
21E
100
AcDbEntity
  8
0
100
AcDbBlockBegin
  2
_D_2
 70
     0
 71
     0
 10
0.0
 20
0.0
 30
0.0
  3
_D_2
  1

  0
INSERT
  5
221
330
21E
100
AcDbEntity
  8
DIMS
100
AcDbBlockReference
  2
_Open90
 10
28.36671569021683
 20
35.96066999546908
 30
9.026449999999826
 41
0.3
 42
0.3
 50
90.00000000000041
  0
INSERT
  5
222
330
21E
100
AcDbEntity
  8
DIMS
100
AcDbBlockReference
  2
_Open90
 10
28.36671569021683
 20
11.58080627059504
 30
9.026449999999837
 41
0.3
 42
0.3
 50
270.0000000000004
  0
LINE
  5
223
330
21E
100
AcDbEntity
  8
DIMS
100
AcDbLine
 10
28.37504902894939
 20
25.53442849171944
 30
0.0
 11
28.89102127839394
 21
25.53442849171944
 31
0.0
  0
LINE
  5
224
330
21E
100
AcDbEntity
  8
DIMS
100
AcDbLine
 10
26.85476117412988
 20
35.96066999546908
 30
0.0
 11
28.74171569021683
 21
35.96066999546908
 31
0.0
  0
LINE
  5
225
330
21E
100
AcDbEntity
  8
DIMS
100
AcDbLine
 10
26.42852370392747
 20
11.58080627059504
 30
0.0
 11
28.74171569021683
 21
11.58080627059504
 31
0.0
  0
LINE
  5
226
330
21E
100
AcDbEntity
  8
DIMS
100
AcDbLine
 10
28.36671569021683
 20
35.96066999546908
 30
0.0
 11
28.36671569021683
 21
26.13699794661908
 31
0.0
  0
LINE
  5
227
330
21E
100
AcDbEntity
  8
DIMS
100
AcDbLine
 10
28.36671569021683
 20
11.58080627059504
 30
0.0
 11
28.36671569021683
 21
24.82928964004369
 31
0.0
  0
MTEXT
  5
228
330
21E
100
AcDbEntity
  8
DIMS
100
AcDbMText
 10
27.56289623600776
 20
25.76382955215082
 30
0.0
 40
0.5
 41
0.0
 71
     1
 72
     1
  1
24
  7
SLDTEXTSTYLE0
 73
     1
 44
1.0
  0
MTEXT
  5
229
330
21E
100
AcDbEntity
  8
DIMS
100
AcDbMText
 10
28.44831293093188
 20
26.12914205119632
 30
0.0
 40
0.5
 41
0.0
 71
     1
 72
     1
  1
3
  7
SLDTEXTSTYLE0
 73
     1
 44
1.0
  0
MTEXT
  5
22A
330
21E
100
AcDbEntity
  8
DIMS
100
AcDbMText
 10
28.44831293093188
 20
25.46796147264828
 30
0.0
 40
0.5
 41
0.0
 71
     1
 72
     1
  1
8
  7
SLDTEXTSTYLE0
 73
     1
 44
1.0
  0
MTEXT
  5
22B
330
21E
100
AcDbEntity
  8
DIMS
100
AcDbMText
 10
28.96428518037642
 20
25.76382955215082
 30
0.0
 40
0.5
 41
0.0
 71
     1
 72
     1
  1
"
  7
SLDTEXTSTYLE0
 73
     1
 44
1.0
  0
ENDBLK
  5
3B8
330
21E
100
AcDbEntity
  8
0
100
AcDbBlockEnd
  0
BLOCK
  5
3B9
330
22D
100
AcDbEntity
  8
0
100
AcDbBlockBegin
  2
_D_3
 70
     0
 71
     0
 10
0.0
 20
0.0
 30
0.0
  3
_D_3
  1

  0
INSERT
  5
230
330
22D
100
AcDbEntity
  8
DIMS
100
AcDbBlockReference
  2
_Open90
 10
22.86601446277851
 20
36.86366364228583
 30
9.026449999999828
 41
0.3
 42
0.3
 50
180.0000000000004
  0
INSERT
  5
231
330
22D
100
AcDbEntity
  8
DIMS
100
AcDbBlockReference
  2
_Open90
 10
26.7424358561721
 20
36.86366364228583
 30
9.026449999999826
 41
0.3
 42
0.3
 50
0.0000000000004326
  0
LINE
  5
232
330
22D
100
AcDbEntity
  8
DIMS
100
AcDbLine
 10
24.67536655259433
 20
36.91494834067395
 30
0.0
 11
25.19133880203887
 21
36.91494834067395
 31
0.0
  0
LINE
  5
233
330
22D
100
AcDbEntity
  8
DIMS
100
AcDbLine
 10
22.86601446277851
 20
35.57926233962845
 30
0.0
 11
22.86601446277851
 21
37.23866364228583
 31
0.0
  0
LINE
  5
234
330
22D
100
AcDbEntity
  8
DIMS
100
AcDbLine
 10
26.7424358561721
 20
36.0674406366136
 30
0.0
 11
26.7424358561721
 21
37.23866364228583
 31
0.0
  0
LINE
  5
235
330
22D
100
AcDbEntity
  8
DIMS
100
AcDbLine
 10
22.86601446277851
 20
36.86366364228583
 30
0.0
 11
24.23265820513227
 21
36.86366364228583
 31
0.0
  0
LINE
  5
236
330
22D
100
AcDbEntity
  8
DIMS
100
AcDbLine
 10
26.7424358561721
 20
36.86366364228583
 30
0.0
 11
25.47085274140332
 21
36.86366364228583
 31
0.0
  0
MTEXT
  5
237
330
22D
100
AcDbEntity
  8
DIMS
100
AcDbMText
 10
24.23265820513227
 20
37.14434940110532
 30
0.0
 40
0.5
 41
0.0
 71
     1
 72
     1
  1
3
  7
SLDTEXTSTYLE0
 73
     1
 44
1.0
  0
MTEXT
  5
238
330
22D
100
AcDbEntity
  8
DIMS
100
AcDbMText
 10
24.74863045457681
 20
37.50966190015083
 30
0.0
 40
0.5
 41
0.0
 71
     1
 72
     1
  1
7
  7
SLDTEXTSTYLE0
 73
     1
 44
1.0
  0
MTEXT
  5
239
330
22D
100
AcDbEntity
  8
DIMS
100
AcDbMText
 10
24.74863045457681
 20
36.84848132160279
 30
0.0
 40
0.5
 41
0.0
 71
     1
 72
     1
  1
8
  7
SLDTEXTSTYLE0
 73
     1
 44
1.0
  0
MTEXT
  5
23A
330
22D
100
AcDbEntity
  8
DIMS
100
AcDbMText
 10
25.26460270402136
 20
37.14434940110532
 30
0.0
 40
0.5
 41
0.0
 71
     1
 72
     1
  1
"
  7
SLDTEXTSTYLE0
 73
     1
 44
1.0
  0
ENDBLK
  5
3BA
330
22D
100
AcDbEntity
  8
0
100
AcDbBlockEnd
  0
BLOCK
  5
3BB
330
23C
100
AcDbEntity
  8
0
100
AcDbBlockBegin
  2
_D_4
 70
     0
 71
     0
 10
0.0
 20
0.0
 30
0.0
  3
_D_4
  1

  0
INSERT
  5
23F
330
23C
100
AcDbEntity
  8
DIMS
100
AcDbBlockReference
  2
_Open90
 10
21.59071938281545
 20
35.27379154445791
 30
9.026449999999828
 41
0.3
 42
0.3
 50
98.01463215227163
  0
INSERT
  5
240
330
23C
100
AcDbEntity
  8
DIMS
100
AcDbBlockReference
  2
_Open90
 10
24.95274011518948
 20
11.3960183341041
 30
9.026449999999837
 41
0.3
 42
0.3
 50
278.0146321522716
  0
LINE
  5
241
330
23C
100
AcDbEntity
  8
DIMS
100
AcDbLine
 10
23.19949222640039
 20
23.95842071756275
 30
0.0
 11
23.71546447584494
 21
23.95842071756275
 31
0.0
  0
LINE
  5
242
330
23C
100
AcDbEntity
  8
DIMS
100
AcDbLine
 10
22.74133663474414
 20
35.43579991190209
 30
0.0
 11
21.21938219736664
 21
35.22150679808806
 31
0.0
  0
LINE
  5
243
330
23C
100
AcDbEntity
  8
DIMS
100
AcDbLine
 10
26.10335736711843
 20
11.5580267015483
 30
0.0
 11
24.58140292974067
 21
11.34373358773424
 31
0.0
  0
LINE
  5
244
330
23C
100
AcDbEntity
  8
DIMS
100
AcDbLine
 10
21.59071938281545
 20
35.27379154445791
 30
0.0
 11
23.09909539414453
 21
24.56099017246238
 31
0.0
  0
LINE
  5
245
330
23C
100
AcDbEntity
  8
DIMS
100
AcDbLine
 10
24.95274011518948
 20
11.3960183341041
 30
0.0
 11
23.28322238119112
 21
23.25328186588698
 31
0.0
  0
MTEXT
  5
246
330
23C
100
AcDbEntity
  8
DIMS
100
AcDbMText
 10
22.38733943345876
 20
24.18782177799412
 30
0.0
 40
0.5
 41
0.0
 71
     1
 72
     1
  1
24
  7
SLDTEXTSTYLE0
 73
     1
 44
1.0
  0
MTEXT
  5
247
330
23C
100
AcDbEntity
  8
DIMS
100
AcDbMText
 10
23.27275612838288
 20
24.55313427703962
 30
0.0
 40
0.5
 41
0.0
 71
     1
 72
     1
  1
1
  7
SLDTEXTSTYLE0
 73
     1
 44
1.0
  0
MTEXT
  5
248
330
23C
100
AcDbEntity
  8
DIMS
100
AcDbMText
 10
23.27275612838288
 20
23.89195369849158
 30
0.0
 40
0.5
 41
0.0
 71
     1
 72
     1
  1
8
  7
SLDTEXTSTYLE0
 73
     1
 44
1.0
  0
MTEXT
  5
249
330
23C
100
AcDbEntity
  8
DIMS
100
AcDbMText
 10
23.78872837782743
 20
24.18782177799412
 30
0.0
 40
0.5
 41
0.0
 71
     1
 72
     1
  1
"
  7
SLDTEXTSTYLE0
 73
     1
 44
1.0
  0
ENDBLK
  5
3BC
330
23C
100
AcDbEntity
  8
0
100
AcDbBlockEnd
  0
BLOCK
  5
3BD
330
2F6
100
AcDbEntity
  8
0
100
AcDbBlockBegin
  2
_D_5
 70
     0
 71
     0
 10
0.0
 20
0.0
 30
0.0
  3
_D_5
  1

  0
INSERT
  5
2F9
330
2F6
100
AcDbEntity
  8
DIMS
100
AcDbBlockReference
  2
_Open90
 10
31.9025852142025
 20
30.6626503885106
 30
0.210243477982243
 41
0.3
 42
0.3
 50
248.9372464833434
  0
LINE
  5
2FA
330
2F6
100
AcDbEntity
  8
DIMS
100
AcDbLine
 10
35.47439073201522
 20
37.06123325609147
 30
0.0
 11
36.35980742693933
 21
37.06123325609147
 31
0.0
  0
LINE
  5
2FB
330
2F6
100
AcDbEntity
  8
DIMS
100
AcDbLine
 10
31.9025852142025
 20
30.6626503885106
 30
0.0
 11
34.34706434769354
 21
37.00994855770335
 31
0.0
  0
LINE
  5
2FC
330
2F6
100
AcDbEntity
  8
DIMS
100
AcDbLine
 10
34.34706434769354
 20
37.00994855770335
 30
0.0
 11
34.64706434769354
 21
37.00994855770335
 31
0.0
  0
MTEXT
  5
2FD
330
2F6
100
AcDbEntity
  8
DIMS
100
AcDbMText
 10
34.64706434769354
 20
37.28299542726794
 30
0.0
 40
0.5
 41
0.0
 71
     1
 72
     1
  1
%%c
  7
SLDTEXTSTYLE0
 73
     1
 44
1.0
  0
MTEXT
  5
2FE
330
2F6
100
AcDbEntity
  8
DIMS
100
AcDbMText
 10
35.73237685673749
 20
37.65594681556834
 30
0.0
 40
0.5
 41
0.0
 71
     1
 72
     1
  1
3
  7
SLDTEXTSTYLE0
 73
     1
 44
1.0
  0
MTEXT
  5
2FF
330
2F6
100
AcDbEntity
  8
DIMS
100
AcDbMText
 10
35.5476546339977
 20
36.99476623702031
 30
0.0
 40
0.5
 41
0.0
 71
     1
 72
     1
  1
16
  7
SLDTEXTSTYLE0
 73
     1
 44
1.0
  0
MTEXT
  5
300
330
2F6
100
AcDbEntity
  8
DIMS
100
AcDbMText
 10
36.43307132892182
 20
37.29063431652284
 30
0.0
 40
0.5
 41
0.0
 71
     1
 72
     1
  1
"
  7
SLDTEXTSTYLE0
 73
     1
 44
1.0
  0
MTEXT
  5
301
330
2F6
100
AcDbEntity
  8
DIMS
100
AcDbMText
 10
36.6393212929713
 20
37.29063431652284
 30
0.0
 40
0.5
 41
0.0
 71
     1
 72
     1
  1
 mounting hole (4)
  7
SLDTEXTSTYLE0
 73
     1
 44
1.0
  0
ENDBLK
  5
3BE
330
2F6
100
AcDbEntity
  8
0
100
AcDbBlockEnd
  0
BLOCK
  5
3BF
330
303
100
AcDbEntity
  8
0
100
AcDbBlockBegin
  2
_D_6
 70
     0
 71
     0
 10
0.0
 20
0.0
 30
0.0
  3
_D_6
  1

  0
INSERT
  5
306
330
303
100
AcDbEntity
  8
DIMS
100
AcDbBlockReference
  2
_Open90
 10
31.86833750176764
 20
38.51720694937243
 30
0.2102434779822424
 41
0.3
 42
0.3
 50
180.0000000000002
  0
INSERT
  5
307
330
303
100
AcDbEntity
  8
DIMS
100
AcDbBlockReference
  2
_Open90
 10
49.17189318226286
 20
38.51720694937238
 30
0.2102434779822424
 41
0.3
 42
0.3
 50
0.0000000000002036
  0
LINE
  5
308
330
303
100
AcDbEntity
  8
DIMS
100
AcDbLine
 10
40.34372642134173
 20
38.56849164776052
 30
0.0
 11
41.22914311626585
 21
38.56849164776052
 31
0.0
  0
LINE
  5
309
330
303
100
AcDbEntity
  8
DIMS
100
AcDbLine
 10
31.86833750176762
 20
30.74038995432432
 30
0.0
 11
31.86833750176764
 21
38.89220694937243
 31
0.0
  0
LINE
  5
30A
330
303
100
AcDbEntity
  8
DIMS
100
AcDbLine
 10
49.17189318226283
 20
30.74038995432426
 30
0.0
 11
49.17189318226286
 21
38.89220694937238
 31
0.0
  0
LINE
  5
30B
330
303
100
AcDbEntity
  8
DIMS
100
AcDbLine
 10
31.86833750176764
 20
38.51720694937243
 30
0.0
 11
39.5315736284001
 21
38.5172069493724
 31
0.0
  0
LINE
  5
30C
330
303
100
AcDbEntity
  8
DIMS
100
AcDbLine
 10
49.17189318226286
 20
38.51720694937238
 30
0.0
 11
41.50865705563032
 21
38.5172069493724
 31
0.0
  0
MTEXT
  5
30D
330
303
100
AcDbEntity
  8
DIMS
100
AcDbMText
 10
39.5315736284001
 20
38.7978927081919
 30
0.0
 40
0.5
 41
0.0
 71
     1
 72
     1
  1
17
  7
SLDTEXTSTYLE0
 73
     1
 44
1.0
  0
MTEXT
  5
30E
330
303
100
AcDbEntity
  8
DIMS
100
AcDbMText
 10
40.601712546064
 20
39.1632052072374
 30
0.0
 40
0.5
 41
0.0
 71
     1
 72
     1
  1
5
  7
SLDTEXTSTYLE0
 73
     1
 44
1.0
  0
MTEXT
  5
30F
330
303
100
AcDbEntity
  8
DIMS
100
AcDbMText
 10
40.41699032332421
 20
38.50202462868936
 30
0.0
 40
0.5
 41
0.0
 71
     1
 72
     1
  1
16
  7
SLDTEXTSTYLE0
 73
     1
 44
1.0
  0
MTEXT
  5
310
330
303
100
AcDbEntity
  8
DIMS
100
AcDbMText
 10
41.30240709158082
 20
38.7978927081919
 30
0.0
 40
0.5
 41
0.0
 71
     1
 72
     1
  1
"
  7
SLDTEXTSTYLE0
 73
     1
 44
1.0
  0
ENDBLK
  5
3C0
330
303
100
AcDbEntity
  8
0
100
AcDbBlockEnd
  0
BLOCK
  5
3C1
330
312
100
AcDbEntity
  8
0
100
AcDbBlockBegin
  2
_D_7
 70
     0
 71
     0
 10
0.0
 20
0.0
 30
0.0
  3
_D_7
  1

  0
INSERT
  5
315
330
312
100
AcDbEntity
  8
DIMS
100
AcDbBlockReference
  2
_Open90
 10
50.92284801918073
 20
18.57408662247547
 30
0.2102434779822424
 41
0.3
 42
0.3
 50
270.0000000000004
  0
INSERT
  5
316
330
312
100
AcDbEntity
  8
DIMS
100
AcDbBlockReference
  2
_Open90
 10
50.92284801918073
 20
30.5737232876576
 30
0.2102434779822424
 41
0.3
 42
0.3
 50
90.00000000000041
  0
LINE
  5
317
330
312
100
AcDbEntity
  8
DIMS
100
AcDbLine
 10
49.33514196819771
 20
18.57408662247547
 30
0.0
 11
51.29784801918073
 21
18.57408662247547
 31
0.0
  0
LINE
  5
318
330
312
100
AcDbEntity
  8
DIMS
100
AcDbLine
 10
49.3385598489295
 20
30.5737232876576
 30
0.0
 11
51.29784801918073
 21
30.5737232876576
 31
0.0
  0
LINE
  5
319
330
312
100
AcDbEntity
  8
DIMS
100
AcDbLine
 10
50.92284801918073
 20
18.57408662247547
 30
0.0
 11
50.92284801918073
 21
24.06760922826693
 31
0.0
  0
LINE
  5
31A
330
312
100
AcDbEntity
  8
DIMS
100
AcDbLine
 10
50.92284801918073
 20
30.5737232876576
 30
0.0
 11
50.92284801918073
 21
24.86135925213225
 31
0.0
  0
MTEXT
  5
31B
330
312
100
AcDbEntity
  8
DIMS
100
AcDbMText
 10
50.45027859167644
 20
24.70628115826629
 30
0.0
 40
0.5
 41
0.0
 71
     1
 72
     1
  1
12"
  7
SLDTEXTSTYLE0
 73
     1
 44
1.0
  0
ENDBLK
  5
3C2
330
312
100
AcDbEntity
  8
0
100
AcDbBlockEnd
  0
BLOCK
  5
3C3
330
31D
100
AcDbEntity
  8
0
100
AcDbBlockBegin
  2
_D_8
 70
     0
 71
     0
 10
0.0
 20
0.0
 30
0.0
  3
_D_8
  1

  0
INSERT
  5
320
330
31D
100
AcDbEntity
  8
DIMS
100
AcDbBlockReference
  2
_Open90
 10
50.92284801918077
 20
30.57372328765759
 30
0.2102434779822424
 41
0.3
 42
0.3
 50
270.0000000000001
  0
INSERT
  5
321
330
31D
100
AcDbEntity
  8
DIMS
100
AcDbBlockReference
  2
_Open90
 10
50.9228480191808
 20
35.96013278266814
 30
0.2102434779822424
 41
0.3
 42
0.3
 50
90.00000000000011
  0
LINE
  5
322
330
31D
100
AcDbEntity
  8
DIMS
100
AcDbLine
 10
50.74645909850729
 20
33.15986053817618
 30
0.0
 11
51.26243134795184
 21
33.15986053817618
 31
0.0
  0
LINE
  5
323
330
31D
100
AcDbEntity
  8
DIMS
100
AcDbLine
 10
49.3385598489295
 20
30.5737232876576
 30
0.0
 11
51.29784801918077
 21
30.57372328765759
 31
0.0
  0
LINE
  5
324
330
31D
100
AcDbEntity
  8
DIMS
100
AcDbLine
 10
49.68683200864357
 20
35.96013278266815
 30
0.0
 11
51.2978480191808
 21
35.96013278266814
 31
0.0
  0
LINE
  5
325
330
31D
100
AcDbEntity
  8
DIMS
100
AcDbLine
 10
50.92284801918077
 20
30.57372328765759
 30
0.0
 11
50.92284801918078
 21
32.45472168650036
 31
0.0
  0
LINE
  5
326
330
31D
100
AcDbEntity
  8
DIMS
100
AcDbLine
 10
50.9228480191808
 20
35.96013278266814
 30
0.0
 11
50.92284801918079
 21
33.76242999307575
 31
0.0
  0
MTEXT
  5
327
330
31D
100
AcDbEntity
  8
DIMS
100
AcDbMText
 10
50.30375075104524
 20
33.38926159860755
 30
0.0
 40
0.5
 41
0.0
 71
     1
 72
     1
  1
5
  7
SLDTEXTSTYLE0
 73
     1
 44
1.0
  0
MTEXT
  5
328
330
31D
100
AcDbEntity
  8
DIMS
100
AcDbMText
 10
50.81972300048978
 20
33.75457409765306
 30
0.0
 40
0.5
 41
0.0
 71
     1
 72
     1
  1
3
  7
SLDTEXTSTYLE0
 73
     1
 44
1.0
  0
MTEXT
  5
329
330
31D
100
AcDbEntity
  8
DIMS
100
AcDbMText
 10
50.81972300048978
 20
33.09339351910501
 30
0.0
 40
0.5
 41
0.0
 71
     1
 72
     1
  1
8
  7
SLDTEXTSTYLE0
 73
     1
 44
1.0
  0
MTEXT
  5
32A
330
31D
100
AcDbEntity
  8
DIMS
100
AcDbMText
 10
51.33569524993433
 20
33.38926159860755
 30
0.0
 40
0.5
 41
0.0
 71
     1
 72
     1
  1
"
  7
SLDTEXTSTYLE0
 73
     1
 44
1.0
  0
ENDBLK
  5
3C4
330
31D
100
AcDbEntity
  8
0
100
AcDbBlockEnd
  0
BLOCK
  5
3C5
330
32C
100
AcDbEntity
  8
0
100
AcDbBlockBegin
  2
_D_9
 70
     0
 71
     0
 10
0.0
 20
0.0
 30
0.0
  3
_D_9
  1

  0
INSERT
  5
32F
330
32C
100
AcDbEntity
  8
DIMS
100
AcDbBlockReference
  2
_Open90
 10
50.92284801918078
 20
18.57408662247547
 30
0.2102434779822424
 41
0.3
 42
0.3
 50
90.0000000000003
  0
INSERT
  5
330
330
32C
100
AcDbEntity
  8
DIMS
100
AcDbBlockReference
  2
_Open90
 10
50.92284801918075
 20
11.58126436660153
 30
0.2102434779822424
 41
0.3
 42
0.3
 50
270.0000000000003
  0
LINE
  5
331
330
32C
100
AcDbEntity
  8
DIMS
100
AcDbLine
 10
49.33514196819771
 20
18.57408662247547
 30
0.0
 11
51.29784801918078
 21
18.57408662247547
 31
0.0
  0
LINE
  5
332
330
32C
100
AcDbEntity
  8
DIMS
100
AcDbLine
 10
49.71803200868192
 20
11.58126436660153
 30
0.0
 11
51.29784801918075
 21
11.58126436660153
 31
0.0
  0
LINE
  5
333
330
32C
100
AcDbEntity
  8
DIMS
100
AcDbLine
 10
50.92284801918078
 20
18.57408662247547
 30
0.0
 11
50.92284801918077
 21
15.45386637291921
 31
0.0
  0
LINE
  5
334
330
32C
100
AcDbEntity
  8
DIMS
100
AcDbLine
 10
50.92284801918075
 20
11.58126436660153
 30
0.0
 11
50.92284801918077
 21
14.66011634905389
 31
0.0
  0
MTEXT
  5
335
330
32C
100
AcDbEntity
  8
DIMS
100
AcDbMText
 10
50.63500079608312
 20
15.29878827905325
 30
0.0
 40
0.5
 41
0.0
 71
     1
 72
     1
  1
7"
  7
SLDTEXTSTYLE0
 73
     1
 44
1.0
  0
ENDBLK
  5
3C6
330
32C
100
AcDbEntity
  8
0
100
AcDbBlockEnd
  0
BLOCK
  5
3C7
330
38D
100
AcDbEntity
  8
0
100
AcDbBlockBegin
  2
SW_NOTE_0_3
 70
     0
 71
     0
 10
0.0
 20
0.0
 30
0.0
  3
SW_NOTE_0_3
  1

  0
MTEXT
  5
390
330
38D
100
AcDbEntity
  8
NOTES
 62
     0
100
AcDbMText
 10
0.0
 20
0.6386718749999982
 30
0.0
 40
0.5
 41
0.0
 71
     1
 72
     1
  1
3D view
  7
SLDTEXTSTYLE0
 73
     1
 44
1.0
  0
MTEXT
  5
391
330
38D
100
AcDbEntity
  8
NOTES
 62
     0
100
AcDbMText
 10
0.0
 20
-0.3613281862472943
 30
0.0
 40
0.5
 41
0.0
 71
     1
 72
     1
  1
code 941-1824 FT
  7
SLDTEXTSTYLE0
 73
     1
 44
1.0
  0
ENDBLK
  5
3C8
330
38D
100
AcDbEntity
  8
0
100
AcDbBlockEnd
  0
ENDSEC
  0
SECTION
  2
ENTITIES
  0
LINE
  5
7A
330
1F
100
AcDbEntity
  8
TITLE
370
    50
100
AcDbLine
 10
52.5182230240126
 20
1.487611764461629
 30
0.0
 11
69.49998645119504
 21
1.487611764461629
 31
0.0
  0
LINE
  5
7B
330
1F
100
AcDbEntity
  8
TITLE
370
    50
100
AcDbLine
 10
69.49993174424404
 20
5.475360393555786
 30
0.0
 11
59.31053507231783
 21
5.475360393555786
 31
0.0
  0
LINE
  5
7C
330
1F
100
AcDbEntity
  8
TITLE
  6
SLD-Solid
370
    18
100
AcDbLine
 10
0.5
 20
0.5
 30
0.0
 11
0.5
 21
49.50000000000001
 31
0.0
  0
LINE
  5
7D
330
1F
100
AcDbEntity
  8
TITLE
  6
SLD-Solid
370
    18
100
AcDbLine
 10
0.5
 20
49.50000000000001
 30
0.0
 11
69.5
 21
49.50000000000001
 31
0.0
  0
LINE
  5
7E
330
1F
100
AcDbEntity
  8
TITLE
370
    50
100
AcDbLine
 10
52.5182230240126
 20
2.54278772310344
 30
0.0
 11
45.50597912026433
 21
2.54278772310344
 31
0.0
  0
LINE
  5
7F
330
1F
100
AcDbEntity
  8
TITLE
370
    50
100
AcDbLine
 10
52.5182230240126
 20
1.487611764461629
 30
0.0
 11
45.50597912026433
 21
1.487611764461629
 31
0.0
  0
LINE
  5
80
330
1F
100
AcDbEntity
  8
TITLE
  6
SLD-Solid
370
    18
100
AcDbLine
 10
69.5
 20
49.50000000000001
 30
0.0
 11
69.5
 21
0.5
 31
0.0
  0
LINE
  5
81
330
1F
100
AcDbEntity
  8
TITLE
  6
SLD-Solid
370
    18
100
AcDbLine
 10
69.5
 20
0.5
 30
0.0
 11
0.5
 21
0.5
 31
0.0
  0
LINE
  5
82
330
1F
100
AcDbEntity
  8
TITLE
370
    50
100
AcDbLine
 10
52.5182230240126
 20
1.487611764461629
 30
0.0
 11
52.5182230240126
 21
3.597963681745254
 31
0.0
  0
LINE
  5
83
330
1F
100
AcDbEntity
  8
TITLE
370
    50
100
AcDbLine
 10
45.50597912026433
 20
3.597963681745254
 30
0.0
 11
45.50597912026433
 21
0.4999999999999996
 31
0.0
  0
LINE
  5
84
330
1F
100
AcDbEntity
  8
TITLE
370
    50
100
AcDbLine
 10
45.50597912026433
 20
0.4999999999999996
 30
0.0
 11
69.5
 21
0.4999999999999996
 31
0.0
  0
LINE
  5
85
330
1F
100
AcDbEntity
  8
TITLE
370
    50
100
AcDbLine
 10
69.49993174424404
 20
5.475360393555786
 30
0.0
 11
69.5
 21
0.4999999999999996
 31
0.0
  0
LINE
  5
86
330
1F
100
AcDbEntity
  8
TITLE
  6
SLD-Solid
370
    18
100
AcDbLine
 10
0.4999606299212599
 20
25.0
 30
0.0
 11
0.5000393700787401
 21
25.0
 31
0.0
  0
LINE
  5
87
330
1F
100
AcDbEntity
  8
TITLE
370
    50
100
AcDbLine
 10
52.5182230240126
 20
3.597963681745254
 30
0.0
 11
45.50597912026433
 21
3.597963681745254
 31
0.0
  0
LINE
  5
88
330
1F
100
AcDbEntity
  8
TITLE
370
    50
100
AcDbLine
 10
52.5182230240126
 20
3.597963681745254
 30
0.0
 11
69.49976156426075
 21
3.597964834324629
 31
0.0
  0
LINE
  5
89
330
1F
100
AcDbEntity
  8
TITLE
370
    50
100
AcDbLine
 10
59.31053507231783
 20
5.475360393555786
 30
0.0
 11
59.31053507231783
 21
0.4636772425222307
 31
0.0
  0
LINE
  5
8A
330
1F
100
AcDbEntity
  8
TITLE
  6
SLD-Solid
370
    18
100
AcDbLine
 10
35.0
 20
49.50003937007874
 30
0.0
 11
35.0
 21
49.49996062992127
 31
0.0
  0
LINE
  5
8B
330
1F
100
AcDbEntity
  8
TITLE
  6
SLD-Solid
370
    18
100
AcDbLine
 10
69.50003937007874
 20
25.0
 30
0.0
 11
69.49996062992126
 21
25.0
 31
0.0
  0
LINE
  5
8C
330
1F
100
AcDbEntity
  8
TITLE
  6
SLD-Solid
370
    18
100
AcDbLine
 10
35.0
 20
0.4999606299212599
 30
0.0
 11
35.0
 21
0.5000393700787401
 31
0.0
  0
LINE
  5
8D
330
1F
100
AcDbEntity
  8
TITLE
  6
SLD-Solid
370
    18
100
AcDbLine
 10
0.5
 20
3.346456692913384
 30
0.0
 11
0.1653543307086614
 21
3.346456692913384
 31
0.0
  0
LINE
  5
8E
330
1F
100
AcDbEntity
  8
TITLE
  6
SLD-Solid
370
    18
100
AcDbLine
 10
69.5
 20
3.346456692913384
 30
0.0
 11
69.83464566929135
 21
3.346456692913384
 31
0.0
  0
LINE
  5
8F
330
1F
100
AcDbEntity
  8
TITLE
  6
SLD-Solid
370
    18
100
AcDbLine
 10
0.5
 20
5.31496062992126
 30
0.0
 11
0.1653543307086614
 21
5.31496062992126
 31
0.0
  0
LINE
  5
90
330
1F
100
AcDbEntity
  8
TITLE
  6
SLD-Solid
370
    18
100
AcDbLine
 10
69.5
 20
5.31496062992126
 30
0.0
 11
69.83464566929135
 21
5.31496062992126
 31
0.0
  0
LINE
  5
91
330
1F
100
AcDbEntity
  8
TITLE
  6
SLD-Solid
370
    18
100
AcDbLine
 10
0.5
 20
7.283464566929134
 30
0.0
 11
0.1653543307086614
 21
7.283464566929134
 31
0.0
  0
LINE
  5
3C9
330
1F
100
AcDbEntity
  8
TITLE
  6
SLD-Solid
370
    18
100
AcDbLine
 10
69.5
 20
7.283464566929134
 30
0.0
 11
69.83464566929135
 21
7.283464566929134
 31
0.0
  0
LINE
  5
3CA
330
1F
100
AcDbEntity
  8
TITLE
  6
SLD-Solid
370
    18
100
AcDbLine
 10
0.5
 20
9.251968503937007
 30
0.0
 11
0.1653543307086614
 21
9.251968503937007
 31
0.0
  0
LINE
  5
94
330
1F
100
AcDbEntity
  8
TITLE
  6
SLD-Solid
370
    18
100
AcDbLine
 10
69.5
 20
9.251968503937007
 30
0.0
 11
69.83464566929135
 21
9.251968503937007
 31
0.0
  0
LINE
  5
95
330
1F
100
AcDbEntity
  8
TITLE
  6
SLD-Solid
370
    18
100
AcDbLine
 10
0.5
 20
11.22047244094488
 30
0.0
 11
0.1653543307086614
 21
11.22047244094488
 31
0.0
  0
LINE
  5
96
330
1F
100
AcDbEntity
  8
TITLE
  6
SLD-Solid
370
    18
100
AcDbLine
 10
69.5
 20
11.22047244094488
 30
0.0
 11
69.83464566929135
 21
11.22047244094488
 31
0.0
  0
LINE
  5
3CB
330
1F
100
AcDbEntity
  8
TITLE
  6
SLD-Solid
370
    18
100
AcDbLine
 10
0.5
 20
13.18897637795276
 30
0.0
 11
0.1653543307086614
 21
13.18897637795276
 31
0.0
  0
LINE
  5
3CC
330
1F
100
AcDbEntity
  8
TITLE
  6
SLD-Solid
370
    18
100
AcDbLine
 10
69.5
 20
13.18897637795276
 30
0.0
 11
69.83464566929135
 21
13.18897637795276
 31
0.0
  0
LINE
  5
99
330
1F
100
AcDbEntity
  8
TITLE
  6
SLD-Solid
370
    18
100
AcDbLine
 10
0.5
 20
15.15748031496063
 30
0.0
 11
0.1653543307086614
 21
15.15748031496063
 31
0.0
  0
LINE
  5
9A
330
1F
100
AcDbEntity
  8
TITLE
  6
SLD-Solid
370
    18
100
AcDbLine
 10
69.5
 20
15.15748031496063
 30
0.0
 11
69.83464566929135
 21
15.15748031496063
 31
0.0
  0
LINE
  5
9B
330
1F
100
AcDbEntity
  8
TITLE
  6
SLD-Solid
370
    18
100
AcDbLine
 10
0.5
 20
17.1259842519685
 30
0.0
 11
0.1653543307086614
 21
17.1259842519685
 31
0.0
  0
LINE
  5
9C
330
1F
100
AcDbEntity
  8
TITLE
  6
SLD-Solid
370
    18
100
AcDbLine
 10
69.5
 20
17.1259842519685
 30
0.0
 11
69.83464566929135
 21
17.1259842519685
 31
0.0
  0
LINE
  5
9D
330
1F
100
AcDbEntity
  8
TITLE
  6
SLD-Solid
370
    18
100
AcDbLine
 10
0.5
 20
19.09448818897638
 30
0.0
 11
0.1653543307086614
 21
19.09448818897638
 31
0.0
  0
LINE
  5
9E
330
1F
100
AcDbEntity
  8
TITLE
  6
SLD-Solid
370
    18
100
AcDbLine
 10
69.5
 20
19.09448818897638
 30
0.0
 11
69.83464566929135
 21
19.09448818897638
 31
0.0
  0
LINE
  5
9F
330
1F
100
AcDbEntity
  8
TITLE
  6
SLD-Solid
370
    18
100
AcDbLine
 10
0.5
 20
21.06299212598426
 30
0.0
 11
0.1653543307086614
 21
21.06299212598426
 31
0.0
  0
LINE
  5
A0
330
1F
100
AcDbEntity
  8
TITLE
  6
SLD-Solid
370
    18
100
AcDbLine
 10
69.5
 20
21.06299212598426
 30
0.0
 11
69.83464566929135
 21
21.06299212598426
 31
0.0
  0
LINE
  5
A1
330
1F
100
AcDbEntity
  8
TITLE
  6
SLD-Solid
370
    18
100
AcDbLine
 10
0.5
 20
23.03149606299213
 30
0.0
 11
0.1653543307086614
 21
23.03149606299213
 31
0.0
  0
LINE
  5
A2
330
1F
100
AcDbEntity
  8
TITLE
  6
SLD-Solid
370
    18
100
AcDbLine
 10
69.5
 20
23.03149606299213
 30
0.0
 11
69.83464566929135
 21
23.03149606299213
 31
0.0
  0
LINE
  5
A3
330
1F
100
AcDbEntity
  8
TITLE
  6
SLD-Solid
370
    18
100
AcDbLine
 10
0.5
 20
25.0
 30
0.0
 11
0.1653543307086614
 21
25.0
 31
0.0
  0
LINE
  5
A4
330
1F
100
AcDbEntity
  8
TITLE
  6
SLD-Solid
370
    18
100
AcDbLine
 10
69.5
 20
25.0
 30
0.0
 11
69.83464566929135
 21
25.0
 31
0.0
  0
LINE
  5
A5
330
1F
100
AcDbEntity
  8
TITLE
  6
SLD-Solid
370
    18
100
AcDbLine
 10
0.5
 20
26.96850393700788
 30
0.0
 11
0.1653543307086614
 21
26.96850393700788
 31
0.0
  0
LINE
  5
A6
330
1F
100
AcDbEntity
  8
TITLE
  6
SLD-Solid
370
    18
100
AcDbLine
 10
69.5
 20
26.96850393700788
 30
0.0
 11
69.83464566929135
 21
26.96850393700788
 31
0.0
  0
LINE
  5
A7
330
1F
100
AcDbEntity
  8
TITLE
  6
SLD-Solid
370
    18
100
AcDbLine
 10
0.5
 20
28.93700787401575
 30
0.0
 11
0.1653543307086614
 21
28.93700787401575
 31
0.0
  0
LINE
  5
A8
330
1F
100
AcDbEntity
  8
TITLE
  6
SLD-Solid
370
    18
100
AcDbLine
 10
69.5
 20
28.93700787401575
 30
0.0
 11
69.83464566929135
 21
28.93700787401575
 31
0.0
  0
LINE
  5
A9
330
1F
100
AcDbEntity
  8
TITLE
  6
SLD-Solid
370
    18
100
AcDbLine
 10
0.5
 20
30.90551181102363
 30
0.0
 11
0.1653543307086614
 21
30.90551181102363
 31
0.0
  0
LINE
  5
AA
330
1F
100
AcDbEntity
  8
TITLE
  6
SLD-Solid
370
    18
100
AcDbLine
 10
69.5
 20
30.90551181102363
 30
0.0
 11
69.83464566929135
 21
30.90551181102363
 31
0.0
  0
LINE
  5
AB
330
1F
100
AcDbEntity
  8
TITLE
  6
SLD-Solid
370
    18
100
AcDbLine
 10
0.5
 20
32.8740157480315
 30
0.0
 11
0.1653543307086614
 21
32.8740157480315
 31
0.0
  0
LINE
  5
AC
330
1F
100
AcDbEntity
  8
TITLE
  6
SLD-Solid
370
    18
100
AcDbLine
 10
69.5
 20
32.8740157480315
 30
0.0
 11
69.83464566929135
 21
32.8740157480315
 31
0.0
  0
LINE
  5
AD
330
1F
100
AcDbEntity
  8
TITLE
  6
SLD-Solid
370
    18
100
AcDbLine
 10
0.5
 20
34.84251968503937
 30
0.0
 11
0.1653543307086614
 21
34.84251968503937
 31
0.0
  0
LINE
  5
AE
330
1F
100
AcDbEntity
  8
TITLE
  6
SLD-Solid
370
    18
100
AcDbLine
 10
69.5
 20
34.84251968503937
 30
0.0
 11
69.83464566929135
 21
34.84251968503937
 31
0.0
  0
LINE
  5
AF
330
1F
100
AcDbEntity
  8
TITLE
  6
SLD-Solid
370
    18
100
AcDbLine
 10
0.5
 20
36.81102362204724
 30
0.0
 11
0.1653543307086614
 21
36.81102362204724
 31
0.0
  0
LINE
  5
B0
330
1F
100
AcDbEntity
  8
TITLE
  6
SLD-Solid
370
    18
100
AcDbLine
 10
69.5
 20
36.81102362204724
 30
0.0
 11
69.83464566929135
 21
36.81102362204724
 31
0.0
  0
LINE
  5
B1
330
1F
100
AcDbEntity
  8
TITLE
  6
SLD-Solid
370
    18
100
AcDbLine
 10
0.5
 20
38.77952755905513
 30
0.0
 11
0.1653543307086614
 21
38.77952755905513
 31
0.0
  0
LINE
  5
B2
330
1F
100
AcDbEntity
  8
TITLE
  6
SLD-Solid
370
    18
100
AcDbLine
 10
69.5
 20
38.77952755905513
 30
0.0
 11
69.83464566929135
 21
38.77952755905513
 31
0.0
  0
LINE
  5
B3
330
1F
100
AcDbEntity
  8
TITLE
  6
SLD-Solid
370
    18
100
AcDbLine
 10
0.5
 20
40.748031496063
 30
0.0
 11
0.1653543307086614
 21
40.748031496063
 31
0.0
  0
LINE
  5
B4
330
1F
100
AcDbEntity
  8
TITLE
  6
SLD-Solid
370
    18
100
AcDbLine
 10
69.5
 20
40.748031496063
 30
0.0
 11
69.83464566929135
 21
40.748031496063
 31
0.0
  0
LINE
  5
B5
330
1F
100
AcDbEntity
  8
TITLE
  6
SLD-Solid
370
    18
100
AcDbLine
 10
0.5
 20
42.71653543307087
 30
0.0
 11
0.1653543307086614
 21
42.71653543307087
 31
0.0
  0
LINE
  5
B6
330
1F
100
AcDbEntity
  8
TITLE
  6
SLD-Solid
370
    18
100
AcDbLine
 10
69.5
 20
42.71653543307087
 30
0.0
 11
69.83464566929135
 21
42.71653543307087
 31
0.0
  0
LINE
  5
B7
330
1F
100
AcDbEntity
  8
TITLE
  6
SLD-Solid
370
    18
100
AcDbLine
 10
0.5
 20
44.68503937007874
 30
0.0
 11
0.1653543307086614
 21
44.68503937007874
 31
0.0
  0
LINE
  5
B8
330
1F
100
AcDbEntity
  8
TITLE
  6
SLD-Solid
370
    18
100
AcDbLine
 10
69.5
 20
44.68503937007874
 30
0.0
 11
69.83464566929135
 21
44.68503937007874
 31
0.0
  0
LINE
  5
B9
330
1F
100
AcDbEntity
  8
TITLE
  6
SLD-Solid
370
    18
100
AcDbLine
 10
0.5
 20
46.65354330708661
 30
0.0
 11
0.1653543307086614
 21
46.65354330708661
 31
0.0
  0
LINE
  5
BA
330
1F
100
AcDbEntity
  8
TITLE
  6
SLD-Solid
370
    18
100
AcDbLine
 10
69.5
 20
46.65354330708661
 30
0.0
 11
69.83464566929135
 21
46.65354330708661
 31
0.0
  0
LINE
  5
BB
330
1F
100
AcDbEntity
  8
TITLE
  6
SLD-Solid
370
    18
100
AcDbLine
 10
1.535433070866139
 20
49.50000000000001
 30
0.0
 11
1.535433070866139
 21
49.83464566929134
 31
0.0
  0
LINE
  5
BC
330
1F
100
AcDbEntity
  8
TITLE
  6
SLD-Solid
370
    18
100
AcDbLine
 10
1.535433070866139
 20
0.5
 30
0.0
 11
1.535433070866139
 21
0.1653543307086614
 31
0.0
  0
LINE
  5
BD
330
1F
100
AcDbEntity
  8
TITLE
  6
SLD-Solid
370
    18
100
AcDbLine
 10
3.503937007874014
 20
49.50000000000001
 30
0.0
 11
3.503937007874014
 21
49.83464566929134
 31
0.0
  0
LINE
  5
BE
330
1F
100
AcDbEntity
  8
TITLE
  6
SLD-Solid
370
    18
100
AcDbLine
 10
3.503937007874014
 20
0.5
 30
0.0
 11
3.503937007874014
 21
0.1653543307086614
 31
0.0
  0
LINE
  5
BF
330
1F
100
AcDbEntity
  8
TITLE
  6
SLD-Solid
370
    18
100
AcDbLine
 10
5.472440944881891
 20
49.50000000000001
 30
0.0
 11
5.472440944881891
 21
49.83464566929134
 31
0.0
  0
LINE
  5
C0
330
1F
100
AcDbEntity
  8
TITLE
  6
SLD-Solid
370
    18
100
AcDbLine
 10
5.472440944881891
 20
0.5
 30
0.0
 11
5.472440944881891
 21
0.1653543307086614
 31
0.0
  0
LINE
  5
C1
330
1F
100
AcDbEntity
  8
TITLE
  6
SLD-Solid
370
    18
100
AcDbLine
 10
7.440944881889762
 20
49.50000000000001
 30
0.0
 11
7.440944881889762
 21
49.83464566929134
 31
0.0
  0
LINE
  5
C2
330
1F
100
AcDbEntity
  8
TITLE
  6
SLD-Solid
370
    18
100
AcDbLine
 10
7.440944881889762
 20
0.5
 30
0.0
 11
7.440944881889762
 21
0.1653543307086614
 31
0.0
  0
LINE
  5
C3
330
1F
100
AcDbEntity
  8
TITLE
  6
SLD-Solid
370
    18
100
AcDbLine
 10
9.409448818897637
 20
49.50000000000001
 30
0.0
 11
9.409448818897637
 21
49.83464566929134
 31
0.0
  0
LINE
  5
C4
330
1F
100
AcDbEntity
  8
TITLE
  6
SLD-Solid
370
    18
100
AcDbLine
 10
9.409448818897637
 20
0.5
 30
0.0
 11
9.409448818897637
 21
0.1653543307086614
 31
0.0
  0
LINE
  5
C5
330
1F
100
AcDbEntity
  8
TITLE
  6
SLD-Solid
370
    18
100
AcDbLine
 10
11.37795275590551
 20
49.50000000000001
 30
0.0
 11
11.37795275590551
 21
49.83464566929134
 31
0.0
  0
LINE
  5
C6
330
1F
100
AcDbEntity
  8
TITLE
  6
SLD-Solid
370
    18
100
AcDbLine
 10
11.37795275590551
 20
0.5
 30
0.0
 11
11.37795275590551
 21
0.1653543307086614
 31
0.0
  0
LINE
  5
C7
330
1F
100
AcDbEntity
  8
TITLE
  6
SLD-Solid
370
    18
100
AcDbLine
 10
13.34645669291339
 20
49.50000000000001
 30
0.0
 11
13.34645669291339
 21
49.83464566929134
 31
0.0
  0
LINE
  5
C8
330
1F
100
AcDbEntity
  8
TITLE
  6
SLD-Solid
370
    18
100
AcDbLine
 10
13.34645669291339
 20
0.5
 30
0.0
 11
13.34645669291339
 21
0.1653543307086614
 31
0.0
  0
LINE
  5
C9
330
1F
100
AcDbEntity
  8
TITLE
  6
SLD-Solid
370
    18
100
AcDbLine
 10
15.31496062992126
 20
49.50000000000001
 30
0.0
 11
15.31496062992126
 21
49.83464566929134
 31
0.0
  0
LINE
  5
CA
330
1F
100
AcDbEntity
  8
TITLE
  6
SLD-Solid
370
    18
100
AcDbLine
 10
15.31496062992126
 20
0.5
 30
0.0
 11
15.31496062992126
 21
0.1653543307086614
 31
0.0
  0
LINE
  5
CB
330
1F
100
AcDbEntity
  8
TITLE
  6
SLD-Solid
370
    18
100
AcDbLine
 10
17.28346456692913
 20
49.50000000000001
 30
0.0
 11
17.28346456692913
 21
49.83464566929134
 31
0.0
  0
LINE
  5
CC
330
1F
100
AcDbEntity
  8
TITLE
  6
SLD-Solid
370
    18
100
AcDbLine
 10
17.28346456692913
 20
0.5
 30
0.0
 11
17.28346456692913
 21
0.1653543307086614
 31
0.0
  0
LINE
  5
CD
330
1F
100
AcDbEntity
  8
TITLE
  6
SLD-Solid
370
    18
100
AcDbLine
 10
19.25196850393701
 20
49.50000000000001
 30
0.0
 11
19.25196850393701
 21
49.83464566929134
 31
0.0
  0
LINE
  5
CE
330
1F
100
AcDbEntity
  8
TITLE
  6
SLD-Solid
370
    18
100
AcDbLine
 10
19.25196850393701
 20
0.5
 30
0.0
 11
19.25196850393701
 21
0.1653543307086614
 31
0.0
  0
LINE
  5
CF
330
1F
100
AcDbEntity
  8
TITLE
  6
SLD-Solid
370
    18
100
AcDbLine
 10
21.22047244094488
 20
49.50000000000001
 30
0.0
 11
21.22047244094488
 21
49.83464566929134
 31
0.0
  0
LINE
  5
D0
330
1F
100
AcDbEntity
  8
TITLE
  6
SLD-Solid
370
    18
100
AcDbLine
 10
21.22047244094488
 20
0.5
 30
0.0
 11
21.22047244094488
 21
0.1653543307086614
 31
0.0
  0
LINE
  5
D1
330
1F
100
AcDbEntity
  8
TITLE
  6
SLD-Solid
370
    18
100
AcDbLine
 10
23.18897637795276
 20
49.50000000000001
 30
0.0
 11
23.18897637795276
 21
49.83464566929134
 31
0.0
  0
LINE
  5
D2
330
1F
100
AcDbEntity
  8
TITLE
  6
SLD-Solid
370
    18
100
AcDbLine
 10
23.18897637795276
 20
0.5
 30
0.0
 11
23.18897637795276
 21
0.1653543307086614
 31
0.0
  0
LINE
  5
D3
330
1F
100
AcDbEntity
  8
TITLE
  6
SLD-Solid
370
    18
100
AcDbLine
 10
25.15748031496063
 20
49.50000000000001
 30
0.0
 11
25.15748031496063
 21
49.83464566929134
 31
0.0
  0
LINE
  5
D4
330
1F
100
AcDbEntity
  8
TITLE
  6
SLD-Solid
370
    18
100
AcDbLine
 10
25.15748031496063
 20
0.5
 30
0.0
 11
25.15748031496063
 21
0.1653543307086614
 31
0.0
  0
LINE
  5
D5
330
1F
100
AcDbEntity
  8
TITLE
  6
SLD-Solid
370
    18
100
AcDbLine
 10
27.12598425196851
 20
49.50000000000001
 30
0.0
 11
27.12598425196851
 21
49.83464566929134
 31
0.0
  0
LINE
  5
D6
330
1F
100
AcDbEntity
  8
TITLE
  6
SLD-Solid
370
    18
100
AcDbLine
 10
27.12598425196851
 20
0.5
 30
0.0
 11
27.12598425196851
 21
0.1653543307086614
 31
0.0
  0
LINE
  5
D7
330
1F
100
AcDbEntity
  8
TITLE
  6
SLD-Solid
370
    18
100
AcDbLine
 10
29.09448818897638
 20
49.50000000000001
 30
0.0
 11
29.09448818897638
 21
49.83464566929134
 31
0.0
  0
LINE
  5
D8
330
1F
100
AcDbEntity
  8
TITLE
  6
SLD-Solid
370
    18
100
AcDbLine
 10
29.09448818897638
 20
0.5
 30
0.0
 11
29.09448818897638
 21
0.1653543307086614
 31
0.0
  0
LINE
  5
D9
330
1F
100
AcDbEntity
  8
TITLE
  6
SLD-Solid
370
    18
100
AcDbLine
 10
31.06299212598426
 20
49.50000000000001
 30
0.0
 11
31.06299212598426
 21
49.83464566929134
 31
0.0
  0
LINE
  5
DA
330
1F
100
AcDbEntity
  8
TITLE
  6
SLD-Solid
370
    18
100
AcDbLine
 10
31.06299212598426
 20
0.5
 30
0.0
 11
31.06299212598426
 21
0.1653543307086614
 31
0.0
  0
LINE
  5
DB
330
1F
100
AcDbEntity
  8
TITLE
  6
SLD-Solid
370
    18
100
AcDbLine
 10
33.03149606299213
 20
49.50000000000001
 30
0.0
 11
33.03149606299213
 21
49.83464566929134
 31
0.0
  0
LINE
  5
DC
330
1F
100
AcDbEntity
  8
TITLE
  6
SLD-Solid
370
    18
100
AcDbLine
 10
33.03149606299213
 20
0.5
 30
0.0
 11
33.03149606299213
 21
0.1653543307086614
 31
0.0
  0
LINE
  5
DD
330
1F
100
AcDbEntity
  8
TITLE
  6
SLD-Solid
370
    18
100
AcDbLine
 10
35.0
 20
49.50000000000001
 30
0.0
 11
35.0
 21
49.83464566929134
 31
0.0
  0
LINE
  5
DE
330
1F
100
AcDbEntity
  8
TITLE
  6
SLD-Solid
370
    18
100
AcDbLine
 10
35.0
 20
0.5
 30
0.0
 11
35.0
 21
0.1653543307086614
 31
0.0
  0
LINE
  5
DF
330
1F
100
AcDbEntity
  8
TITLE
  6
SLD-Solid
370
    18
100
AcDbLine
 10
36.96850393700787
 20
49.50000000000001
 30
0.0
 11
36.96850393700787
 21
49.83464566929134
 31
0.0
  0
LINE
  5
E0
330
1F
100
AcDbEntity
  8
TITLE
  6
SLD-Solid
370
    18
100
AcDbLine
 10
36.96850393700787
 20
0.5
 30
0.0
 11
36.96850393700787
 21
0.1653543307086614
 31
0.0
  0
LINE
  5
E1
330
1F
100
AcDbEntity
  8
TITLE
  6
SLD-Solid
370
    18
100
AcDbLine
 10
38.93700787401575
 20
49.50000000000001
 30
0.0
 11
38.93700787401575
 21
49.83464566929134
 31
0.0
  0
LINE
  5
E2
330
1F
100
AcDbEntity
  8
TITLE
  6
SLD-Solid
370
    18
100
AcDbLine
 10
38.93700787401575
 20
0.5
 30
0.0
 11
38.93700787401575
 21
0.1653543307086614
 31
0.0
  0
LINE
  5
E3
330
1F
100
AcDbEntity
  8
TITLE
  6
SLD-Solid
370
    18
100
AcDbLine
 10
40.90551181102363
 20
49.50000000000001
 30
0.0
 11
40.90551181102363
 21
49.83464566929134
 31
0.0
  0
LINE
  5
E4
330
1F
100
AcDbEntity
  8
TITLE
  6
SLD-Solid
370
    18
100
AcDbLine
 10
40.90551181102363
 20
0.5
 30
0.0
 11
40.90551181102363
 21
0.1653543307086614
 31
0.0
  0
LINE
  5
E5
330
1F
100
AcDbEntity
  8
TITLE
  6
SLD-Solid
370
    18
100
AcDbLine
 10
42.8740157480315
 20
49.50000000000001
 30
0.0
 11
42.8740157480315
 21
49.83464566929134
 31
0.0
  0
LINE
  5
E6
330
1F
100
AcDbEntity
  8
TITLE
  6
SLD-Solid
370
    18
100
AcDbLine
 10
42.8740157480315
 20
0.5
 30
0.0
 11
42.8740157480315
 21
0.1653543307086614
 31
0.0
  0
LINE
  5
E7
330
1F
100
AcDbEntity
  8
TITLE
  6
SLD-Solid
370
    18
100
AcDbLine
 10
44.84251968503937
 20
49.50000000000001
 30
0.0
 11
44.84251968503937
 21
49.83464566929134
 31
0.0
  0
LINE
  5
E8
330
1F
100
AcDbEntity
  8
TITLE
  6
SLD-Solid
370
    18
100
AcDbLine
 10
44.84251968503937
 20
0.5
 30
0.0
 11
44.84251968503937
 21
0.1653543307086614
 31
0.0
  0
LINE
  5
E9
330
1F
100
AcDbEntity
  8
TITLE
  6
SLD-Solid
370
    18
100
AcDbLine
 10
46.81102362204724
 20
49.50000000000001
 30
0.0
 11
46.81102362204724
 21
49.83464566929134
 31
0.0
  0
LINE
  5
EA
330
1F
100
AcDbEntity
  8
TITLE
  6
SLD-Solid
370
    18
100
AcDbLine
 10
46.81102362204724
 20
0.5
 30
0.0
 11
46.81102362204724
 21
0.1653543307086614
 31
0.0
  0
LINE
  5
EB
330
1F
100
AcDbEntity
  8
TITLE
  6
SLD-Solid
370
    18
100
AcDbLine
 10
48.77952755905513
 20
49.50000000000001
 30
0.0
 11
48.77952755905513
 21
49.83464566929134
 31
0.0
  0
LINE
  5
EC
330
1F
100
AcDbEntity
  8
TITLE
  6
SLD-Solid
370
    18
100
AcDbLine
 10
48.77952755905513
 20
0.5
 30
0.0
 11
48.77952755905513
 21
0.1653543307086614
 31
0.0
  0
LINE
  5
ED
330
1F
100
AcDbEntity
  8
TITLE
  6
SLD-Solid
370
    18
100
AcDbLine
 10
50.748031496063
 20
49.50000000000001
 30
0.0
 11
50.748031496063
 21
49.83464566929134
 31
0.0
  0
LINE
  5
EE
330
1F
100
AcDbEntity
  8
TITLE
  6
SLD-Solid
370
    18
100
AcDbLine
 10
50.748031496063
 20
0.5
 30
0.0
 11
50.748031496063
 21
0.1653543307086614
 31
0.0
  0
LINE
  5
EF
330
1F
100
AcDbEntity
  8
TITLE
  6
SLD-Solid
370
    18
100
AcDbLine
 10
52.71653543307087
 20
49.50000000000001
 30
0.0
 11
52.71653543307087
 21
49.83464566929134
 31
0.0
  0
LINE
  5
F0
330
1F
100
AcDbEntity
  8
TITLE
  6
SLD-Solid
370
    18
100
AcDbLine
 10
52.71653543307087
 20
0.5
 30
0.0
 11
52.71653543307087
 21
0.1653543307086614
 31
0.0
  0
LINE
  5
F1
330
1F
100
AcDbEntity
  8
TITLE
  6
SLD-Solid
370
    18
100
AcDbLine
 10
54.68503937007874
 20
49.50000000000001
 30
0.0
 11
54.68503937007874
 21
49.83464566929134
 31
0.0
  0
LINE
  5
F2
330
1F
100
AcDbEntity
  8
TITLE
  6
SLD-Solid
370
    18
100
AcDbLine
 10
54.68503937007874
 20
0.5
 30
0.0
 11
54.68503937007874
 21
0.1653543307086614
 31
0.0
  0
LINE
  5
F3
330
1F
100
AcDbEntity
  8
TITLE
  6
SLD-Solid
370
    18
100
AcDbLine
 10
56.65354330708661
 20
49.50000000000001
 30
0.0
 11
56.65354330708661
 21
49.83464566929134
 31
0.0
  0
LINE
  5
F4
330
1F
100
AcDbEntity
  8
TITLE
  6
SLD-Solid
370
    18
100
AcDbLine
 10
56.65354330708661
 20
0.5
 30
0.0
 11
56.65354330708661
 21
0.1653543307086614
 31
0.0
  0
LINE
  5
F5
330
1F
100
AcDbEntity
  8
TITLE
  6
SLD-Solid
370
    18
100
AcDbLine
 10
58.6220472440945
 20
49.50000000000001
 30
0.0
 11
58.6220472440945
 21
49.83464566929134
 31
0.0
  0
LINE
  5
F6
330
1F
100
AcDbEntity
  8
TITLE
  6
SLD-Solid
370
    18
100
AcDbLine
 10
58.6220472440945
 20
0.5
 30
0.0
 11
58.6220472440945
 21
0.1653543307086614
 31
0.0
  0
LINE
  5
F7
330
1F
100
AcDbEntity
  8
TITLE
  6
SLD-Solid
370
    18
100
AcDbLine
 10
60.59055118110237
 20
49.50000000000001
 30
0.0
 11
60.59055118110237
 21
49.83464566929134
 31
0.0
  0
LINE
  5
F8
330
1F
100
AcDbEntity
  8
TITLE
  6
SLD-Solid
370
    18
100
AcDbLine
 10
60.59055118110237
 20
0.5
 30
0.0
 11
60.59055118110237
 21
0.1653543307086614
 31
0.0
  0
LINE
  5
F9
330
1F
100
AcDbEntity
  8
TITLE
  6
SLD-Solid
370
    18
100
AcDbLine
 10
62.55905511811024
 20
49.50000000000001
 30
0.0
 11
62.55905511811024
 21
49.83464566929134
 31
0.0
  0
LINE
  5
FA
330
1F
100
AcDbEntity
  8
TITLE
  6
SLD-Solid
370
    18
100
AcDbLine
 10
62.55905511811024
 20
0.5
 30
0.0
 11
62.55905511811024
 21
0.1653543307086614
 31
0.0
  0
LINE
  5
FB
330
1F
100
AcDbEntity
  8
TITLE
  6
SLD-Solid
370
    18
100
AcDbLine
 10
64.52755905511812
 20
49.50000000000001
 30
0.0
 11
64.52755905511812
 21
49.83464566929134
 31
0.0
  0
LINE
  5
FC
330
1F
100
AcDbEntity
  8
TITLE
  6
SLD-Solid
370
    18
100
AcDbLine
 10
64.52755905511812
 20
0.5
 30
0.0
 11
64.52755905511812
 21
0.1653543307086614
 31
0.0
  0
LINE
  5
FD
330
1F
100
AcDbEntity
  8
TITLE
  6
SLD-Solid
370
    18
100
AcDbLine
 10
66.49606299212599
 20
49.50000000000001
 30
0.0
 11
66.49606299212599
 21
49.83464566929134
 31
0.0
  0
LINE
  5
FE
330
1F
100
AcDbEntity
  8
TITLE
  6
SLD-Solid
370
    18
100
AcDbLine
 10
66.49606299212599
 20
0.5
 30
0.0
 11
66.49606299212599
 21
0.1653543307086614
 31
0.0
  0
LINE
  5
FF
330
1F
100
AcDbEntity
  8
TITLE
  6
SLD-Solid
370
    18
100
AcDbLine
 10
68.46456692913387
 20
49.50000000000001
 30
0.0
 11
68.46456692913387
 21
49.83464566929134
 31
0.0
  0
LINE
  5
100
330
1F
100
AcDbEntity
  8
TITLE
  6
SLD-Solid
370
    18
100
AcDbLine
 10
68.46456692913387
 20
0.5
 30
0.0
 11
68.46456692913387
 21
0.1653543307086614
 31
0.0
  0
MTEXT
  5
102
330
1F
100
AcDbEntity
  8
NOTES
100
AcDbMText
 10
3.59917281329068
 20
11.27133175329578
 30
0.0
 40
0.5
 41
0.0
 71
     1
 72
     1
  1
Front view
  7
SLDTEXTSTYLE0
 73
     1
 44
1.0
  0
MTEXT
  5
103
330
1F
100
AcDbEntity
  8
NOTES
100
AcDbMText
 10
3.554820274421195
 20
4.205500427469659
 30
0.0
 40
0.5
 41
0.0
 71
     1
 72
     1
  1
Floor
  7
SLDTEXTSTYLE0
 73
     1
 44
1.0
  0
INSERT
  5
109
330
1F
100
AcDbEntity
  8
DIMS
100
AcDbBlockReference
  2
SW_NOTE_0
 10
3.599172813290678
 20
5.643897801151192
 30
0.0
  0
MTEXT
  5
10A
330
1F
100
AcDbEntity
  8
NOTES
100
AcDbMText
 10
38.84215272123161
 20
11.08034018951672
 30
0.0
 40
0.5
 41
0.0
 71
     1
 72
     1
  1
Back view
  7
SLDTEXTSTYLE0
 73
     1
 44
1.0
  0
MTEXT
  5
10C
330
1F
100
AcDbEntity
  8
NOTES
100
AcDbMText
 10
46.40829780303407
 20
1.070290334694339
 30
0.0
 40
0.25
 41
0.0
 71
     1
 72
     1
  1
UNLESS OTHERWISE SPECIFIED DIMENSIONS ARE IN INCHES.
  7
SLDTEXTSTYLE1
 73
     1
 44
1.0
  0
MTEXT
  5
10D
330
1F
100
AcDbEntity
  8
NOTES
100
AcDbMText
 10
46.43006992789031
 20
3.083062777580424
 30
0.0
 40
0.25
 41
0.0
 71
     1
 72
     1
  1
DATE:
  7
SLDTEXTSTYLE1
 73
     1
 44
1.0
  0
MTEXT
  5
10E
330
1F
100
AcDbEntity
  8
NOTES
100
AcDbMText
 10
48.53870118800533
 20
2.193032963662708
 30
0.0
 40
0.25
 41
0.0
 71
     2
 72
     1
  1
DO NOT SCALE DRAWING
  7
SLDTEXTSTYLE1
 73
     1
 44
1.0
  0
MTEXT
  5
10F
330
1F
100
AcDbEntity
  8
NOTES
100
AcDbMText
 10
52.83073730750539
 20
3.268275555297609
 30
0.0
 40
0.25
 41
0.0
 71
     1
 72
     1
  1
TITLE:
  7
SLDTEXTSTYLE0
 73
     1
 44
1.0
  0
MTEXT
  5
110
330
1F
100
AcDbEntity
  8
NOTES
100
AcDbMText
 10
60.15618310516096
 20
3.268275555297602
 30
0.0
 40
0.25
 41
0.0
 71
     1
 72
     1
  1
DWG NO.
  7
SLDTEXTSTYLE0
 73
     1
 44
1.0
  0
MTEXT
  5
111
330
1F
100
AcDbEntity
  8
NOTES
100
AcDbMText
 10
60.18317532028495
 20
1.064581557673832
 30
0.0
 40
0.25
 41
0.0
 71
     1
 72
     1
  1
SCALE:     1:1
  7
SLDTEXTSTYLE0
 73
     1
 44
1.0
  0
MTEXT
  5
112
330
1F
100
AcDbEntity
  8
NOTES
100
AcDbMText
 10
64.18369337292519
 20
2.651034429460866
 30
0.0
 40
0.25
 41
0.0
 71
     2
 72
     1
  1
941-1824 FT CAD
  7
SLDTEXTSTYLE0
 73
     1
 44
1.0
  0
MTEXT
  5
113
330
1F
100
AcDbEntity
  8
NOTES
100
AcDbMText
 10
56.44444373978455
 20
2.651034429460864
 30
0.0
 40
0.25
 41
0.0
 71
     2
 72
     1
  1
941-1824 FT Mirror
  7
SLDTEXTSTYLE0
 73
     1
 44
1.0
  0
INSERT
  5
123
330
1F
100
AcDbEntity
  8
NOTES
100
AcDbBlockReference
  2
SW_NOTE_0_2
 10
46.61597262459082
 20
5.148152684778704
 30
0.0
  0
MTEXT
  5
124
330
1F
100
AcDbEntity
  8
NOTES
100
AcDbMText
 10
49.50372112016102
 20
3.08647332676587
 30
0.0
 40
0.25
 41
0.0
 71
     2
 72
     1
  1
August 11, 2021
  7
SLDTEXTSTYLE0
 73
     1
 44
1.0
  0
MTEXT
  5
125
330
1F
100
AcDbEntity
  8
TITLE
100
AcDbMText
 10
0.3276279775836454
 20
2.003106290974172
 30
0.0
 40
0.125
 41
0.0
 71
     2
 72
     1
  1
A
  7
SLDTEXTSTYLE0
 73
     1
 44
1.0
  0
MTEXT
  5
126
330
1F
100
AcDbEntity
  8
TITLE
100
AcDbMText
 10
69.662273646875
 20
2.003106290974172
 30
0.0
 40
0.125
 41
0.0
 71
     2
 72
     1
  1
A
  7
SLDTEXTSTYLE0
 73
     1
 44
1.0
  0
MTEXT
  5
127
330
1F
100
AcDbEntity
  8
TITLE
100
AcDbMText
 10
0.3317512413046844
 20
4.410586605934803
 30
0.0
 40
0.125
 41
0.0
 71
     2
 72
     1
  1
B
  7
SLDTEXTSTYLE0
 73
     1
 44
1.0
  0
MTEXT
  5
128
330
1F
100
AcDbEntity
  8
TITLE
100
AcDbMText
 10
69.66639691059605
 20
4.410586605934803
 30
0.0
 40
0.125
 41
0.0
 71
     2
 72
     1
  1
B
  7
SLDTEXTSTYLE0
 73
     1
 44
1.0
  0
MTEXT
  5
129
330
1F
100
AcDbEntity
  8
TITLE
100
AcDbMText
 10
0.3313750816934456
 20
6.379090542942676
 30
0.0
 40
0.125
 41
0.0
 71
     2
 72
     1
  1
C
  7
SLDTEXTSTYLE0
 73
     1
 44
1.0
  0
MTEXT
  5
12A
330
1F
100
AcDbEntity
  8
TITLE
100
AcDbMText
 10
69.6660207509848
 20
6.379090542942677
 30
0.0
 40
0.125
 41
0.0
 71
     2
 72
     1
  1
C
  7
SLDTEXTSTYLE0
 73
     1
 44
1.0
  0
MTEXT
  5
12B
330
1F
100
AcDbEntity
  8
TITLE
100
AcDbMText
 10
0.3311870028448152
 20
8.34759447995055
 30
0.0
 40
0.125
 41
0.0
 71
     2
 72
     1
  1
D
  7
SLDTEXTSTYLE0
 73
     1
 44
1.0
  0
MTEXT
  5
12C
330
1F
100
AcDbEntity
  8
TITLE
100
AcDbMText
 10
69.66583267213616
 20
8.34759447995055
 30
0.0
 40
0.125
 41
0.0
 71
     2
 72
     1
  1
D
  7
SLDTEXTSTYLE0
 73
     1
 44
1.0
  0
MTEXT
  5
12D
330
1F
100
AcDbEntity
  8
TITLE
100
AcDbMText
 10
0.3329231160377541
 20
10.31609841695842
 30
0.0
 40
0.125
 41
0.0
 71
     2
 72
     1
  1
E
  7
SLDTEXTSTYLE0
 73
     1
 44
1.0
  0
MTEXT
  5
12E
330
1F
100
AcDbEntity
  8
TITLE
100
AcDbMText
 10
69.66756878532911
 20
10.31609841695842
 30
0.0
 40
0.125
 41
0.0
 71
     2
 72
     1
  1
E
  7
SLDTEXTSTYLE0
 73
     1
 44
1.0
  0
MTEXT
  5
12F
330
1F
100
AcDbEntity
  8
TITLE
100
AcDbMText
 10
0.3313461474003637
 20
12.28460235396629
 30
0.0
 40
0.125
 41
0.0
 71
     2
 72
     1
  1
F
  7
SLDTEXTSTYLE0
 73
     1
 44
1.0
  0
MTEXT
  5
130
330
1F
100
AcDbEntity
  8
TITLE
100
AcDbMText
 10
69.66599181669172
 20
12.2846023539663
 30
0.0
 40
0.125
 41
0.0
 71
     2
 72
     1
  1
F
  7
SLDTEXTSTYLE0
 73
     1
 44
1.0
  0
MTEXT
  5
131
330
1F
100
AcDbEntity
  8
TITLE
100
AcDbMText
 10
0.332257605436456
 20
14.25310629097417
 30
0.0
 40
0.125
 41
0.0
 71
     2
 72
     1
  1
G
  7
SLDTEXTSTYLE0
 73
     1
 44
1.0
  0
MTEXT
  5
132
330
1F
100
AcDbEntity
  8
TITLE
100
AcDbMText
 10
69.66690327472782
 20
14.25310629097417
 30
0.0
 40
0.125
 41
0.0
 71
     2
 72
     1
  1
G
  7
SLDTEXTSTYLE0
 73
     1
 44
1.0
  0
MTEXT
  5
133
330
1F
100
AcDbEntity
  8
TITLE
100
AcDbMText
 10
0.3323733456814148
 20
16.22161022798205
 30
0.0
 40
0.125
 41
0.0
 71
     2
 72
     1
  1
H
  7
SLDTEXTSTYLE0
 73
     1
 44
1.0
  0
MTEXT
  5
134
330
1F
100
AcDbEntity
  8
TITLE
100
AcDbMText
 10
69.66701901497275
 20
16.22161022798205
 30
0.0
 40
0.125
 41
0.0
 71
     2
 72
     1
  1
H
  7
SLDTEXTSTYLE0
 73
     1
 44
1.0
  0
MTEXT
  5
135
330
1F
100
AcDbEntity
  8
TITLE
100
AcDbMText
 10
0.3315776305595838
 20
18.19011416498992
 30
0.0
 40
0.125
 41
0.0
 71
     2
 72
     1
  1
J
  7
SLDTEXTSTYLE0
 73
     1
 44
1.0
  0
MTEXT
  5
136
330
1F
100
AcDbEntity
  8
TITLE
100
AcDbMText
 10
69.66622329985094
 20
18.19011416498992
 30
0.0
 40
0.125
 41
0.0
 71
     2
 72
     1
  1
J
  7
SLDTEXTSTYLE0
 73
     1
 44
1.0
  0
MTEXT
  5
137
330
1F
100
AcDbEntity
  8
TITLE
100
AcDbMText
 10
0.3323154765159243
 20
20.1586181019978
 30
0.0
 40
0.125
 41
0.0
 71
     2
 72
     1
  1
K
  7
SLDTEXTSTYLE0
 73
     1
 44
1.0
  0
MTEXT
  5
138
330
1F
100
AcDbEntity
  8
TITLE
100
AcDbMText
 10
69.66696114580728
 20
20.1586181019978
 30
0.0
 40
0.125
 41
0.0
 71
     2
 72
     1
  1
K
  7
SLDTEXTSTYLE0
 73
     1
 44
1.0
  0
MTEXT
  5
139
330
1F
100
AcDbEntity
  8
TITLE
100
AcDbMText
 10
0.3312448739242835
 20
22.12712203900567
 30
0.0
 40
0.125
 41
0.0
 71
     2
 72
     1
  1
L
  7
SLDTEXTSTYLE0
 73
     1
 44
1.0
  0
MTEXT
  5
13A
330
1F
100
AcDbEntity
  8
TITLE
100
AcDbMText
 10
69.66589054321565
 20
22.12712203900567
 30
0.0
 40
0.125
 41
0.0
 71
     2
 72
     1
  1
L
  7
SLDTEXTSTYLE0
 73
     1
 44
1.0
  0
MTEXT
  5
13B
330
1F
100
AcDbEntity
  8
TITLE
100
AcDbMText
 10
0.3283224192293962
 20
24.09562597601354
 30
0.0
 40
0.125
 41
0.0
 71
     2
 72
     1
  1
M
  7
SLDTEXTSTYLE0
 73
     1
 44
1.0
  0
MTEXT
  5
13C
330
1F
100
AcDbEntity
  8
TITLE
100
AcDbMText
 10
69.66296808852073
 20
24.09562597601354
 30
0.0
 40
0.125
 41
0.0
 71
     2
 72
     1
  1
M
  7
SLDTEXTSTYLE0
 73
     1
 44
1.0
  0
MTEXT
  5
13D
330
1F
100
AcDbEntity
  8
TITLE
100
AcDbMText
 10
0.3315342275836453
 20
26.06412991302142
 30
0.0
 40
0.125
 41
0.0
 71
     2
 72
     1
  1
N
  7
SLDTEXTSTYLE0
 73
     1
 44
1.0
  0
MTEXT
  5
13E
330
1F
100
AcDbEntity
  8
TITLE
100
AcDbMText
 10
69.666179896875
 20
26.06412991302141
 30
0.0
 40
0.125
 41
0.0
 71
     2
 72
     1
  1
N
  7
SLDTEXTSTYLE0
 73
     1
 44
1.0
  0
MTEXT
  5
13F
330
1F
100
AcDbEntity
  8
TITLE
100
AcDbMText
 10
0.3321997349363143
 20
28.03263385002929
 30
0.0
 40
0.125
 41
0.0
 71
     2
 72
     1
  1
P
  7
SLDTEXTSTYLE0
 73
     1
 44
1.0
  0
MTEXT
  5
140
330
1F
100
AcDbEntity
  8
TITLE
100
AcDbMText
 10
69.66684540422766
 20
28.03263385002929
 30
0.0
 40
0.125
 41
0.0
 71
     2
 72
     1
  1
P
  7
SLDTEXTSTYLE0
 73
     1
 44
1.0
  0
MTEXT
  5
141
330
1F
100
AcDbEntity
  8
TITLE
100
AcDbMText
 10
0.3309265867271644
 20
30.00113778703717
 30
0.0
 40
0.125
 41
0.0
 71
     2
 72
     1
  1
R
  7
SLDTEXTSTYLE0
 73
     1
 44
1.0
  0
MTEXT
  5
142
330
1F
100
AcDbEntity
  8
TITLE
100
AcDbMText
 10
69.6655722560185
 20
30.00113778703717
 30
0.0
 40
0.125
 41
0.0
 71
     2
 72
     1
  1
R
  7
SLDTEXTSTYLE0
 73
     1
 44
1.0
  0
MTEXT
  5
143
330
1F
100
AcDbEntity
  8
TITLE
100
AcDbMText
 10
0.3323010070777432
 20
31.96964172404504
 30
0.0
 40
0.125
 41
0.0
 71
     2
 72
     1
  1
T
  7
SLDTEXTSTYLE0
 73
     1
 44
1.0
  0
MTEXT
  5
144
330
1F
100
AcDbEntity
  8
TITLE
100
AcDbMText
 10
69.6669466763691
 20
31.96964172404504
 30
0.0
 40
0.125
 41
0.0
 71
     2
 72
     1
  1
T
  7
SLDTEXTSTYLE0
 73
     1
 44
1.0
  0
MTEXT
  5
145
330
1F
100
AcDbEntity
  8
TITLE
100
AcDbMText
 10
0.3328507755201046
 20
33.93814566105291
 30
0.0
 40
0.125
 41
0.0
 71
     2
 72
     1
  1
U
  7
SLDTEXTSTYLE0
 73
     1
 44
1.0
  0
MTEXT
  5
146
330
1F
100
AcDbEntity
  8
TITLE
100
AcDbMText
 10
69.66749644481145
 20
33.93814566105292
 30
0.0
 40
0.125
 41
0.0
 71
     2
 72
     1
  1
U
  7
SLDTEXTSTYLE0
 73
     1
 44
1.0
  0
MTEXT
  5
147
330
1F
100
AcDbEntity
  8
TITLE
100
AcDbMText
 10
0.3307529773167151
 20
35.90664959806079
 30
0.0
 40
0.125
 41
0.0
 71
     2
 72
     1
  1
V
  7
SLDTEXTSTYLE0
 73
     1
 44
1.0
  0
MTEXT
  5
148
330
1F
100
AcDbEntity
  8
TITLE
100
AcDbMText
 10
69.66539864660804
 20
35.90664959806078
 30
0.0
 40
0.125
 41
0.0
 71
     2
 72
     1
  1
V
  7
SLDTEXTSTYLE0
 73
     1
 44
1.0
  0
MTEXT
  5
149
330
1F
100
AcDbEntity
  8
TITLE
100
AcDbMText
 10
0.3327784409203867
 20
37.87515353506867
 30
0.0
 40
0.125
 41
0.0
 71
     2
 72
     1
  1
W
  7
SLDTEXTSTYLE0
 73
     1
 44
1.0
  0
MTEXT
  5
14A
330
1F
100
AcDbEntity
  8
TITLE
100
AcDbMText
 10
69.66742411021175
 20
37.87515353506867
 30
0.0
 40
0.125
 41
0.0
 71
     2
 72
     1
  1
W
  7
SLDTEXTSTYLE0
 73
     1
 44
1.0
  0
MTEXT
  5
14B
330
1F
100
AcDbEntity
  8
TITLE
100
AcDbMText
 10
0.3321997349363144
 20
39.84365747207655
 30
0.0
 40
0.125
 41
0.0
 71
     2
 72
     1
  1
Y
  7
SLDTEXTSTYLE0
 73
     1
 44
1.0
  0
MTEXT
  5
14C
330
1F
100
AcDbEntity
  8
TITLE
100
AcDbMText
 10
69.66684540422766
 20
39.84365747207655
 30
0.0
 40
0.125
 41
0.0
 71
     2
 72
     1
  1
Y
  7
SLDTEXTSTYLE0
 73
     1
 44
1.0
  0
MTEXT
  5
14D
330
1F
100
AcDbEntity
  8
TITLE
100
AcDbMText
 10
0.32257878981296
 20
41.81216140908442
 30
0.0
 40
0.125
 41
0.0
 71
     2
 72
     1
  1
AA
  7
SLDTEXTSTYLE0
 73
     1
 44
1.0
  0
MTEXT
  5
14E
330
1F
100
AcDbEntity
  8
TITLE
100
AcDbMText
 10
69.65722445910431
 20
41.81216140908442
 30
0.0
 40
0.125
 41
0.0
 71
     2
 72
     1
  1
AA
  7
SLDTEXTSTYLE0
 73
     1
 44
1.0
  0
MTEXT
  5
14F
330
1F
100
AcDbEntity
  8
TITLE
100
AcDbMText
 10
0.3267020535339989
 20
43.78066534609228
 30
0.0
 40
0.125
 41
0.0
 71
     2
 72
     1
  1
AB
  7
SLDTEXTSTYLE0
 73
     1
 44
1.0
  0
MTEXT
  5
150
330
1F
100
AcDbEntity
  8
TITLE
100
AcDbMText
 10
69.66134772282535
 20
43.7806653460923
 30
0.0
 40
0.125
 41
0.0
 71
     2
 72
     1
  1
AB
  7
SLDTEXTSTYLE0
 73
     1
 44
1.0
  0
MTEXT
  5
151
330
1F
100
AcDbEntity
  8
TITLE
100
AcDbMText
 10
0.3263258985060407
 20
45.74916928310017
 30
0.0
 40
0.125
 41
0.0
 71
     2
 72
     1
  1
AC
  7
SLDTEXTSTYLE0
 73
     1
 44
1.0
  0
MTEXT
  5
152
330
1F
100
AcDbEntity
  8
TITLE
100
AcDbMText
 10
69.66097156779739
 20
45.74916928310017
 30
0.0
 40
0.125
 41
0.0
 71
     2
 72
     1
  1
AC
  7
SLDTEXTSTYLE0
 73
     1
 44
1.0
  0
MTEXT
  5
153
330
1F
100
AcDbEntity
  8
TITLE
100
AcDbMText
 10
0.3261378196574102
 20
48.15664959806079
 30
0.0
 40
0.125
 41
0.0
 71
     2
 72
     1
  1
AD
  7
SLDTEXTSTYLE0
 73
     1
 44
1.0
  0
MTEXT
  5
154
330
1F
100
AcDbEntity
  8
TITLE
100
AcDbMText
 10
69.66078348894875
 20
48.1566495980608
 30
0.0
 40
0.125
 41
0.0
 71
     2
 72
     1
  1
AD
  7
SLDTEXTSTYLE0
 73
     1
 44
1.0
  0
MTEXT
  5
155
330
1F
100
AcDbEntity
  8
TITLE
100
AcDbMText
 10
1.015199174063176
 20
0.4125551098718105
 30
0.0
 40
0.125
 41
0.0
 71
     2
 72
     1
  1
36
  7
SLDTEXTSTYLE0
 73
     1
 44
1.0
  0
MTEXT
  5
156
330
1F
100
AcDbEntity
  8
TITLE
100
AcDbMText
 10
1.015199174063176
 20
49.74720077916316
 30
0.0
 40
0.125
 41
0.0
 71
     2
 72
     1
  1
36
  7
SLDTEXTSTYLE0
 73
     1
 44
1.0
  0
MTEXT
  5
157
330
1F
100
AcDbEntity
  8
TITLE
100
AcDbMText
 10
2.517167678000183
 20
0.4125551098718104
 30
0.0
 40
0.125
 41
0.0
 71
     2
 72
     1
  1
35
  7
SLDTEXTSTYLE0
 73
     1
 44
1.0
  0
MTEXT
  5
158
330
1F
100
AcDbEntity
  8
TITLE
100
AcDbMText
 10
2.517167678000183
 20
49.74720077916316
 30
0.0
 40
0.125
 41
0.0
 71
     2
 72
     1
  1
35
  7
SLDTEXTSTYLE0
 73
     1
 44
1.0
  0
MTEXT
  5
159
330
1F
100
AcDbEntity
  8
TITLE
100
AcDbMText
 10
4.48567161500806
 20
0.4125551098718104
 30
0.0
 40
0.125
 41
0.0
 71
     2
 72
     1
  1
34
  7
SLDTEXTSTYLE0
 73
     1
 44
1.0
  0
MTEXT
  5
15A
330
1F
100
AcDbEntity
  8
TITLE
100
AcDbMText
 10
4.485671615008059
 20
49.74720077916316
 30
0.0
 40
0.125
 41
0.0
 71
     2
 72
     1
  1
34
  7
SLDTEXTSTYLE0
 73
     1
 44
1.0
  0
MTEXT
  5
15B
330
1F
100
AcDbEntity
  8
TITLE
100
AcDbMText
 10
6.454175552015934
 20
0.4125551098718104
 30
0.0
 40
0.125
 41
0.0
 71
     2
 72
     1
  1
33
  7
SLDTEXTSTYLE0
 73
     1
 44
1.0
  0
MTEXT
  5
15C
330
1F
100
AcDbEntity
  8
TITLE
100
AcDbMText
 10
6.454175552015932
 20
49.74720077916316
 30
0.0
 40
0.125
 41
0.0
 71
     2
 72
     1
  1
33
  7
SLDTEXTSTYLE0
 73
     1
 44
1.0
  0
MTEXT
  5
15D
330
1F
100
AcDbEntity
  8
TITLE
100
AcDbMText
 10
8.422679489023805
 20
0.4125551098718104
 30
0.0
 40
0.125
 41
0.0
 71
     2
 72
     1
  1
32
  7
SLDTEXTSTYLE0
 73
     1
 44
1.0
  0
MTEXT
  5
15E
330
1F
100
AcDbEntity
  8
TITLE
100
AcDbMText
 10
8.422679489023807
 20
49.74720077916316
 30
0.0
 40
0.125
 41
0.0
 71
     2
 72
     1
  1
32
  7
SLDTEXTSTYLE0
 73
     1
 44
1.0
  0
MTEXT
  5
15F
330
1F
100
AcDbEntity
  8
TITLE
100
AcDbMText
 10
10.39118342603168
 20
0.4125551098718104
 30
0.0
 40
0.125
 41
0.0
 71
     2
 72
     1
  1
31
  7
SLDTEXTSTYLE0
 73
     1
 44
1.0
  0
MTEXT
  5
160
330
1F
100
AcDbEntity
  8
TITLE
100
AcDbMText
 10
10.39118342603168
 20
49.74720077916315
 30
0.0
 40
0.125
 41
0.0
 71
     2
 72
     1
  1
31
  7
SLDTEXTSTYLE0
 73
     1
 44
1.0
  0
MTEXT
  5
161
330
1F
100
AcDbEntity
  8
TITLE
100
AcDbMText
 10
12.35968736303955
 20
0.4125551098718104
 30
0.0
 40
0.125
 41
0.0
 71
     2
 72
     1
  1
30
  7
SLDTEXTSTYLE0
 73
     1
 44
1.0
  0
MTEXT
  5
162
330
1F
100
AcDbEntity
  8
TITLE
100
AcDbMText
 10
12.35968736303955
 20
49.74720077916316
 30
0.0
 40
0.125
 41
0.0
 71
     2
 72
     1
  1
30
  7
SLDTEXTSTYLE0
 73
     1
 44
1.0
  0
MTEXT
  5
163
330
1F
100
AcDbEntity
  8
TITLE
100
AcDbMText
 10
14.32819130004743
 20
0.4125551098718104
 30
0.0
 40
0.125
 41
0.0
 71
     2
 72
     1
  1
29
  7
SLDTEXTSTYLE0
 73
     1
 44
1.0
  0
MTEXT
  5
164
330
1F
100
AcDbEntity
  8
TITLE
100
AcDbMText
 10
14.32819130004743
 20
49.74720077916316
 30
0.0
 40
0.125
 41
0.0
 71
     2
 72
     1
  1
29
  7
SLDTEXTSTYLE0
 73
     1
 44
1.0
  0
MTEXT
  5
165
330
1F
100
AcDbEntity
  8
TITLE
100
AcDbMText
 10
16.2966952370553
 20
0.4125551098718104
 30
0.0
 40
0.125
 41
0.0
 71
     2
 72
     1
  1
28
  7
SLDTEXTSTYLE0
 73
     1
 44
1.0
  0
MTEXT
  5
166
330
1F
100
AcDbEntity
  8
TITLE
100
AcDbMText
 10
16.29669523705531
 20
49.74720077916317
 30
0.0
 40
0.125
 41
0.0
 71
     2
 72
     1
  1
28
  7
SLDTEXTSTYLE0
 73
     1
 44
1.0
  0
MTEXT
  5
167
330
1F
100
AcDbEntity
  8
TITLE
100
AcDbMText
 10
18.26519917406318
 20
0.4125551098718105
 30
0.0
 40
0.125
 41
0.0
 71
     2
 72
     1
  1
27
  7
SLDTEXTSTYLE0
 73
     1
 44
1.0
  0
MTEXT
  5
168
330
1F
100
AcDbEntity
  8
TITLE
100
AcDbMText
 10
18.26519917406317
 20
49.74720077916316
 30
0.0
 40
0.125
 41
0.0
 71
     2
 72
     1
  1
27
  7
SLDTEXTSTYLE0
 73
     1
 44
1.0
  0
MTEXT
  5
169
330
1F
100
AcDbEntity
  8
TITLE
100
AcDbMText
 10
20.23370311107105
 20
0.4125551098718103
 30
0.0
 40
0.125
 41
0.0
 71
     2
 72
     1
  1
26
  7
SLDTEXTSTYLE0
 73
     1
 44
1.0
  0
MTEXT
  5
16A
330
1F
100
AcDbEntity
  8
TITLE
100
AcDbMText
 10
20.23370311107105
 20
49.74720077916316
 30
0.0
 40
0.125
 41
0.0
 71
     2
 72
     1
  1
26
  7
SLDTEXTSTYLE0
 73
     1
 44
1.0
  0
MTEXT
  5
16B
330
1F
100
AcDbEntity
  8
TITLE
100
AcDbMText
 10
22.20220704807893
 20
0.4125551098718104
 30
0.0
 40
0.125
 41
0.0
 71
     2
 72
     1
  1
25
  7
SLDTEXTSTYLE0
 73
     1
 44
1.0
  0
MTEXT
  5
16C
330
1F
100
AcDbEntity
  8
TITLE
100
AcDbMText
 10
22.20220704807893
 20
49.74720077916316
 30
0.0
 40
0.125
 41
0.0
 71
     2
 72
     1
  1
25
  7
SLDTEXTSTYLE0
 73
     1
 44
1.0
  0
MTEXT
  5
16D
330
1F
100
AcDbEntity
  8
TITLE
100
AcDbMText
 10
24.1707109850868
 20
0.4125551098718104
 30
0.0
 40
0.125
 41
0.0
 71
     2
 72
     1
  1
24
  7
SLDTEXTSTYLE0
 73
     1
 44
1.0
  0
MTEXT
  5
16E
330
1F
100
AcDbEntity
  8
TITLE
100
AcDbMText
 10
24.1707109850868
 20
49.74720077916316
 30
0.0
 40
0.125
 41
0.0
 71
     2
 72
     1
  1
24
  7
SLDTEXTSTYLE0
 73
     1
 44
1.0
  0
MTEXT
  5
16F
330
1F
100
AcDbEntity
  8
TITLE
100
AcDbMText
 10
26.13921492209468
 20
0.4125551098718104
 30
0.0
 40
0.125
 41
0.0
 71
     2
 72
     1
  1
23
  7
SLDTEXTSTYLE0
 73
     1
 44
1.0
  0
MTEXT
  5
170
330
1F
100
AcDbEntity
  8
TITLE
100
AcDbMText
 10
26.13921492209468
 20
49.74720077916316
 30
0.0
 40
0.125
 41
0.0
 71
     2
 72
     1
  1
23
  7
SLDTEXTSTYLE0
 73
     1
 44
1.0
  0
MTEXT
  5
171
330
1F
100
AcDbEntity
  8
TITLE
100
AcDbMText
 10
28.10771885910255
 20
0.4125551098718104
 30
0.0
 40
0.125
 41
0.0
 71
     2
 72
     1
  1
22
  7
SLDTEXTSTYLE0
 73
     1
 44
1.0
  0
MTEXT
  5
172
330
1F
100
AcDbEntity
  8
TITLE
100
AcDbMText
 10
28.10771885910255
 20
49.74720077916316
 30
0.0
 40
0.125
 41
0.0
 71
     2
 72
     1
  1
22
  7
SLDTEXTSTYLE0
 73
     1
 44
1.0
  0
MTEXT
  5
173
330
1F
100
AcDbEntity
  8
TITLE
100
AcDbMText
 10
30.07622279611043
 20
0.4125551098718104
 30
0.0
 40
0.125
 41
0.0
 71
     2
 72
     1
  1
21
  7
SLDTEXTSTYLE0
 73
     1
 44
1.0
  0
MTEXT
  5
174
330
1F
100
AcDbEntity
  8
TITLE
100
AcDbMText
 10
30.07622279611043
 20
49.74720077916316
 30
0.0
 40
0.125
 41
0.0
 71
     2
 72
     1
  1
21
  7
SLDTEXTSTYLE0
 73
     1
 44
1.0
  0
MTEXT
  5
175
330
1F
100
AcDbEntity
  8
TITLE
100
AcDbMText
 10
32.0447267331183
 20
0.4125551098718104
 30
0.0
 40
0.125
 41
0.0
 71
     2
 72
     1
  1
20
  7
SLDTEXTSTYLE0
 73
     1
 44
1.0
  0
MTEXT
  5
176
330
1F
100
AcDbEntity
  8
TITLE
100
AcDbMText
 10
32.0447267331183
 20
49.74720077916316
 30
0.0
 40
0.125
 41
0.0
 71
     2
 72
     1
  1
20
  7
SLDTEXTSTYLE0
 73
     1
 44
1.0
  0
MTEXT
  5
177
330
1F
100
AcDbEntity
  8
TITLE
100
AcDbMText
 10
34.01323067012617
 20
0.4125551098718104
 30
0.0
 40
0.125
 41
0.0
 71
     2
 72
     1
  1
19
  7
SLDTEXTSTYLE0
 73
     1
 44
1.0
  0
MTEXT
  5
178
330
1F
100
AcDbEntity
  8
TITLE
100
AcDbMText
 10
34.01323067012617
 20
49.74720077916317
 30
0.0
 40
0.125
 41
0.0
 71
     2
 72
     1
  1
19
  7
SLDTEXTSTYLE0
 73
     1
 44
1.0
  0
MTEXT
  5
179
330
1F
100
AcDbEntity
  8
TITLE
100
AcDbMText
 10
35.98173460713405
 20
0.4125551098718104
 30
0.0
 40
0.125
 41
0.0
 71
     2
 72
     1
  1
18
  7
SLDTEXTSTYLE0
 73
     1
 44
1.0
  0
MTEXT
  5
17A
330
1F
100
AcDbEntity
  8
TITLE
100
AcDbMText
 10
35.98173460713404
 20
49.74720077916316
 30
0.0
 40
0.125
 41
0.0
 71
     2
 72
     1
  1
18
  7
SLDTEXTSTYLE0
 73
     1
 44
1.0
  0
MTEXT
  5
17B
330
1F
100
AcDbEntity
  8
TITLE
100
AcDbMText
 10
37.95023854414192
 20
0.4125551098718105
 30
0.0
 40
0.125
 41
0.0
 71
     2
 72
     1
  1
17
  7
SLDTEXTSTYLE0
 73
     1
 44
1.0
  0
MTEXT
  5
17C
330
1F
100
AcDbEntity
  8
TITLE
100
AcDbMText
 10
37.95023854414192
 20
49.74720077916315
 30
0.0
 40
0.125
 41
0.0
 71
     2
 72
     1
  1
17
  7
SLDTEXTSTYLE0
 73
     1
 44
1.0
  0
MTEXT
  5
17D
330
1F
100
AcDbEntity
  8
TITLE
100
AcDbMText
 10
39.91874248114979
 20
0.4125551098718104
 30
0.0
 40
0.125
 41
0.0
 71
     2
 72
     1
  1
16
  7
SLDTEXTSTYLE0
 73
     1
 44
1.0
  0
MTEXT
  5
17E
330
1F
100
AcDbEntity
  8
TITLE
100
AcDbMText
 10
39.91874248114979
 20
49.74720077916316
 30
0.0
 40
0.125
 41
0.0
 71
     2
 72
     1
  1
16
  7
SLDTEXTSTYLE0
 73
     1
 44
1.0
  0
MTEXT
  5
17F
330
1F
100
AcDbEntity
  8
TITLE
100
AcDbMText
 10
41.88724641815767
 20
0.4125551098718104
 30
0.0
 40
0.125
 41
0.0
 71
     2
 72
     1
  1
15
  7
SLDTEXTSTYLE0
 73
     1
 44
1.0
  0
MTEXT
  5
180
330
1F
100
AcDbEntity
  8
TITLE
100
AcDbMText
 10
41.88724641815768
 20
49.74720077916316
 30
0.0
 40
0.125
 41
0.0
 71
     2
 72
     1
  1
15
  7
SLDTEXTSTYLE0
 73
     1
 44
1.0
  0
MTEXT
  5
181
330
1F
100
AcDbEntity
  8
TITLE
100
AcDbMText
 10
43.85575035516554
 20
0.4125551098718104
 30
0.0
 40
0.125
 41
0.0
 71
     2
 72
     1
  1
14
  7
SLDTEXTSTYLE0
 73
     1
 44
1.0
  0
MTEXT
  5
182
330
1F
100
AcDbEntity
  8
TITLE
100
AcDbMText
 10
43.85575035516554
 20
49.74720077916316
 30
0.0
 40
0.125
 41
0.0
 71
     2
 72
     1
  1
14
  7
SLDTEXTSTYLE0
 73
     1
 44
1.0
  0
MTEXT
  5
183
330
1F
100
AcDbEntity
  8
TITLE
100
AcDbMText
 10
45.82425429217342
 20
0.4125551098718104
 30
0.0
 40
0.125
 41
0.0
 71
     2
 72
     1
  1
13
  7
SLDTEXTSTYLE0
 73
     1
 44
1.0
  0
MTEXT
  5
184
330
1F
100
AcDbEntity
  8
TITLE
100
AcDbMText
 10
45.82425429217341
 20
49.74720077916315
 30
0.0
 40
0.125
 41
0.0
 71
     2
 72
     1
  1
13
  7
SLDTEXTSTYLE0
 73
     1
 44
1.0
  0
MTEXT
  5
185
330
1F
100
AcDbEntity
  8
TITLE
100
AcDbMText
 10
47.79275822918129
 20
0.4125551098718104
 30
0.0
 40
0.125
 41
0.0
 71
     2
 72
     1
  1
12
  7
SLDTEXTSTYLE0
 73
     1
 44
1.0
  0
MTEXT
  5
186
330
1F
100
AcDbEntity
  8
TITLE
100
AcDbMText
 10
47.79275822918129
 20
49.74720077916316
 30
0.0
 40
0.125
 41
0.0
 71
     2
 72
     1
  1
12
  7
SLDTEXTSTYLE0
 73
     1
 44
1.0
  0
MTEXT
  5
187
330
1F
100
AcDbEntity
  8
TITLE
100
AcDbMText
 10
49.76126216618918
 20
0.4125551098718104
 30
0.0
 40
0.125
 41
0.0
 71
     2
 72
     1
  1
11
  7
SLDTEXTSTYLE0
 73
     1
 44
1.0
  0
MTEXT
  5
188
330
1F
100
AcDbEntity
  8
TITLE
100
AcDbMText
 10
49.76126216618918
 20
49.74720077916316
 30
0.0
 40
0.125
 41
0.0
 71
     2
 72
     1
  1
11
  7
SLDTEXTSTYLE0
 73
     1
 44
1.0
  0
MTEXT
  5
189
330
1F
100
AcDbEntity
  8
TITLE
100
AcDbMText
 10
51.72976610319703
 20
0.4125551098718104
 30
0.0
 40
0.125
 41
0.0
 71
     2
 72
     1
  1
10
  7
SLDTEXTSTYLE0
 73
     1
 44
1.0
  0
MTEXT
  5
18A
330
1F
100
AcDbEntity
  8
TITLE
100
AcDbMText
 10
51.72976610319704
 20
49.74720077916316
 30
0.0
 40
0.125
 41
0.0
 71
     2
 72
     1
  1
10
  7
SLDTEXTSTYLE0
 73
     1
 44
1.0
  0
MTEXT
  5
18B
330
1F
100
AcDbEntity
  8
TITLE
100
AcDbMText
 10
53.69952872088985
 20
0.4125551098718104
 30
0.0
 40
0.125
 41
0.0
 71
     2
 72
     1
  1
9
  7
SLDTEXTSTYLE0
 73
     1
 44
1.0
  0
MTEXT
  5
18C
330
1F
100
AcDbEntity
  8
TITLE
100
AcDbMText
 10
53.69952872088985
 20
49.74720077916316
 30
0.0
 40
0.125
 41
0.0
 71
     2
 72
     1
  1
9
  7
SLDTEXTSTYLE0
 73
     1
 44
1.0
  0
MTEXT
  5
18D
330
1F
100
AcDbEntity
  8
TITLE
100
AcDbMText
 10
55.66803265789773
 20
0.4125551098718104
 30
0.0
 40
0.125
 41
0.0
 71
     2
 72
     1
  1
8
  7
SLDTEXTSTYLE0
 73
     1
 44
1.0
  0
MTEXT
  5
18E
330
1F
100
AcDbEntity
  8
TITLE
100
AcDbMText
 10
55.66803265789774
 20
49.74720077916315
 30
0.0
 40
0.125
 41
0.0
 71
     2
 72
     1
  1
8
  7
SLDTEXTSTYLE0
 73
     1
 44
1.0
  0
MTEXT
  5
18F
330
1F
100
AcDbEntity
  8
TITLE
100
AcDbMText
 10
57.63653659490561
 20
0.4125551098718104
 30
0.0
 40
0.125
 41
0.0
 71
     2
 72
     1
  1
7
  7
SLDTEXTSTYLE0
 73
     1
 44
1.0
  0
MTEXT
  5
190
330
1F
100
AcDbEntity
  8
TITLE
100
AcDbMText
 10
57.63653659490561
 20
49.74720077916316
 30
0.0
 40
0.125
 41
0.0
 71
     2
 72
     1
  1
7
  7
SLDTEXTSTYLE0
 73
     1
 44
1.0
  0
MTEXT
  5
191
330
1F
100
AcDbEntity
  8
TITLE
100
AcDbMText
 10
59.60504053191348
 20
0.4125551098718104
 30
0.0
 40
0.125
 41
0.0
 71
     2
 72
     1
  1
6
  7
SLDTEXTSTYLE0
 73
     1
 44
1.0
  0
MTEXT
  5
192
330
1F
100
AcDbEntity
  8
TITLE
100
AcDbMText
 10
59.6050405319135
 20
49.74720077916316
 30
0.0
 40
0.125
 41
0.0
 71
     2
 72
     1
  1
6
  7
SLDTEXTSTYLE0
 73
     1
 44
1.0
  0
MTEXT
  5
193
330
1F
100
AcDbEntity
  8
TITLE
100
AcDbMText
 10
61.57354446892136
 20
0.4125551098718104
 30
0.0
 40
0.125
 41
0.0
 71
     2
 72
     1
  1
5
  7
SLDTEXTSTYLE0
 73
     1
 44
1.0
  0
MTEXT
  5
194
330
1F
100
AcDbEntity
  8
TITLE
100
AcDbMText
 10
61.57354446892136
 20
49.74720077916314
 30
0.0
 40
0.125
 41
0.0
 71
     2
 72
     1
  1
5
  7
SLDTEXTSTYLE0
 73
     1
 44
1.0
  0
MTEXT
  5
195
330
1F
100
AcDbEntity
  8
TITLE
100
AcDbMText
 10
63.54204840592922
 20
0.4125551098718104
 30
0.0
 40
0.125
 41
0.0
 71
     2
 72
     1
  1
4
  7
SLDTEXTSTYLE0
 73
     1
 44
1.0
  0
MTEXT
  5
196
330
1F
100
AcDbEntity
  8
TITLE
100
AcDbMText
 10
63.54204840592922
 20
49.74720077916318
 30
0.0
 40
0.125
 41
0.0
 71
     2
 72
     1
  1
4
  7
SLDTEXTSTYLE0
 73
     1
 44
1.0
  0
MTEXT
  5
197
330
1F
100
AcDbEntity
  8
TITLE
100
AcDbMText
 10
65.5105523429371
 20
0.4125551098718104
 30
0.0
 40
0.125
 41
0.0
 71
     2
 72
     1
  1
3
  7
SLDTEXTSTYLE0
 73
     1
 44
1.0
  0
MTEXT
  5
198
330
1F
100
AcDbEntity
  8
TITLE
100
AcDbMText
 10
65.5105523429371
 20
49.74720077916316
 30
0.0
 40
0.125
 41
0.0
 71
     2
 72
     1
  1
3
  7
SLDTEXTSTYLE0
 73
     1
 44
1.0
  0
MTEXT
  5
199
330
1F
100
AcDbEntity
  8
TITLE
100
AcDbMText
 10
67.47905627994497
 20
0.4125551098718104
 30
0.0
 40
0.125
 41
0.0
 71
     2
 72
     1
  1
2
  7
SLDTEXTSTYLE0
 73
     1
 44
1.0
  0
MTEXT
  5
19A
330
1F
100
AcDbEntity
  8
TITLE
100
AcDbMText
 10
67.47905627994498
 20
49.74720077916317
 30
0.0
 40
0.125
 41
0.0
 71
     2
 72
     1
  1
2
  7
SLDTEXTSTYLE0
 73
     1
 44
1.0
  0
MTEXT
  5
19B
330
1F
100
AcDbEntity
  8
TITLE
100
AcDbMText
 10
68.98102478388199
 20
0.4125551098718104
 30
0.0
 40
0.125
 41
0.0
 71
     2
 72
     1
  1
1
  7
SLDTEXTSTYLE0
 73
     1
 44
1.0
  0
MTEXT
  5
19C
330
1F
100
AcDbEntity
  8
TITLE
100
AcDbMText
 10
68.98102478388199
 20
49.74720077916316
 30
0.0
 40
0.125
 41
0.0
 71
     2
 72
     1
  1
1
  7
SLDTEXTSTYLE0
 73
     1
 44
1.0
  0
LINE
  5
19D
330
1F
100
AcDbEntity
  8
0
  6
SLD-Solid
 62
     7
370
    25
100
AcDbLine
 10
20.0466081786694
 20
35.96066999546908
 30
0.0
 11
2.04650817874618
 21
35.96066999546896
 31
0.0
  0
LINE
  5
19E
330
1F
100
AcDbEntity
  8
0
  6
SLD-Solid
 62
     7
370
    25
100
AcDbLine
 10
2.015308178707897
 20
11.58080627059491
 30
0.0
 11
20.0628081787079
 21
11.58080627059504
 31
0.0
  0
LINE
  5
19F
330
1F
100
AcDbEntity
  8
0
  6
SLD-Solid
 62
     7
370
    25
100
AcDbLine
 10
2.03994445990361
 20
35.95773514919407
 30
0.0
 11
2.046508178746189
 21
35.95773514919407
 31
0.0
  0
LINE
  5
1A0
330
1F
100
AcDbEntity
  8
0
  6
SLD-Solid
 62
     7
370
    25
100
AcDbLine
 10
2.046508178746189
 20
35.95773514919407
 30
0.0
 11
2.04650817874618
 21
35.96013278266809
 31
0.0
  0
LINE
  5
1A1
330
1F
100
AcDbEntity
  8
0
  6
SLD-Solid
 62
     7
370
    25
100
AcDbLine
 10
2.04650817874618
 20
35.96013278266809
 30
0.0
 11
20.04660817866945
 21
35.96013278266825
 31
0.0
  0
LINE
  5
1A2
330
1F
100
AcDbEntity
  8
0
  6
SLD-Solid
 62
     7
370
    25
100
AcDbLine
 10
20.04660817866945
 20
35.96013278266825
 30
0.0
 11
20.04660817866945
 21
35.95773514919423
 31
0.0
  0
LINE
  5
1A3
330
1F
100
AcDbEntity
  8
0
  6
SLD-Solid
 62
     7
370
    25
100
AcDbLine
 10
20.04660817866945
 20
35.95773514919423
 30
0.0
 11
20.05317189751204
 21
35.95773514919423
 31
0.0
  0
ARC
  5
1A4
330
1F
100
AcDbEntity
  8
0
  6
SLD-Solid
 62
     7
370
    25
100
AcDbCircle
 10
2.039716044523971
 20
35.91096355351635
 30
0.0
 40
0.0467721534230198
100
AcDbArc
 50
89.72019057725079
 51
179.7174305566515
  0
LINE
  5
1A5
330
1F
100
AcDbEntity
  8
0
  6
SLD-Solid
 62
     7
370
    25
100
AcDbLine
 10
1.992944459903609
 20
35.50640283862094
 30
0.0
 11
1.992944459903609
 21
35.91119422195116
 31
0.0
  0
ARC
  5
1A6
330
1F
100
AcDbEntity
  8
0
  6
SLD-Solid
 62
     7
370
    25
100
AcDbCircle
 10
20.05340031289167
 20
35.91096355351649
 30
0.0
 40
0.0467721534230345
100
AcDbArc
 50
0.2825694433658774
 51
90.27980942273498
  0
LINE
  5
1A7
330
1F
100
AcDbEntity
  8
0
  6
SLD-Solid
 62
     7
370
    25
100
AcDbLine
 10
20.10017189751204
 20
35.50640283862104
 30
0.0
 11
20.10017189751204
 21
35.91119422195131
 31
0.0
  0
LINE
  5
1A8
330
1F
100
AcDbEntity
  8
0
  6
SLD-Solid
 62
     7
370
    25
100
AcDbLine
 10
20.04660817866942
 20
35.96066999546909
 30
0.0
 11
20.04660817866942
 21
35.96013278266825
 31
0.0
  0
LINE
  5
1A9
330
1F
100
AcDbEntity
  8
0
  6
SLD-Solid
 62
     7
370
    25
100
AcDbLine
 10
2.04650817874618
 20
35.96013278266809
 30
0.0
 11
2.04650817874618
 21
35.96066999546893
 31
0.0
  0
SPLINE
  5
1AA
330
1F
100
AcDbEntity
  8
0
  6
SLD-Solid
 62
     7
370
    25
100
AcDbSpline
210
0.0
220
0.0
230
1.0
 70
    12
 71
     3
 72
    11
 73
     7
 74
     0
 42
0.00000001
 43
0.00000001
 40
0.0
 40
0.0
 40
0.0
 40
0.0
 40
0.2500000000002031
 40
0.5000000000004219
 40
0.7500000000006471
 40
1.0
 40
1.0
 40
1.0
 40
1.0
 10
1.982408178707816
 20
35.42645892788518
 30
0.0
 41
1.0
 10
1.983113159471521
 20
35.42433009504861
 30
0.0
 41
1.0
 10
1.984523120998939
 20
35.42007242937547
 30
0.0
 41
1.0
 10
1.995368709094416
 20
35.41409505614983
 30
0.0
 41
1.0
 10
2.010871266644262
 20
35.40876698550226
 30
0.0
 41
1.0
 10
2.023162541353281
 20
35.40602645769546
 30
0.0
 41
1.0
 10
2.029308178707773
 20
35.40465619379207
 30
0.0
 41
1.0
  0
LINE
  5
1AB
330
1F
100
AcDbEntity
  8
0
  6
SLD-Solid
 62
     7
370
    25
100
AcDbLine
 10
1.982408178707816
 20
35.42645892788518
 30
0.0
 11
1.982408178707941
 21
11.61384301567155
 31
0.0
  0
SPLINE
  5
1AC
330
1F
100
AcDbEntity
  8
0
  6
SLD-Solid
 62
     7
370
    25
100
AcDbSpline
210
0.0
220
0.0
230
1.0
 70
    12
 71
     3
 72
    11
 73
     7
 74
     0
 42
0.00000001
 43
0.00000001
 40
0.0
 40
0.0
 40
0.0
 40
0.0
 40
0.2499999999998563
 40
0.4999999999996202
 40
0.74999999999939
 40
0.9999999999999999
 40
0.9999999999999999
 40
0.9999999999999999
 40
0.9999999999999999
 10
20.11070817870806
 20
11.61384301567168
 30
0.0
 41
1.0
 10
20.11000319794432
 20
11.61425812535962
 30
0.0
 41
1.0
 10
20.10859323641684
 20
11.61508834473552
 30
0.0
 41
1.0
 10
20.09774764832143
 20
11.61674279908339
 30
0.0
 41
1.0
 10
20.08224509077159
 20
11.61904655600934
 30
0.0
 41
1.0
 10
20.06995381606255
 20
11.62139391325155
 30
0.0
 41
1.0
 10
20.06380817870802
 20
11.62256759187265
 30
0.0
 41
1.0
  0
SPLINE
  5
1AD
330
1F
100
AcDbEntity
  8
0
  6
SLD-Solid
 62
     7
370
    25
100
AcDbSpline
210
0.0
220
0.0
230
1.0
 70
    12
 71
     3
 72
    11
 73
     7
 74
     0
 42
0.00000001
 43
0.00000001
 40
0.0
 40
0.0
 40
0.0
 40
0.0
 40
0.2499999999997721
 40
0.4999999999998336
 40
0.7499999999999248
 40
0.9999999999999999
 40
0.9999999999999999
 40
0.9999999999999999
 40
0.9999999999999999
 10
20.06380817870781
 20
35.40465619379223
 30
0.0
 41
1.0
 10
20.06995381606233
 20
35.40602645769562
 30
0.0
 41
1.0
 10
20.08224509077136
 20
35.40876698550241
 30
0.0
 41
1.0
 10
20.09774764832122
 20
35.41409505615
 30
0.0
 41
1.0
 10
20.10859323641668
 20
35.42007242937564
 30
0.0
 41
1.0
 10
20.11000319794413
 20
35.42433009504875
 30
0.0
 41
1.0
 10
20.11070817870785
 20
35.42645892788531
 30
0.0
 41
1.0
  0
LINE
  5
1AE
330
1F
100
AcDbEntity
  8
0
  6
SLD-Solid
 62
     7
370
    25
100
AcDbLine
 10
20.11070817870806
 20
11.61384301567168
 30
0.0
 11
20.11070817870785
 21
35.42645892788531
 31
0.0
  0
LINE
  5
1AF
330
1F
100
AcDbEntity
  8
0
  6
SLD-Solid
 62
     7
370
    25
100
AcDbLine
 10
2.473722392270191
 20
34.96738359893892
 30
0.0
 11
2.030722392270189
 21
35.40605659401574
 31
0.0
  0
LINE
  5
1B0
330
1F
100
AcDbEntity
  8
0
  6
SLD-Solid
 62
     7
370
    25
100
AcDbLine
 10
2.473722392270191
 20
34.96738359893892
 30
0.0
 11
19.61939396514544
 21
34.96738359893901
 31
0.0
  0
LINE
  5
1B1
330
1F
100
AcDbEntity
  8
0
  6
SLD-Solid
 62
     7
370
    25
100
AcDbLine
 10
2.029308178707773
 20
35.40465619379207
 30
0.0
 11
2.472308178707815
 21
34.96598319871525
 31
0.0
  0
LINE
  5
1B2
330
1F
100
AcDbEntity
  8
0
  6
SLD-Solid
 62
     7
370
    25
100
AcDbLine
 10
2.472308178707882
 20
12.0612405869495
 30
0.0
 11
2.472308178707815
 21
34.96598319871525
 31
0.0
  0
LINE
  5
1B3
330
1F
100
AcDbEntity
  8
0
  6
SLD-Solid
 62
     7
370
    25
100
AcDbLine
 10
2.472308178707882
 20
12.0612405869495
 30
0.0
 11
2.029308178707898
 21
11.62256759187262
 31
0.0
  0
LINE
  5
1B4
330
1F
100
AcDbEntity
  8
0
  6
SLD-Solid
 62
     7
370
    25
100
AcDbLine
 10
2.472308178707815
 20
34.96598319871525
 30
0.0
 11
2.472308178707815
 21
34.96847892394197
 31
0.0
  0
LINE
  5
1B5
330
1F
100
AcDbEntity
  8
0
  6
SLD-Solid
 62
     7
370
    25
100
AcDbLine
 10
19.62080817870782
 20
34.96598319871534
 30
0.0
 11
20.06380817870781
 21
35.40465619379223
 31
0.0
  0
LINE
  5
1B6
330
1F
100
AcDbEntity
  8
0
  6
SLD-Solid
 62
     7
370
    25
100
AcDbLine
 10
20.06380817870802
 20
11.62256759187265
 30
0.0
 11
19.62080817870804
 21
12.06124058694948
 31
0.0
  0
LINE
  5
1B7
330
1F
100
AcDbEntity
  8
0
  6
SLD-Solid
 62
     7
370
    25
100
AcDbLine
 10
19.62080817870782
 20
34.96598319871534
 30
0.0
 11
19.62080817870804
 21
12.06124058694948
 31
0.0
  0
SPLINE
  5
1B8
330
1F
100
AcDbEntity
  8
0
  6
SLD-Solid
 62
     7
370
    25
100
AcDbSpline
210
0.0
220
0.0
230
1.0
 70
    12
 71
     3
 72
    10
 73
     6
 74
     0
 42
0.00000001
 43
0.00000001
 40
0.0
 40
0.0
 40
0.0
 40
0.0
 40
0.4633466170680062
 40
0.9266932341357504
 40
1.0
 40
1.0
 40
1.0
 40
1.0
 10
20.09280817870807
 20
11.61384301567168
 30
0.0
 41
1.0
 10
20.09232748357373
 20
11.61459475991516
 30
0.0
 41
1.0
 10
20.09136609330505
 20
11.61609824840214
 30
0.0
 41
1.0
 10
20.08702482616587
 20
11.61777832411275
 30
0.0
 41
1.0
 10
20.08333043140608
 20
11.6189242745949
 30
0.0
 41
1.0
 10
20.0828257776756
 20
11.6190808112466
 30
0.0
 41
1.0
  0
LINE
  5
1B9
330
1F
100
AcDbEntity
  8
0
  6
SLD-Solid
 62
     7
370
    25
100
AcDbLine
 10
1.982408178707772
 20
35.48250817599367
 30
0.0
 11
1.982408178707816
 21
35.42645892788518
 31
0.0
  0
ARC
  5
1BA
330
1F
100
AcDbEntity
  8
0
  6
SLD-Solid
 62
     7
370
    25
100
AcDbCircle
 10
2.015148287941985
 20
35.48234670808935
 30
0.0
 40
0.0327405073960728
100
AcDbArc
 50
89.72019057710651
 51
179.7174305567207
  0
LINE
  5
1BB
330
1F
100
AcDbEntity
  8
0
  6
SLD-Solid
 62
     7
370
    25
100
AcDbLine
 10
20.07780817870781
 20
35.51508682506384
 30
0.0
 11
2.015308178707814
 21
35.51508682506371
 31
0.0
  0
ARC
  5
1BC
330
1F
100
AcDbEntity
  8
0
  6
SLD-Solid
 62
     7
370
    25
100
AcDbCircle
 10
20.07796806947354
 20
35.48234670808941
 30
0.0
 40
0.0327405073961349
100
AcDbArc
 50
0.2825694433782412
 51
90.27980942271809
  0
LINE
  5
1BD
330
1F
100
AcDbEntity
  8
0
  6
SLD-Solid
 62
     7
370
    25
100
AcDbLine
 10
20.11070817870781
 20
35.48250817599379
 30
0.0
 11
20.11070817870785
 21
35.42645892788531
 31
0.0
  0
LINE
  5
1BE
330
1F
100
AcDbEntity
  8
0
  6
SLD-Solid
 62
     7
370
    25
100
AcDbLine
 10
20.07246763608665
 20
35.51513986207269
 30
0.0
 11
20.07780817870781
 21
35.51508682506384
 31
0.0
  0
LINE
  5
1BF
330
1F
100
AcDbEntity
  8
0
  6
SLD-Solid
 62
     7
370
    25
100
AcDbLine
 10
2.015308178707814
 20
35.51508682506371
 30
0.0
 11
2.020627315371141
 21
35.51458274300477
 31
0.0
  0
LINE
  5
1C0
330
1F
100
AcDbEntity
  8
0
  6
SLD-Solid
 62
     7
370
    25
100
AcDbLine
 10
19.60439396514553
 20
12.05984018672591
 30
0.0
 11
20.04739396514565
 21
11.62116719164899
 31
0.0
  0
LINE
  5
1C1
330
1F
100
AcDbEntity
  8
0
  6
SLD-Solid
 62
     7
370
    25
100
AcDbLine
 10
2.030722392270272
 20
11.62116719164889
 30
0.0
 11
2.473722392270239
 21
12.05984018672582
 31
0.0
  0
LINE
  5
1C2
330
1F
100
AcDbEntity
  8
0
  6
SLD-Solid
 62
     7
370
    25
100
AcDbLine
 10
19.60439396514553
 20
12.05984018672591
 30
0.0
 11
2.473722392270239
 21
12.05984018672582
 31
0.0
  0
LINE
  5
1C3
330
1F
100
AcDbEntity
  8
0
  6
SLD-Solid
 62
     7
370
    25
100
AcDbLine
 10
2.030722392270272
 20
11.62116719164889
 30
0.0
 11
2.030722392270272
 21
11.62366291687561
 31
0.0
  0
LINE
  5
1C4
330
1F
100
AcDbEntity
  8
0
  6
SLD-Solid
 62
     7
370
    25
100
AcDbLine
 10
2.473722392270239
 20
12.06233591195254
 30
0.0
 11
2.030722392270272
 21
11.62366291687561
 31
0.0
  0
LINE
  5
1C5
330
1F
100
AcDbEntity
  8
0
  6
SLD-Solid
 62
     7
370
    25
100
AcDbLine
 10
2.473722392270239
 20
12.05984018672582
 30
0.0
 11
2.473722392270239
 21
12.06233591195254
 31
0.0
  0
LINE
  5
1C6
330
1F
100
AcDbEntity
  8
0
  6
SLD-Solid
 62
     7
370
    25
100
AcDbLine
 10
19.60439396514553
 20
12.06233591195263
 30
0.0
 11
2.473722392270239
 21
12.06233591195254
 31
0.0
  0
LINE
  5
1C7
330
1F
100
AcDbEntity
  8
0
  6
SLD-Solid
 62
     7
370
    25
100
AcDbLine
 10
19.60439396514553
 20
12.06233591195263
 30
0.0
 11
19.60439396514553
 21
12.05984018672591
 31
0.0
  0
LINE
  5
1C8
330
1F
100
AcDbEntity
  8
0
  6
SLD-Solid
 62
     7
370
    25
100
AcDbLine
 10
20.04739396514565
 20
11.62366291687577
 30
0.0
 11
19.60439396514553
 21
12.06233591195263
 31
0.0
  0
LINE
  5
1C9
330
1F
100
AcDbEntity
  8
0
  6
SLD-Solid
 62
     7
370
    25
100
AcDbLine
 10
20.04739396514565
 20
11.62116719164899
 30
0.0
 11
20.04739396514565
 21
11.62366291687577
 31
0.0
  0
LINE
  5
1CA
330
1F
100
AcDbEntity
  8
0
  6
SLD-Solid
 62
     7
370
    25
100
AcDbLine
 10
20.11070817870806
 20
11.61384301567168
 30
0.0
 11
20.09280817870807
 21
11.61384301567168
 31
0.0
  0
SPLINE
  5
1CB
330
1F
100
AcDbEntity
  8
0
  6
SLD-Solid
 62
     7
370
    25
100
AcDbSpline
210
0.0
220
0.0
230
1.0
 70
    12
 71
     3
 72
    11
 73
     7
 74
     0
 42
0.00000001
 43
0.00000001
 40
0.0
 40
0.0
 40
0.0
 40
0.0
 40
0.2743751182864
 40
0.5487502365722721
 40
0.8231253548581596
 40
0.9999999999999999
 40
0.9999999999999999
 40
0.9999999999999999
 40
0.9999999999999999
 10
20.04739396514565
 20
11.62116719164899
 30
0.0
 41
1.0
 10
20.04867848294251
 20
11.61517198936213
 30
0.0
 41
1.0
 10
20.05124751853621
 20
11.60318158478841
 30
0.0
 41
1.0
 10
20.05510107192677
 20
11.58946088221449
 30
0.0
 41
1.0
 10
20.05849816594982
 20
11.5815025747301
 30
0.0
 41
1.0
 10
20.06061074217601
 20
11.58159510273185
 30
0.0
 41
1.0
 10
20.06143880060534
 20
11.58163137057906
 30
0.0
 41
1.0
  0
LINE
  5
1CC
330
1F
100
AcDbEntity
  8
0
  6
SLD-Solid
 62
     7
370
    25
100
AcDbLine
 10
20.0628081787079
 20
11.58126436660157
 30
0.0
 11
20.0628081787079
 21
11.59898952825366
 31
0.0
  0
SPLINE
  5
1CD
330
1F
100
AcDbEntity
  8
0
  6
SLD-Solid
 62
     7
370
    25
100
AcDbSpline
210
0.0
220
0.0
230
1.0
 70
    12
 71
     3
 72
    11
 73
     7
 74
     0
 42
0.00000001
 43
0.00000001
 40
0.0
 40
0.0
 40
0.0
 40
0.0
 40
0.2743751182869744
 40
0.5487502365725925
 40
0.8231253548582813
 40
1.0
 40
1.0
 40
1.0
 40
1.0
 10
20.04739396514565
 20
11.62366291687577
 30
0.0
 41
1.0
 10
20.0486784829425
 20
11.6199558621568
 30
0.0
 41
1.0
 10
20.0512475185362
 20
11.61254175271888
 30
0.0
 41
1.0
 10
20.05510107192677
 20
11.60405773620196
 30
0.0
 41
1.0
 10
20.05849816594982
 20
11.59913682112632
 30
0.0
 41
1.0
 10
20.06061074217601
 20
11.59919403460288
 30
0.0
 41
1.0
 10
20.06143880060534
 20
11.59921646035062
 30
0.0
 41
1.0
  0
ARC
  5
1CE
330
1F
100
AcDbEntity
  8
0
  6
SLD-Solid
 62
     7
370
    25
100
AcDbCircle
 10
2.015148287942243
 20
11.61400448357594
 30
0.0
 40
0.0327405073961629
100
AcDbArc
 50
180.2825694433819
 51
270.2798094225912
  0
LINE
  5
1CF
330
1F
100
AcDbEntity
  8
0
  6
SLD-Solid
 62
     7
370
    25
100
AcDbLine
 10
20.0628081787079
 20
11.62355782436731
 30
0.0
 11
20.0628081787079
 21
11.59898952825366
 31
0.0
  0
LINE
  5
1D0
330
1F
100
AcDbEntity
  8
0
  6
SLD-Solid
 62
     7
370
    25
100
AcDbLine
 10
20.04655817870799
 20
11.63331768369745
 30
0.0
 11
20.04655817870799
 21
11.63964910240333
 31
0.0
  0
LINE
  5
1D1
330
1F
100
AcDbEntity
  8
0
  6
SLD-Solid
 62
     7
370
    25
100
AcDbLine
 10
20.04655817870798
 20
35.39007040848843
 30
0.0
 11
20.04655817870798
 21
35.39037548370909
 31
0.0
  0
LINE
  5
1D2
330
1F
100
AcDbEntity
  8
0
  6
SLD-Solid
 62
     7
370
    25
100
AcDbLine
 10
20.03764396514564
 20
11.63331768369745
 30
0.0
 11
20.04655817870799
 21
11.63331768369745
 31
0.0
  0
LINE
  5
1D3
330
1F
100
AcDbEntity
  8
0
  6
SLD-Solid
 62
     7
370
    25
100
AcDbLine
 10
2.046558178707987
 20
35.3903754837086
 30
0.0
 11
2.046558178707985
 21
35.39007040848794
 31
0.0
  0
LINE
  5
1D4
330
1F
100
AcDbEntity
  8
0
  6
SLD-Solid
 62
     7
370
    25
100
AcDbLine
 10
2.046558178707991
 20
11.63964910240336
 30
0.0
 11
2.046558178707991
 21
11.63934402718269
 31
0.0
  0
LINE
  5
1D5
330
1F
100
AcDbEntity
  8
0
  6
SLD-Solid
 62
     8
370
    25
100
AcDbLine
 10
20.0628081787079
 20
11.59898952825366
 30
0.0
 11
20.06016109673171
 21
11.5989895282536
 31
0.0
  0
LINE
  5
1D6
330
1F
100
AcDbEntity
  8
0
  6
SLD-Solid
 62
     8
370
    25
100
AcDbLine
 10
2.017955260684104
 20
11.5989895282536
 30
0.0
 11
2.0153081787079
 21
11.59898952825351
 31
0.0
  0
LINE
  5
1D7
330
1F
100
AcDbEntity
  8
DIMS
100
AcDbLine
 10
1.793753254573304
 20
3.580806270594974
 30
0.0
 11
20.98977970730852
 21
3.580806270594974
 31
0.0
  0
LINE
  5
1D8
330
1F
100
AcDbEntity
  8
DIMS
100
AcDbLine
 10
3.166555410491925
 20
3.580806270594974
 30
0.0
 11
3.166555410491925
 21
3.957746535190767
 31
0.0
  0
LINE
  5
1D9
330
1F
100
AcDbEntity
  8
DIMS
100
AcDbLine
 10
3.166555410491925
 20
3.957746535190767
 30
0.0
 11
2.852001867044649
 21
4.344409698790057
 31
0.0
  0
LINE
  5
1DA
330
1F
100
AcDbEntity
  8
DIMS
100
AcDbLine
 10
2.852001867044649
 20
4.344409698790057
 30
0.0
 11
3.4811089539392
 21
4.856193292418205
 31
0.0
  0
LINE
  5
1DB
330
1F
100
AcDbEntity
  8
DIMS
100
AcDbLine
 10
3.4811089539392
 20
4.856193292418205
 30
0.0
 11
3.166555410491925
 21
5.2428564560175
 31
0.0
  0
LINE
  5
1DC
330
1F
100
AcDbEntity
  8
DIMS
100
AcDbLine
 10
3.166555410491925
 20
5.2428564560175
 30
0.0
 11
3.166555410491925
 21
5.624943410444403
 31
0.0
  0
DIMENSION
  5
1DD
330
1F
100
AcDbEntity
  8
DIMS
100
AcDbDimension
  2
_D
 10
3.168438088211592
 20
3.580806270594979
 30
0.0
 11
3.168438088211588
 21
4.455879716265406
 31
0.0
 70
    32
  1
48"\P\P^M\P 
 71
     2
 42
-1.0
  3
SLDDIMSTYLE0
100
AcDbAlignedDimension
 13
2.01668083800551
 23
11.58080627059498
 33
0.0
 14
1.793753254573304
 24
3.580806270594974
 34
0.0
 50
90.0000000000002
100
AcDbRotatedDimension
  0
DIMENSION
  5
1ED
330
1F
100
AcDbEntity
  8
DIMS
100
AcDbDimension
  2
_D_1
 10
20.11070817870793
 20
36.86366364228582
 30
0.0
 11
11.04655817870791
 21
36.86366364228581
 31
0.0
 70
    32
  1
<>
 71
     2
 42
-1.0
  3
SLDDIMSTYLE1
100
AcDbAlignedDimension
 13
1.982408178707895
 23
35.42645892788524
 33
0.0
 14
20.11070817870794
 24
35.42645892788531
 34
0.0
 50
0.0000000000000898
100
AcDbRotatedDimension
  0
LINE
  5
1FD
330
1F
100
AcDbEntity
  8
0
  6
SLD-Solid
 62
     7
370
    25
100
AcDbLine
 10
26.66051692020196
 20
15.2071169478471
 30
0.0
 11
26.68743585617212
 21
15.20711694784712
 31
0.0
  0
LINE
  5
1FE
330
1F
100
AcDbEntity
  8
0
  6
SLD-Solid
 62
     7
370
    25
100
AcDbLine
 10
26.66051692020196
 20
15.2071169478471
 30
0.0
 11
26.66051692020196
 21
15.1571169478471
 31
0.0
  0
LINE
  5
1FF
330
1F
100
AcDbEntity
  8
0
  6
SLD-Solid
 62
     7
370
    25
100
AcDbLine
 10
26.66051692020196
 20
15.1571169478471
 30
0.0
 11
26.74045055648215
 21
15.15701107814618
 31
0.0
  0
LINE
  5
200
330
1F
100
AcDbEntity
  8
0
  6
SLD-Solid
 62
     7
370
    25
100
AcDbLine
 10
26.7362053299277
 20
11.9517843479518
 30
0.0
 11
26.74045055648215
 21
15.15701107814618
 31
0.0
  0
LINE
  5
201
330
1F
100
AcDbEntity
  8
0
  6
SLD-Solid
 62
     7
370
    25
100
AcDbLine
 10
26.74243585617211
 20
15.20711694784715
 30
0.0
 11
26.7424358561721
 21
35.90077396994693
 31
0.0
  0
LINE
  5
202
330
1F
100
AcDbEntity
  8
0
  6
SLD-Solid
 62
     7
370
    25
100
AcDbLine
 10
26.74243585617211
 20
15.20711694784715
 30
0.0
 11
26.68743585617212
 21
15.20711694784712
 31
0.0
  0
LINE
  5
203
330
1F
100
AcDbEntity
  8
0
  6
SLD-Solid
 62
     7
370
    25
100
AcDbLine
 10
26.7362053299277
 20
11.9517843479518
 30
0.0
 11
26.74166479230518
 21
11.76628497639647
 31
0.0
  0
LINE
  5
204
330
1F
100
AcDbEntity
  8
0
  6
SLD-Solid
 62
     7
370
    25
100
AcDbLine
 10
26.70958295478754
 20
11.6975493741296
 30
0.0
 11
26.70543319137859
 21
11.69696508218192
 31
0.0
  0
LINE
  5
205
330
1F
100
AcDbEntity
  8
0
  6
SLD-Solid
 62
     7
370
    25
100
AcDbLine
 10
26.70543319137858
 20
11.69696508218192
 30
0.0
 11
26.69996411494552
 21
11.73580760491869
 31
0.0
  0
LINE
  5
206
330
1F
100
AcDbEntity
  8
0
  6
SLD-Solid
 62
     7
370
    25
100
AcDbLine
 10
23.43367365689724
 20
35.50298592661692
 30
0.0
 11
26.66339758445218
 21
35.95773514919423
 31
0.0
  0
SPLINE
  5
207
330
1F
100
AcDbEntity
  8
0
  6
SLD-Solid
 62
     7
370
    25
100
AcDbSpline
210
0.0
220
0.0
230
1.0
 70
    12
 71
     3
 72
     9
 73
     5
 74
     0
 42
0.00000001
 43
0.00000001
 40
0.0
 40
0.0
 40
0.0
 40
0.0
 40
0.4991127769162466
 40
1.0
 40
1.0
 40
1.0
 40
1.0
 10
26.74166479230518
 20
11.76628497639647
 30
0.0
 41
1.0
 10
26.74140203624381
 20
11.75447585971029
 30
0.0
 41
1.0
 10
26.74087558997051
 20
11.73081564255629
 30
0.0
 41
1.0
 10
26.73609085631628
 20
11.71091316898285
 30
0.0
 41
1.0
 10
26.73369424436301
 20
11.70094427426216
 30
0.0
 41
1.0
  0
LINE
  5
208
330
1F
100
AcDbEntity
  8
0
  6
SLD-Solid
 62
     7
370
    25
100
AcDbLine
 10
26.70958295478754
 20
11.6975493741296
 30
0.0
 11
26.73369424436301
 21
11.70094427426216
 31
0.0
  0
ARC
  5
209
330
1F
100
AcDbEntity
  8
0
  6
SLD-Solid
 62
     7
370
    25
100
AcDbCircle
 10
26.68809450746322
 20
35.90566999546909
 30
0.0
 40
0.0550000000000003
100
AcDbArc
 50
29.71348804163866
 51
98.01463215226725
  0
LINE
  5
20A
330
1F
100
AcDbEntity
  8
0
  6
SLD-Solid
 62
     7
370
    25
100
AcDbLine
 10
26.73740779095644
 20
35.93002569441445
 30
0.0
 11
26.73586282443764
 21
35.93293146816283
 31
0.0
  0
LINE
  5
20B
330
1F
100
AcDbEntity
  8
0
  6
SLD-Solid
 62
     7
370
    25
100
AcDbLine
 10
26.68042607799564
 20
35.96013278266825
 30
0.0
 11
26.66339758445218
 21
35.95773514919423
 31
0.0
  0
LINE
  5
20C
330
1F
100
AcDbEntity
  8
0
  6
SLD-Solid
 62
     7
370
    25
100
AcDbLine
 10
26.74306149135021
 20
35.9037645605144
 30
0.0
 11
26.73740779095644
 21
35.93002569441445
 31
0.0
  0
ARC
  5
20D
330
1F
100
AcDbEntity
  8
0
  6
SLD-Solid
 62
     7
370
    25
100
AcDbCircle
 10
23.42963099033676
 20
35.435765699896
 30
0.0
 40
0.0660000000000018
100
AcDbArc
 50
98.01463215226542
 51
160.9340329084808
  0
LINE
  5
20E
330
1F
100
AcDbEntity
  8
0
  6
SLD-Solid
 62
     7
370
    25
100
AcDbLine
 10
23.36725154518241
 20
35.45732503249782
 30
0.0
 11
23.36427564569777
 21
35.4265635845349
 31
0.0
  0
LINE
  5
20F
330
1F
100
AcDbEntity
  8
0
  6
SLD-Solid
 62
     7
370
    25
100
AcDbLine
 10
23.43367365689724
 20
35.50298592661692
 30
0.0
 11
23.42042887497567
 21
35.50112104453499
 31
0.0
  0
LINE
  5
210
330
1F
100
AcDbEntity
  8
0
  6
SLD-Solid
 62
     7
370
    25
100
AcDbLine
 10
26.74306149135022
 20
35.9037645605144
 30
0.0
 11
26.74243585617214
 21
35.88571656644991
 31
0.0
  0
LINE
  5
211
330
1F
100
AcDbEntity
  8
0
  6
SLD-Solid
 62
     7
370
    25
100
AcDbLine
 10
22.86666973691148
 20
35.40465619379223
 30
0.0
 11
26.21521795514089
 21
11.62256759187265
 31
0.0
  0
LINE
  5
212
330
1F
100
AcDbEntity
  8
0
  6
SLD-Solid
 62
     7
370
    25
100
AcDbLine
 10
26.69996411494553
 20
11.73580760491864
 30
0.0
 11
23.36383811868293
 21
35.42967099274719
 31
0.0
  0
LINE
  5
213
330
1F
100
AcDbEntity
  8
0
  6
SLD-Solid
 62
     7
370
    25
100
AcDbLine
 10
22.9063753838325
 20
35.45903757695535
 30
0.0
 11
23.30444884663362
 21
35.51508682506384
 31
0.0
  0
SPLINE
  5
214
330
1F
100
AcDbEntity
  8
0
  6
SLD-Solid
 62
     7
370
    25
100
AcDbSpline
210
0.0
220
0.0
230
1.0
 70
    12
 71
     3
 72
    11
 73
     7
 74
     0
 42
0.00000001
 43
0.00000001
 40
0.0
 40
0.0
 40
0.0
 40
0.0
 40
0.2770548345810943
 40
0.5544254065342057
 40
0.8317983235799902
 40
1.0
 40
1.0
 40
1.0
 40
1.0
 10
23.35742982957307
 20
35.47518400001637
 30
0.0
 41
1.0
 10
23.35561891498418
 20
35.48180845966959
 30
0.0
 41
1.0
 10
23.351995022051
 20
35.49506492834613
 30
0.0
 41
1.0
 10
23.3365934648246
 20
35.50957633123828
 30
0.0
 41
1.0
 10
23.31950964197241
 20
35.51601237699786
 30
0.0
 41
1.0
 10
23.30857616655212
 20
35.5153404669763
 30
0.0
 41
1.0
 10
23.30444884663362
 20
35.51508682506384
 30
0.0
 41
1.0
  0
SPLINE
  5
215
330
1F
100
AcDbEntity
  8
0
  6
SLD-Solid
 62
     7
370
    25
100
AcDbSpline
210
0.0
220
0.0
230
1.0
 70
    12
 71
     3
 72
    11
 73
     7
 74
     0
 42
0.00000001
 43
0.00000001
 40
0.0
 40
0.0
 40
0.0
 40
0.0
 40
0.2500000000001557
 40
0.5000000000002416
 40
0.7500000000002869
 40
0.9999999999999999
 40
0.9999999999999999
 40
0.9999999999999999
 40
0.9999999999999999
 10
22.9063753838325
 20
35.45903757695535
 30
0.0
 41
1.0
 10
22.9003880666656
 20
35.45748262052078
 30
0.0
 41
1.0
 10
22.88841343233181
 20
35.45437270765164
 30
0.0
 41
1.0
 10
22.87457445295843
 20
35.44147159445838
 30
0.0
 41
1.0
 10
22.86599625864292
 20
35.4246083013634
 30
0.0
 41
1.0
 10
22.86631379207099
 20
35.41224049646506
 30
0.0
 41
1.0
 10
22.86647255878503
 20
35.40605659401589
 30
0.0
 41
1.0
  0
SPLINE
  5
216
330
1F
100
AcDbEntity
  8
0
  6
SLD-Solid
 62
     7
370
    25
100
AcDbSpline
210
0.0
220
0.0
230
1.0
 70
    12
 71
     3
 72
    12
 73
     8
 74
     0
 42
0.00000001
 43
0.00000001
 40
0.0
 40
0.0
 40
0.0
 40
0.0
 40
0.2122079440003096
 40
0.4639213760440299
 40
0.7157255558820376
 40
0.967530051843776
 40
1.0
 40
1.0
 40
1.0
 40
1.0
 10
26.66646957900792
 20
11.63731361471
 30
0.0
 41
1.0
 10
26.67155194957682
 20
11.63854392767471
 30
0.0
 41
1.0
 10
26.68266284534936
 20
11.64123359363534
 30
0.0
 41
1.0
 10
26.69667474239052
 20
11.65274388336445
 30
0.0
 41
1.0
 10
26.70580898604006
 20
11.66918834071119
 30
0.0
 41
1.0
 10
26.70732765383577
 20
11.68261013741603
 30
0.0
 41
1.0
 10
26.70647032815949
 20
11.68950685197358
 30
0.0
 41
1.0
 10
26.70637240405538
 20
11.69029459764952
 30
0.0
 41
1.0
  0
LINE
  5
217
330
1F
100
AcDbEntity
  8
0
  6
SLD-Solid
 62
     7
370
    25
100
AcDbLine
 10
26.66646957900792
 20
11.63731361471
 30
0.0
 11
26.26839611620679
 21
11.58126436660157
 31
0.0
  0
SPLINE
  5
218
330
1F
100
AcDbEntity
  8
0
  6
SLD-Solid
 62
     7
370
    25
100
AcDbSpline
210
0.0
220
0.0
230
1.0
 70
    12
 71
     3
 72
    11
 73
     7
 74
     0
 42
0.00000001
 43
0.00000001
 40
0.0
 40
0.0
 40
0.0
 40
0.0
 40
0.250000000000357
 40
0.5000000000002331
 40
0.7500000000001233
 40
1.0
 40
1.0
 40
1.0
 40
1.0
 10
26.21541513326735
 20
11.62116719164899
 30
0.0
 41
1.0
 10
26.21697008970191
 20
11.61517987448209
 30
0.0
 41
1.0
 10
26.22008000257105
 20
11.6032052401483
 30
0.0
 41
1.0
 10
26.23298111576432
 20
11.58936626077495
 30
0.0
 41
1.0
 10
26.24984440885929
 20
11.58078806645946
 30
0.0
 41
1.0
 10
26.26221221375763
 20
11.58110559988753
 30
0.0
 41
1.0
 10
26.26839611620679
 20
11.58126436660157
 30
0.0
 41
1.0
  0
LINE
  5
219
330
1F
100
AcDbEntity
  8
0
  6
SLD-Solid
 62
     7
370
    25
100
AcDbLine
 10
22.86647255878503
 20
35.40605659401589
 30
0.0
 11
22.8666697369115
 21
35.40465619379213
 31
0.0
  0
LINE
  5
21A
330
1F
100
AcDbEntity
  8
0
  6
SLD-Solid
 62
     7
370
    25
100
AcDbLine
 10
26.21521795514089
 20
11.62256759187267
 30
0.0
 11
26.21541513326735
 21
11.62116719164899
 31
0.0
  0
LINE
  5
21B
330
1F
100
AcDbEntity
  8
0
  6
SLD-Solid
 62
     7
370
    25
100
AcDbLine
 10
26.70637240405538
 20
11.69029459764952
 30
0.0
 11
26.70543319137859
 21
11.69696508218187
 31
0.0
  0
LINE
  5
21C
330
1F
100
AcDbEntity
  8
0
  6
SLD-Solid
 62
     7
370
    25
100
AcDbLine
 10
23.36383811868293
 20
35.42967099274719
 30
0.0
 11
23.35742982957307
 21
35.47518400001637
 31
0.0
  0
DIMENSION
  5
21D
330
1F
100
AcDbEntity
  8
DIMS
100
AcDbDimension
  2
_D_2
 10
28.36671569021683
 20
11.58080627059504
 30
0.0
 11
28.36671569021683
 21
25.48314379333132
 31
0.0
 70
    32
  1
<>
 71
     2
 42
-1.0
  3
SLDDIMSTYLE1
100
AcDbAlignedDimension
 13
26.68809450746322
 23
35.96066999546908
 33
0.0
 14
26.2618570372608
 24
11.58080627059504
 34
0.0
 50
90.0000000000002
100
AcDbRotatedDimension
  0
DIMENSION
  5
22C
330
1F
100
AcDbEntity
  8
DIMS
100
AcDbDimension
  2
_D_3
 10
26.7424358561721
 20
36.86366364228584
 30
0.0
 11
24.8517554732678
 21
36.86366364228584
 31
0.0
 70
    32
  1
<>
 71
     2
 42
-1.0
  3
SLDDIMSTYLE1
100
AcDbAlignedDimension
 13
22.86601446277851
 23
35.41259567296179
 33
0.0
 14
26.7424358561721
 24
35.90077396994693
 34
0.0
100
AcDbRotatedDimension
  0
DIMENSION
  5
23B
330
1F
100
AcDbEntity
  8
DIMS
100
AcDbDimension
  2
_D_4
 10
24.95274011518948
 20
11.3960183341041
 30
0.0
 11
23.19115888766784
 21
23.90713601917462
 31
0.0
 70
    32
  1
<>
 71
     2
 42
-1.0
  3
SLDDIMSTYLE1
100
AcDbAlignedDimension
 13
22.9063753838325
 23
35.45903757695535
 33
0.0
 14
26.26839611620679
 24
11.58126436660157
 34
0.0
 50
278.014632152271
100
AcDbRotatedDimension
  0
MTEXT
  5
24A
330
1F
100
AcDbEntity
  8
NOTES
100
AcDbMText
 10
24.6596374409035
 20
10.96089653496945
 30
0.0
 40
0.5
 41
0.0
 71
     1
 72
     1
  1
Side view
  7
SLDTEXTSTYLE0
 73
     1
 44
1.0
  0
LINE
  5
24B
330
1F
100
AcDbEntity
  8
0
  6
SLD-Solid
 62
     7
370
    25
100
AcDbLine
 10
33.14677295017897
 20
22.5335783982646
 30
0.0
 11
33.14677295017897
 21
22.53664577005163
 31
0.0
  0
LINE
  5
24C
330
1F
100
AcDbEntity
  8
0
  6
SLD-Solid
 62
     7
370
    25
100
AcDbLine
 10
32.89277295017897
 20
22.53664577005162
 30
0.0
 11
32.89277295017897
 21
22.53357839826459
 31
0.0
  0
LINE
  5
24D
330
1F
100
AcDbEntity
  8
0
  6
SLD-Solid
 62
     7
370
    25
100
AcDbLine
 10
48.14745773385137
 20
12.63121065628957
 30
0.0
 11
48.14745773385137
 21
12.63427802807661
 31
0.0
  0
LINE
  5
24E
330
1F
100
AcDbEntity
  8
0
  6
SLD-Solid
 62
     7
370
    25
100
AcDbLine
 10
47.89345773385137
 20
12.6342780280766
 30
0.0
 11
47.89345773385137
 21
12.63121065628957
 31
0.0
  0
LINE
  5
24F
330
1F
100
AcDbEntity
  8
0
  6
SLD-Solid
 62
     7
370
    25
100
AcDbLine
 10
48.14745773385148
 20
22.53357839826448
 30
0.0
 11
48.14745773385148
 21
22.53664577005152
 31
0.0
  0
LINE
  5
250
330
1F
100
AcDbEntity
  8
0
  6
SLD-Solid
 62
     7
370
    25
100
AcDbLine
 10
47.89345773385148
 20
22.53664577005151
 30
0.0
 11
47.89345773385148
 21
22.53357839826448
 31
0.0
  0
LINE
  5
251
330
1F
100
AcDbEntity
  8
0
  6
SLD-Solid
 62
     7
370
    25
100
AcDbLine
 10
48.16745773385158
 20
32.43590334356591
 30
0.0
 11
48.16745773385158
 21
32.43897071535294
 31
0.0
  0
LINE
  5
252
330
1F
100
AcDbEntity
  8
0
  6
SLD-Solid
 62
     7
370
    25
100
AcDbLine
 10
47.91345773385159
 20
32.43897071535294
 30
0.0
 11
47.91345773385159
 21
32.4359033435659
 31
0.0
  0
LINE
  5
253
330
1F
100
AcDbEntity
  8
0
  6
SLD-Solid
 62
     7
370
    25
100
AcDbLine
 10
33.12677295017903
 20
32.43590334356603
 30
0.0
 11
33.12677295017903
 21
32.43897071535307
 31
0.0
  0
LINE
  5
254
330
1F
100
AcDbEntity
  8
0
  6
SLD-Solid
 62
     7
370
    25
100
AcDbLine
 10
32.87277295017903
 20
32.43897071535305
 30
0.0
 11
32.87277295017903
 21
32.43590334356602
 31
0.0
  0
LINE
  5
255
330
1F
100
AcDbEntity
  8
0
  6
SLD-Solid
 62
     7
370
    25
100
AcDbLine
 10
33.14677295017893
 20
12.63121065628968
 30
0.0
 11
33.14677295017893
 21
12.63427802807671
 31
0.0
  0
LINE
  5
256
330
1F
100
AcDbEntity
  8
0
  6
SLD-Solid
 62
     7
370
    25
100
AcDbLine
 10
32.89277295017893
 20
12.63427802807669
 30
0.0
 11
32.89277295017893
 21
12.63121065628966
 31
0.0
  0
LINE
  5
257
330
1F
100
AcDbEntity
  8
0
  6
SLD-Solid
 62
     7
370
    25
100
AcDbLine
 10
49.52016534197696
 20
35.96066999546896
 30
0.0
 11
31.52006534205374
 21
35.96066999546908
 31
0.0
  0
LINE
  5
258
330
1F
100
AcDbEntity
  8
0
  6
SLD-Solid
 62
     7
370
    25
100
AcDbLine
 10
31.85296534201516
 20
12.39534013375505
 30
0.0
 11
31.85296534201516
 21
12.39868635752272
 31
0.0
  0
LINE
  5
259
330
1F
100
AcDbEntity
  8
0
  6
SLD-Solid
 62
     7
370
    25
100
AcDbLine
 10
31.59896534201517
 20
12.39868635752271
 30
0.0
 11
31.59896534201517
 21
12.39534013375504
 31
0.0
  0
LINE
  5
25A
330
1F
100
AcDbEntity
  8
0
  6
SLD-Solid
 62
     7
370
    25
100
AcDbLine
 10
32.35686534201525
 20
11.9112154671792
 30
0.0
 11
32.35686534201525
 21
11.91456169094687
 31
0.0
  0
LINE
  5
25B
330
1F
100
AcDbEntity
  8
0
  6
SLD-Solid
 62
     7
370
    25
100
AcDbLine
 10
32.10286534201525
 20
11.91456169094685
 30
0.0
 11
32.10286534201525
 21
11.91121546717918
 31
0.0
  0
LINE
  5
25C
330
1F
100
AcDbEntity
  8
0
  6
SLD-Solid
 62
     7
370
    25
100
AcDbLine
 10
49.4965731405754
 20
11.68388421746117
 30
0.0
 11
49.49657345165475
 21
11.68396455744809
 31
0.0
  0
LINE
  5
25D
330
1F
100
AcDbEntity
  8
0
  6
SLD-Solid
 62
     7
370
    25
100
AcDbLine
 10
31.54495054896308
 20
11.68396452567828
 30
0.0
 11
31.54495076890278
 21
11.68388418782864
 31
0.0
  0
LINE
  5
25E
330
1F
100
AcDbEntity
  8
0
  6
SLD-Solid
 62
     7
370
    25
100
AcDbLine
 10
31.50386534201525
 20
11.58080627059504
 30
0.0
 11
49.55136534201525
 21
11.58080627059491
 31
0.0
  0
CIRCLE
  5
25F
330
1F
100
AcDbEntity
  8
0
  6
SLD-Solid
 62
     7
370
    25
100
AcDbCircle
 10
33.01886691636293
 20
22.53732914595298
 30
0.0
 40
0.1262356053950299
  0
ARC
  5
260
330
1F
100
AcDbEntity
  8
0
  6
SLD-Solid
 62
     7
370
    25
100
AcDbCircle
 10
33.01977295017898
 20
22.53439920033689
 30
0.0
 40
0.1270026523976665
100
AcDbArc
 50
180.3702979509752
 51
359.6297020490296
  0
CIRCLE
  5
261
330
1F
100
AcDbEntity
  8
0
  6
SLD-Solid
 62
     7
370
    25
100
AcDbCircle
 10
48.01948828357785
 20
12.63400444317591
 30
0.0
 40
0.1260345584066933
  0
ARC
  5
262
330
1F
100
AcDbEntity
  8
0
  6
SLD-Solid
 62
     7
370
    25
100
AcDbCircle
 10
48.02045773385137
 20
12.63203105151145
 30
0.0
 40
0.1270026497688954
100
AcDbArc
 50
180.3701144089391
 51
359.6298855910657
  0
CIRCLE
  5
263
330
1F
100
AcDbEntity
  8
0
  6
SLD-Solid
 62
     7
370
    25
100
AcDbCircle
 10
48.01948828357796
 20
22.53637218515082
 30
0.0
 40
0.1260345584066939
  0
ARC
  5
264
330
1F
100
AcDbEntity
  8
0
  6
SLD-Solid
 62
     7
370
    25
100
AcDbCircle
 10
48.02045773385149
 20
22.53439879348636
 30
0.0
 40
0.1270026497688954
100
AcDbArc
 50
180.37011440894
 51
359.6298855910648
  0
CIRCLE
  5
265
330
1F
100
AcDbEntity
  8
0
  6
SLD-Solid
 62
     7
370
    25
100
AcDbCircle
 10
48.03951129302811
 20
32.43904924566064
 30
0.0
 40
0.1260326910617184
  0
ARC
  5
266
330
1F
100
AcDbEntity
  8
0
  6
SLD-Solid
 62
     7
370
    25
100
AcDbCircle
 10
48.04045773385159
 20
32.43673326188196
 30
0.0
 40
0.1270027116419644
100
AcDbArc
 50
180.3744105512313
 51
359.6255894487736
  0
CIRCLE
  5
267
330
1F
100
AcDbEntity
  8
0
  6
SLD-Solid
 62
     7
370
    25
100
AcDbCircle
 10
32.99884446938169
 20
32.43939177792974
 30
0.0
 40
0.1261101065567481
  0
ARC
  5
268
330
1F
100
AcDbEntity
  8
0
  6
SLD-Solid
 62
     7
370
    25
100
AcDbCircle
 10
32.99977295017903
 20
32.4367329092473
 30
0.0
 40
0.1270027093381159
100
AcDbArc
 50
180.3742514675926
 51
359.6257485324155
  0
CIRCLE
  5
269
330
1F
100
AcDbEntity
  8
0
  6
SLD-Solid
 62
     7
370
    25
100
AcDbCircle
 10
33.01891133278814
 20
12.63512527175419
 30
0.0
 40
0.1263686818002544
  0
ARC
  5
26A
330
1F
100
AcDbEntity
  8
0
  6
SLD-Solid
 62
     7
370
    25
100
AcDbCircle
 10
33.01963447185039
 20
12.63235578726407
 30
0.0
 40
0.1271436352974521
100
AcDbArc
 50
210.1115990998135
 51
359.4839532568812
  0
LWPOLYLINE
  5
26B
330
1F
100
AcDbEntity
  8
0
  6
SLD-Solid
 62
     7
370
    25
100
AcDbPolyline
 90
        3
 70
   128
 43
0.0
 10
32.89277295017894
 20
12.63121065628966
 10
32.89465435606353
 20
12.60964409713154
 10
32.90964888593217
 20
12.56856962193899
  0
LINE
  5
26C
330
1F
100
AcDbEntity
  8
0
  6
SLD-Solid
 62
     7
370
    25
100
AcDbLine
 10
49.57372906081932
 20
15.20711694784699
 30
0.0
 11
49.51872906081933
 21
15.20711694784701
 31
0.0
  0
LINE
  5
26D
330
1F
100
AcDbEntity
  8
0
  6
SLD-Solid
 62
     7
370
    25
100
AcDbLine
 10
49.51872906081953
 20
35.90077396994672
 30
0.0
 11
49.53543698664858
 21
35.91092167689281
 31
0.0
  0
LINE
  5
26E
330
1F
100
AcDbEntity
  8
0
  6
SLD-Solid
 62
     7
370
    25
100
AcDbLine
 10
49.53543698664858
 20
35.91092167689281
 30
0.0
 11
49.53904004634461
 21
35.91338150019139
 31
0.0
  0
SPLINE
  5
26F
330
1F
100
AcDbEntity
  8
0
  6
SLD-Solid
 62
     7
370
    25
100
AcDbSpline
210
0.0
220
0.0
230
1.0
 70
    12
 71
     3
 72
    11
 73
     7
 74
     0
 42
0.00000001
 43
0.00000001
 40
0.0
 40
0.0
 40
0.0
 40
0.0
 40
0.2500000000000295
 40
0.500000000000064
 40
0.7500000000000486
 40
0.9999999999999999
 40
0.9999999999999999
 40
0.9999999999999999
 40
0.9999999999999999
 10
49.53904006993618
 20
35.91338151741726
 30
0.0
 41
1.0
 10
49.54394920417325
 20
35.91285203305168
 30
0.0
 41
1.0
 10
49.55376747264739
 20
35.91179306432051
 30
0.0
 41
1.0
 10
49.56483678912436
 20
35.91020461122368
 30
0.0
 41
1.0
 10
49.57231265926065
 20
35.90861615812693
 30
0.0
 41
1.0
 10
49.57325692696657
 20
35.9075571893957
 30
0.0
 41
1.0
 10
49.57372906081954
 20
35.90702770503009
 30
0.0
 41
1.0
  0
LINE
  5
270
330
1F
100
AcDbEntity
  8
0
  6
SLD-Solid
 62
     7
370
    25
100
AcDbLine
 10
49.57372906081932
 20
15.20711694784699
 30
0.0
 11
49.57372906081954
 21
35.9070277050301
 31
0.0
  0
LINE
  5
271
330
1F
100
AcDbEntity
  8
0
  6
SLD-Solid
 62
     7
370
    25
100
AcDbLine
 10
31.52150162321103
 20
15.20711694784715
 30
0.0
 11
31.46650162321103
 21
15.20711694784712
 31
0.0
  0
SPLINE
  5
272
330
1F
100
AcDbEntity
  8
0
  6
SLD-Solid
 62
     7
370
    25
100
AcDbSpline
210
0.0
220
0.0
230
1.0
 70
    12
 71
     3
 72
    11
 73
     7
 74
     0
 42
0.00000001
 43
0.00000001
 40
0.0
 40
0.0
 40
0.0
 40
0.0
 40
0.2500000960488691
 40
0.5000001920977653
 40
0.7500002881467261
 40
1.0
 40
1.0
 40
1.0
 40
1.0
 10
31.4665016232111
 20
35.90702770503029
 30
0.0
 41
1.0
 10
31.4669737570642
 20
35.907557189396
 30
0.0
 41
1.0
 10
31.46791802477038
 20
35.90861615812742
 30
0.0
 41
1.0
 10
31.47539389490471
 20
35.91020461122258
 30
0.0
 41
1.0
 10
31.48646320571872
 20
35.91179306351181
 30
0.0
 41
1.0
 10
31.49628146475623
 20
35.91285203141402
 30
0.0
 41
1.0
 10
31.50119059050285
 20
35.91338151495827
 30
0.0
 41
1.0
  0
LINE
  5
273
330
1F
100
AcDbEntity
  8
0
  6
SLD-Solid
 62
     7
370
    25
100
AcDbLine
 10
31.50119061409445
 20
35.91338151741746
 30
0.0
 11
31.50479369738205
 21
35.91092167689299
 31
0.0
  0
LINE
  5
274
330
1F
100
AcDbEntity
  8
0
  6
SLD-Solid
 62
     7
370
    25
100
AcDbLine
 10
31.50479369738205
 20
35.91092167689299
 30
0.0
 11
31.52150162321109
 21
35.90077396994694
 31
0.0
  0
LINE
  5
275
330
1F
100
AcDbEntity
  8
0
  6
SLD-Solid
 62
     7
370
    25
100
AcDbLine
 10
31.46650162321103
 20
15.20711694784712
 30
0.0
 11
31.4665016232111
 21
35.90702770503029
 31
0.0
  0
ARC
  5
276
330
1F
100
AcDbEntity
  8
0
  6
SLD-Solid
 62
     7
370
    25
100
AcDbCircle
 10
49.23101727544004
 20
15.25711694784703
 30
0.0
 40
0.0499999999999989
100
AcDbArc
 50
197.3689013888562
 51
270.000000000009
  0
LINE
  5
277
330
1F
100
AcDbEntity
  8
0
  6
SLD-Solid
 62
     7
370
    25
100
AcDbLine
 10
48.69072840235918
 20
16.81697445879014
 30
0.0
 11
49.18329715047692
 21
15.24219080723721
 31
0.0
  0
ARC
  5
278
330
1F
100
AcDbEntity
  8
0
  6
SLD-Solid
 62
     7
370
    25
100
AcDbCircle
 10
48.7384485273223
 20
16.83190059939995
 30
0.0
 40
0.0500000000000043
100
AcDbArc
 50
180.0000000000091
 51
197.368901388846
  0
LINE
  5
279
330
1F
100
AcDbEntity
  8
0
  6
SLD-Solid
 62
     7
370
    25
100
AcDbLine
 10
48.68844852732247
 20
33.31275847128788
 30
0.0
 11
48.68844852732229
 21
16.83190059939995
 31
0.0
  0
LINE
  5
27A
330
1F
100
AcDbEntity
  8
0
  6
SLD-Solid
 62
     7
370
    25
100
AcDbLine
 10
48.98790704324684
 20
35.43957537645936
 30
0.0
 11
48.68844852732247
 21
33.31275847128788
 31
0.0
  0
LINE
  5
27B
330
1F
100
AcDbEntity
  8
0
  6
SLD-Solid
 62
     7
370
    25
100
AcDbLine
 10
49.51872906081953
 20
35.90077396994675
 30
0.0
 11
48.98790704324684
 21
35.43957537645936
 31
0.0
  0
LINE
  5
27C
330
1F
100
AcDbEntity
  8
0
  6
SLD-Solid
 62
     7
370
    25
100
AcDbLine
 10
49.23101727544005
 20
15.20711694784703
 30
0.0
 11
49.51872906081933
 21
15.20711694784701
 31
0.0
  0
LINE
  5
27D
330
1F
100
AcDbEntity
  8
0
  6
SLD-Solid
 62
     7
370
    25
100
AcDbLine
 10
49.07477530153106
 20
18.57408662247544
 30
0.0
 11
49.07477530153103
 21
18.21769524293629
 31
0.0
  0
ARC
  5
27E
330
1F
100
AcDbEntity
  8
0
  6
SLD-Solid
 62
     7
370
    25
100
AcDbCircle
 10
49.16847530153104
 20
18.05528662247545
 30
0.0
 40
0.1874999999999885
100
AcDbArc
 50
119.9823590430174
 51
60.01764095698712
  0
LINE
  5
27F
330
1F
100
AcDbEntity
  8
0
  6
SLD-Solid
 62
     7
370
    25
100
AcDbLine
 10
49.26217530153102
 20
18.21769524293628
 30
0.0
 11
49.26217530153106
 21
18.57408662247542
 31
0.0
  0
ARC
  5
280
330
1F
100
AcDbEntity
  8
0
  6
SLD-Solid
 62
     7
370
    25
100
AcDbCircle
 10
49.16847530153106
 20
18.57408662247541
 30
0.0
 40
0.0937000000000054
100
AcDbArc
 50
0.0000000000028424
 51
179.9999999999822
  0
LINE
  5
281
330
1F
100
AcDbEntity
  8
0
  6
SLD-Solid
 62
     7
370
    25
100
AcDbLine
 10
49.07659924188297
 20
30.57372328534763
 30
0.0
 11
49.07659925054435
 21
30.21640182052685
 31
0.0
  0
ARC
  5
282
330
1F
100
AcDbEntity
  8
0
  6
SLD-Solid
 62
     7
370
    25
100
AcDbCircle
 10
49.17189318226288
 20
30.05492328765755
 30
0.0
 40
0.187499999999993
100
AcDbArc
 50
120.5462889310109
 51
180.0000013888323
  0
LINE
  5
283
330
1F
100
AcDbEntity
  8
0
  6
SLD-Solid
 62
     7
370
    25
100
AcDbLine
 10
48.98439318226289
 20
30.05492328311261
 30
0.0
 11
48.98439318522679
 21
29.93264890462965
 31
0.0
  0
ARC
  5
284
330
1F
100
AcDbEntity
  8
0
  6
SLD-Solid
 62
     7
370
    25
100
AcDbCircle
 10
48.9343931852268
 20
29.93264890341764
 30
0.0
 40
0.0499999999999972
100
AcDbArc
 50
340.054313738716
 51
0.000001388863245
  0
LINE
  5
285
330
1F
100
AcDbEntity
  8
0
  6
SLD-Solid
 62
     7
370
    25
100
AcDbLine
 10
48.98139400611387
 20
29.91559244317702
 30
0.0
 11
48.91239236977557
 21
29.72545137611531
 31
0.0
  0
ARC
  5
286
330
1F
100
AcDbEntity
  8
0
  6
SLD-Solid
 62
     7
370
    25
100
AcDbCircle
 10
48.95939319066265
 20
29.70839491587468
 30
0.0
 40
0.0499999999999972
100
AcDbArc
 50
160.0543137387038
 51
180.0000013888437
  0
LINE
  5
287
330
1F
100
AcDbEntity
  8
0
  6
SLD-Solid
 62
     7
370
    25
100
AcDbLine
 10
48.90939319066265
 20
29.70839491466269
 30
0.0
 11
48.90939321370124
 21
28.75794945129735
 31
0.0
  0
ARC
  5
288
330
1F
100
AcDbEntity
  8
0
  6
SLD-Solid
 62
     7
370
    25
100
AcDbCircle
 10
48.93439321370119
 20
28.75794945190334
 30
0.0
 40
0.024999999999956
100
AcDbArc
 50
180.0000013888356
 51
0.0000013888103205
  0
LINE
  5
289
330
1F
100
AcDbEntity
  8
0
  6
SLD-Solid
 62
     7
370
    25
100
AcDbLine
 10
48.95939321370115
 20
28.75794945250933
 30
0.0
 11
48.95939319087577
 21
29.69960299983896
 31
0.0
  0
ARC
  5
28A
330
1F
100
AcDbEntity
  8
0
  6
SLD-Solid
 62
     7
370
    25
100
AcDbCircle
 10
49.00939319087577
 20
29.69960300105098
 30
0.0
 40
0.0500000000000047
100
AcDbArc
 50
160.054313738694
 51
180.0000013888722
  0
LINE
  5
28B
330
1F
100
AcDbEntity
  8
0
  6
SLD-Solid
 62
     7
370
    25
100
AcDbLine
 10
48.96239236998868
 20
29.71665946129162
 30
0.0
 11
49.03139400632697
 21
29.90680052835332
 31
0.0
  0
ARC
  5
28C
330
1F
100
AcDbEntity
  8
0
  6
SLD-Solid
 62
     7
370
    25
100
AcDbCircle
 10
48.98439318543989
 20
29.92385698859396
 30
0.0
 40
0.0500000000000043
100
AcDbArc
 50
340.0543137386921
 51
0.000001388826605
  0
LINE
  5
28D
330
1F
100
AcDbEntity
  8
0
  6
SLD-Solid
 62
     7
370
    25
100
AcDbLine
 10
49.0343931854399
 20
29.92385698980594
 30
0.0
 11
49.0343931822629
 21
30.05492328432459
 31
0.0
  0
ARC
  5
28E
330
1F
100
AcDbEntity
  8
0
  6
SLD-Solid
 62
     7
370
    25
100
AcDbCircle
 10
49.17189318226288
 20
30.05492328765755
 30
0.0
 40
0.1374999999999958
100
AcDbArc
 50
0.0000013888436296
 51
180.0000013888311
  0
LINE
  5
28F
330
1F
100
AcDbEntity
  8
0
  6
SLD-Solid
 62
     7
370
    25
100
AcDbLine
 10
49.30939318226288
 20
30.05492329099053
 30
0.0
 11
49.30939321370133
 21
28.75794946099327
 31
0.0
  0
ARC
  5
290
330
1F
100
AcDbEntity
  8
0
  6
SLD-Solid
 62
     7
370
    25
100
AcDbCircle
 10
49.33439321370133
 20
28.75794946159924
 30
0.0
 40
0.0249999999999915
100
AcDbArc
 50
180.0000013887786
 51
0.000001388899885
  0
LINE
  5
291
330
1F
100
AcDbEntity
  8
0
  6
SLD-Solid
 62
     7
370
    25
100
AcDbLine
 10
49.35939321370131
 20
28.75794946220526
 30
0.0
 11
49.35939318226288
 21
30.05492329220252
 31
0.0
  0
ARC
  5
292
330
1F
100
AcDbEntity
  8
0
  6
SLD-Solid
 62
     7
370
    25
100
AcDbCircle
 10
49.17189318226288
 20
30.05492328765755
 30
0.0
 40
0.1874999999999989
100
AcDbArc
 50
0.0000013888401754
 51
59.4537049225262
  0
LINE
  5
293
330
1F
100
AcDbEntity
  8
0
  6
SLD-Solid
 62
     7
370
    25
100
AcDbLine
 10
49.26718713130419
 20
30.2164018103041
 30
0.0
 11
49.2671871226428
 21
30.57372328996746
 31
0.0
  0
ARC
  5
294
330
1F
100
AcDbEntity
  8
0
  6
SLD-Solid
 62
     7
370
    25
100
AcDbCircle
 10
49.17189318226288
 20
30.57372328765755
 30
0.0
 40
0.0952939403799178
100
AcDbArc
 50
0.0000013888430353
 51
180.000001388846
  0
LINE
  5
295
330
1F
100
AcDbEntity
  8
0
  6
SLD-Solid
 62
     7
370
    25
100
AcDbLine
 10
31.77805538249934
 20
18.57408662247552
 30
0.0
 11
31.77805538249936
 21
18.21769524293639
 31
0.0
  0
ARC
  5
296
330
1F
100
AcDbEntity
  8
0
  6
SLD-Solid
 62
     7
370
    25
100
AcDbCircle
 10
31.87175538249934
 20
18.05528662247554
 30
0.0
 40
0.1874999999999946
100
AcDbArc
 50
119.9823590430093
 51
60.01764095698364
  0
LINE
  5
297
330
1F
100
AcDbEntity
  8
0
  6
SLD-Solid
 62
     7
370
    25
100
AcDbLine
 10
31.96545538249935
 20
18.21769524293639
 30
0.0
 11
31.96545538249934
 21
18.57408662247555
 31
0.0
  0
ARC
  5
298
330
1F
100
AcDbEntity
  8
0
  6
SLD-Solid
 62
     7
370
    25
100
AcDbCircle
 10
31.87175538249933
 20
18.57408662247555
 30
0.0
 40
0.093700000000009
100
AcDbArc
 50
0.0000000000044085
 51
180.0000000000161
  0
LINE
  5
299
330
1F
100
AcDbEntity
  8
0
  6
SLD-Solid
 62
     7
370
    25
100
AcDbLine
 10
31.77304356138776
 20
30.57372328996756
 30
0.0
 11
31.77304355272635
 21
30.21640181030419
 31
0.0
  0
ARC
  5
29A
330
1F
100
AcDbEntity
  8
0
  6
SLD-Solid
 62
     7
370
    25
100
AcDbCircle
 10
31.86833750176766
 20
30.05492328765766
 30
0.0
 40
0.1874999999999894
100
AcDbArc
 50
120.546295077478
 51
179.9999986111587
  0
LINE
  5
29B
330
1F
100
AcDbEntity
  8
0
  6
SLD-Solid
 62
     7
370
    25
100
AcDbLine
 10
31.68083750176767
 20
30.05492329220263
 30
0.0
 11
31.68083747032928
 21
28.75794946220537
 31
0.0
  0
ARC
  5
29C
330
1F
100
AcDbEntity
  8
0
  6
SLD-Solid
 62
     7
370
    25
100
AcDbCircle
 10
31.70583747032924
 20
28.7579494615994
 30
0.0
 40
0.0249999999999595
100
AcDbArc
 50
179.9999986112141
 51
359.9999986111335
  0
LINE
  5
29D
330
1F
100
AcDbEntity
  8
0
  6
SLD-Solid
 62
     7
370
    25
100
AcDbLine
 10
31.7308374703292
 20
28.75794946099339
 30
0.0
 11
31.73083750176767
 21
30.05492329099064
 31
0.0
  0
ARC
  5
29E
330
1F
100
AcDbEntity
  8
0
  6
SLD-Solid
 62
     7
370
    25
100
AcDbCircle
 10
31.86833750176766
 20
30.05492328765766
 30
0.0
 40
0.1374999999999993
100
AcDbArc
 50
359.9999986111661
 51
179.9999986111594
  0
LINE
  5
29F
330
1F
100
AcDbEntity
  8
0
  6
SLD-Solid
 62
     7
370
    25
100
AcDbLine
 10
32.00583750176766
 20
30.0549232843247
 30
0.0
 11
32.00583749859064
 21
29.92385698980605
 31
0.0
  0
ARC
  5
2A0
330
1F
100
AcDbEntity
  8
0
  6
SLD-Solid
 62
     7
370
    25
100
AcDbCircle
 10
32.05583749859064
 20
29.92385698859406
 30
0.0
 40
0.049999999999998
100
AcDbArc
 50
179.9999986111612
 51
199.9456862613096
  0
LINE
  5
2A1
330
1F
100
AcDbEntity
  8
0
  6
SLD-Solid
 62
     7
370
    25
100
AcDbLine
 10
32.00883667770356
 20
29.90680052835342
 30
0.0
 11
32.07783831404186
 21
29.71665946129172
 31
0.0
  0
ARC
  5
2A2
330
1F
100
AcDbEntity
  8
0
  6
SLD-Solid
 62
     7
370
    25
100
AcDbCircle
 10
32.03083749315477
 20
29.69960300105108
 30
0.0
 40
0.0500000000000047
100
AcDbArc
 50
359.9999986111661
 51
19.94568626130599
  0
LINE
  5
2A3
330
1F
100
AcDbEntity
  8
0
  6
SLD-Solid
 62
     7
370
    25
100
AcDbLine
 10
32.08083749315477
 20
29.69960299983909
 30
0.0
 11
32.08083747032938
 21
28.75794945250944
 31
0.0
  0
ARC
  5
2A4
330
1F
100
AcDbEntity
  8
0
  6
SLD-Solid
 62
     7
370
    25
100
AcDbCircle
 10
32.10583747032938
 20
28.75794945190345
 30
0.0
 40
0.0249999999999986
100
AcDbArc
 50
179.9999986111734
 51
359.9999986111498
  0
LINE
  5
2A5
330
1F
100
AcDbEntity
  8
0
  6
SLD-Solid
 62
     7
370
    25
100
AcDbLine
 10
32.13083747032936
 20
28.75794945129745
 30
0.0
 11
32.13083749336789
 21
29.70839491466279
 31
0.0
  0
ARC
  5
2A6
330
1F
100
AcDbEntity
  8
0
  6
SLD-Solid
 62
     7
370
    25
100
AcDbCircle
 10
32.08083749336789
 20
29.70839491587479
 30
0.0
 40
0.0499999999999972
100
AcDbArc
 50
359.9999986111457
 51
19.94568626128198
  0
LINE
  5
2A7
330
1F
100
AcDbEntity
  8
0
  6
SLD-Solid
 62
     7
370
    25
100
AcDbLine
 10
32.12783831425497
 20
29.72545137611541
 30
0.0
 11
32.05883667791667
 21
29.91559244317712
 31
0.0
  0
ARC
  5
2A8
330
1F
100
AcDbEntity
  8
0
  6
SLD-Solid
 62
     7
370
    25
100
AcDbCircle
 10
32.10583749880375
 20
29.93264890341774
 30
0.0
 40
0.0500000000000043
100
AcDbArc
 50
179.9999986111368
 51
199.9456862612905
  0
LINE
  5
2A9
330
1F
100
AcDbEntity
  8
0
  6
SLD-Solid
 62
     7
370
    25
100
AcDbLine
 10
32.05583749880375
 20
29.93264890462975
 30
0.0
 11
32.05583750176766
 21
30.05492328311272
 31
0.0
  0
ARC
  5
2AA
330
1F
100
AcDbEntity
  8
0
  6
SLD-Solid
 62
     7
370
    25
100
AcDbCircle
 10
31.86833750176766
 20
30.05492328765766
 30
0.0
 40
0.1875000000000036
100
AcDbArc
 50
359.9999986111683
 51
59.45371106899169
  0
LINE
  5
2AB
330
1F
100
AcDbEntity
  8
0
  6
SLD-Solid
 62
     7
370
    25
100
AcDbLine
 10
31.96363143348619
 20
30.21640182052697
 30
0.0
 11
31.96363144214759
 21
30.57372328534776
 31
0.0
  0
ARC
  5
2AC
330
1F
100
AcDbEntity
  8
0
  6
SLD-Solid
 62
     7
370
    25
100
AcDbCircle
 10
31.86833750176768
 20
30.57372328765765
 30
0.0
 40
0.0952939403799178
100
AcDbArc
 50
359.9999986111706
 51
179.9999986111634
  0
LINE
  5
2AD
330
1F
100
AcDbEntity
  8
0
  6
SLD-Solid
 62
     7
370
    25
100
AcDbLine
 10
32.05232364078379
 20
35.43957537645951
 30
0.0
 11
31.52150162321109
 21
35.90077396994692
 31
0.0
  0
LINE
  5
2AE
330
1F
100
AcDbEntity
  8
0
  6
SLD-Solid
 62
     7
370
    25
100
AcDbLine
 10
32.35178215670813
 20
33.31275847128799
 30
0.0
 11
32.05232364078379
 21
35.43957537645951
 31
0.0
  0
LINE
  5
2AF
330
1F
100
AcDbEntity
  8
0
  6
SLD-Solid
 62
     7
370
    25
100
AcDbLine
 10
32.35178215670807
 20
16.83190059940008
 30
0.0
 11
32.35178215670813
 21
33.31275847128799
 31
0.0
  0
ARC
  5
2B0
330
1F
100
AcDbEntity
  8
0
  6
SLD-Solid
 62
     7
370
    25
100
AcDbCircle
 10
32.30178215670808
 20
16.83190059940007
 30
0.0
 40
0.0499999999999901
100
AcDbArc
 50
342.6310986111648
 51
0.0000000000082616
  0
LINE
  5
2B1
330
1F
100
AcDbEntity
  8
0
  6
SLD-Solid
 62
     7
370
    25
100
AcDbLine
 10
31.85693353355343
 20
15.2421908072373
 30
0.0
 11
32.34950228167119
 21
16.81697445879026
 31
0.0
  0
ARC
  5
2B2
330
1F
100
AcDbEntity
  8
0
  6
SLD-Solid
 62
     7
370
    25
100
AcDbCircle
 10
31.8092134085903
 20
15.25711694784712
 30
0.0
 40
0.0500000000000047
100
AcDbArc
 50
270.0000000000008
 51
342.6310986111471
  0
LINE
  5
2B3
330
1F
100
AcDbEntity
  8
0
  6
SLD-Solid
 62
     7
370
    25
100
AcDbLine
 10
31.52150162321103
 20
15.20711694784715
 30
0.0
 11
31.8092134085903
 21
15.20711694784713
 31
0.0
  0
LINE
  5
2B4
330
1F
100
AcDbEntity
  8
0
  6
SLD-Solid
 62
     7
370
    25
100
AcDbLine
 10
32.06524954629874
 20
35.45122198893765
 30
0.0
 11
48.97498113773191
 21
35.4512219889375
 31
0.0
  0
LINE
  5
2B5
330
1F
100
AcDbEntity
  8
0
  6
SLD-Solid
 62
     7
370
    25
100
AcDbLine
 10
31.54434617379598
 20
35.9037645605144
 30
0.0
 11
32.06524954629874
 21
35.45122198893765
 31
0.0
  0
LINE
  5
2B6
330
1F
100
AcDbEntity
  8
0
  6
SLD-Solid
 62
     7
370
    25
100
AcDbLine
 10
48.97498113773191
 20
35.4512219889375
 30
0.0
 11
49.49588451023467
 21
35.90376456051424
 31
0.0
  0
LINE
  5
2B7
330
1F
100
AcDbEntity
  8
0
  6
SLD-Solid
 62
     7
370
    25
100
AcDbLine
 10
31.52006534205373
 20
35.93293146816283
 30
0.0
 11
31.52006534205373
 21
35.96066999546909
 31
0.0
  0
LINE
  5
2B8
330
1F
100
AcDbEntity
  8
0
  6
SLD-Solid
 62
     7
370
    25
100
AcDbLine
 10
49.52016534197696
 20
35.96066999546893
 30
0.0
 11
49.52016534197696
 21
35.93293146816269
 31
0.0
  0
LINE
  5
2B9
330
1F
100
AcDbEntity
  8
0
  6
SLD-Solid
 62
     7
370
    25
100
AcDbLine
 10
49.51736239052743
 20
35.9185120912765
 30
0.0
 11
49.49588451023467
 21
35.90466531158373
 31
0.0
  0
LINE
  5
2BA
330
1F
100
AcDbEntity
  8
0
  6
SLD-Solid
 62
     7
370
    25
100
AcDbLine
 10
31.544346173796
 20
35.90466531158388
 30
0.0
 11
31.52286829350324
 21
35.91851209127665
 31
0.0
  0
LINE
  5
2BB
330
1F
100
AcDbEntity
  8
0
  6
SLD-Solid
 62
     7
370
    25
100
AcDbLine
 10
31.46650162321103
 20
15.1571169478471
 30
0.0
 11
31.46650162321103
 21
15.15701107814618
 31
0.0
  0
LINE
  5
2BC
330
1F
100
AcDbEntity
  8
0
  6
SLD-Solid
 62
     7
370
    25
100
AcDbLine
 10
49.52016534197696
 20
35.93293146816269
 30
0.0
 11
49.52016534197696
 21
35.92004422652564
 31
0.0
  0
LINE
  5
2BD
330
1F
100
AcDbEntity
  8
0
  6
SLD-Solid
 62
     7
370
    25
100
AcDbLine
 10
49.52016534197696
 20
35.92004422652564
 30
0.0
 11
49.51736239052743
 21
35.9185120912765
 31
0.0
  0
LINE
  5
2BE
330
1F
100
AcDbEntity
  8
0
  6
SLD-Solid
 62
     7
370
    25
100
AcDbLine
 10
31.52286829350324
 20
35.91851209127665
 30
0.0
 11
31.52006534205372
 21
35.92004422652579
 31
0.0
  0
LINE
  5
2BF
330
1F
100
AcDbEntity
  8
0
  6
SLD-Solid
 62
     7
370
    25
100
AcDbLine
 10
31.52006534205371
 20
35.93293146816283
 30
0.0
 11
31.52006534205371
 21
35.92004422652579
 31
0.0
  0
LINE
  5
2C0
330
1F
100
AcDbEntity
  8
0
  6
SLD-Solid
 62
     7
370
    25
100
AcDbLine
 10
49.50772906081929
 20
11.69696508218181
 30
0.0
 11
49.50772906081929
 21
11.70059015793012
 31
0.0
  0
LINE
  5
2C1
330
1F
100
AcDbEntity
  8
0
  6
SLD-Solid
 62
     7
370
    25
100
AcDbLine
 10
31.53250162321102
 20
11.70059015793023
 30
0.0
 11
31.53250162321102
 21
11.69696508218192
 31
0.0
  0
ARC
  5
2C2
330
1F
100
AcDbEntity
  8
0
  6
SLD-Solid
 62
     7
370
    25
100
AcDbCircle
 10
47.74560191695019
 20
11.80010419128703
 30
0.0
 40
0.0995152200490021
100
AcDbArc
 50
180.2825694433629
 51
270.2798094227376
  0
LINE
  5
2C3
330
1F
100
AcDbEntity
  8
0
  6
SLD-Solid
 62
     7
370
    25
100
AcDbLine
 10
47.64608790711961
 20
11.79961340738316
 30
0.0
 11
47.64608790711986
 21
33.55037595039666
 31
0.0
  0
ARC
  5
2C4
330
1F
100
AcDbEntity
  8
0
  6
SLD-Solid
 62
     7
370
    25
100
AcDbCircle
 10
47.69535966715145
 20
33.55033353604141
 30
0.0
 40
0.0492717782872562
100
AcDbArc
 50
134.6502733130137
 51
179.9506783815977
  0
LINE
  5
2C5
330
1F
100
AcDbEntity
  8
0
  6
SLD-Solid
 62
     7
370
    25
100
AcDbLine
 10
47.66073256806052
 20
33.58538595598834
 30
0.0
 11
48.89955949365039
 21
34.81211263280627
 31
0.0
  0
LINE
  5
2C6
330
1F
100
AcDbEntity
  8
0
  6
SLD-Solid
 62
     7
370
    25
100
AcDbLine
 10
32.14067119038021
 20
34.81211263280638
 30
0.0
 11
33.37949811597008
 21
33.58538595598841
 31
0.0
  0
ARC
  5
2C7
330
1F
100
AcDbEntity
  8
0
  6
SLD-Solid
 62
     7
370
    25
100
AcDbCircle
 10
33.34487101687925
 20
33.55033353604151
 30
0.0
 40
0.0492717782871727
100
AcDbArc
 50
0.0493216183776134
 51
45.34972668705703
  0
LINE
  5
2C8
330
1F
100
AcDbEntity
  8
0
  6
SLD-Solid
 62
     7
370
    25
100
AcDbLine
 10
33.39414277691076
 20
33.55037595039673
 30
0.0
 11
33.39414277691068
 21
11.79961340738324
 31
0.0
  0
ARC
  5
2C9
330
1F
100
AcDbEntity
  8
0
  6
SLD-Solid
 62
     7
370
    25
100
AcDbCircle
 10
33.29462876708012
 20
11.80010419128715
 30
0.0
 40
0.0995152200489915
100
AcDbArc
 50
269.7201905772559
 51
359.7174305566183
  0
LINE
  5
2CA
330
1F
100
AcDbEntity
  8
0
  6
SLD-Solid
 62
     7
370
    25
100
AcDbLine
 10
47.74608790711962
 20
11.70059015793014
 30
0.0
 11
47.74608790711962
 21
11.69696508218183
 31
0.0
  0
LINE
  5
2CB
330
1F
100
AcDbEntity
  8
0
  6
SLD-Solid
 62
     7
370
    25
100
AcDbLine
 10
49.50772906081929
 20
11.69696508218181
 30
0.0
 11
47.74608790711962
 21
11.69696508218183
 31
0.0
  0
LINE
  5
2CC
330
1F
100
AcDbEntity
  8
0
  6
SLD-Solid
 62
     7
370
    25
100
AcDbLine
 10
47.64608790711961
 20
11.79961340738316
 30
0.0
 11
47.64608790711961
 21
11.79598833163485
 31
0.0
  0
ARC
  5
2CD
330
1F
100
AcDbEntity
  8
0
  6
SLD-Solid
 62
     7
370
    25
100
AcDbCircle
 10
47.7456019169502
 20
11.79647911553872
 30
0.0
 40
0.0995152200490063
100
AcDbArc
 50
180.2825694433618
 51
270.2798094227334
  0
LINE
  5
2CE
330
1F
100
AcDbEntity
  8
0
  6
SLD-Solid
 62
     7
370
    25
100
AcDbLine
 10
33.29414277691068
 20
11.70059015793027
 30
0.0
 11
33.29414277691068
 21
11.69696508218195
 31
0.0
  0
LINE
  5
2CF
330
1F
100
AcDbEntity
  8
0
  6
SLD-Solid
 62
     7
370
    25
100
AcDbLine
 10
33.29414277691068
 20
11.69696508218195
 30
0.0
 11
31.53250162321102
 21
11.69696508218192
 31
0.0
  0
LINE
  5
2D0
330
1F
100
AcDbEntity
  8
0
  6
SLD-Solid
 62
     7
370
    25
100
AcDbLine
 10
33.39414277691068
 20
11.79961340738324
 30
0.0
 11
33.39414277691068
 21
11.79598833163493
 31
0.0
  0
ARC
  5
2D1
330
1F
100
AcDbEntity
  8
0
  6
SLD-Solid
 62
     7
370
    25
100
AcDbCircle
 10
33.29462876708012
 20
11.79647911553884
 30
0.0
 40
0.0995152200489915
100
AcDbArc
 50
269.7201905772559
 51
359.7174305566193
  0
LINE
  5
2D2
330
1F
100
AcDbEntity
  8
0
  6
SLD-Solid
 62
     7
370
    25
100
AcDbLine
 10
49.57372906081954
 20
35.9070277050301
 30
0.0
 11
49.57372906081954
 21
35.91119422195116
 31
0.0
  0
LINE
  5
2D3
330
1F
100
AcDbEntity
  8
0
  6
SLD-Solid
 62
     7
370
    25
100
AcDbLine
 10
31.4665016232111
 20
35.91119422195131
 30
0.0
 11
31.4665016232111
 21
35.90702770503029
 31
0.0
  0
ARC
  5
2D4
330
1F
100
AcDbEntity
  8
0
  6
SLD-Solid
 62
     7
370
    25
100
AcDbCircle
 10
49.52695747619917
 20
35.91096355351634
 30
0.0
 40
0.0467721534230245
100
AcDbArc
 50
0.2825694433572378
 51
90.27980942273938
  0
ARC
  5
2D5
330
1F
100
AcDbEntity
  8
0
  6
SLD-Solid
 62
     7
370
    25
100
AcDbCircle
 10
31.51327320783147
 20
35.91096355351649
 30
0.0
 40
0.0467721534230316
100
AcDbArc
 50
89.72019057726067
 51
179.7174305566341
  0
LINE
  5
2D6
330
1F
100
AcDbEntity
  8
0
  6
SLD-Solid
 62
     7
370
    25
100
AcDbLine
 10
31.46650162321103
 20
15.2071169478471
 30
0.0
 11
31.46650162321103
 21
15.1571169478471
 31
0.0
  0
LINE
  5
2D7
330
1F
100
AcDbEntity
  8
0
  6
SLD-Solid
 62
     7
370
    25
100
AcDbLine
 10
49.52672906081954
 20
35.95773514919407
 30
0.0
 11
49.52016534197696
 21
35.95773514919407
 31
0.0
  0
LINE
  5
2D8
330
1F
100
AcDbEntity
  8
0
  6
SLD-Solid
 62
     7
370
    25
100
AcDbLine
 10
31.52006534205369
 20
35.95773514919423
 30
0.0
 11
31.5135016232111
 21
35.95773514919423
 31
0.0
  0
LINE
  5
2D9
330
1F
100
AcDbEntity
  8
0
  6
SLD-Solid
 62
     7
370
    25
100
AcDbLine
 10
48.90474497183477
 20
34.8489409815674
 30
0.0
 11
47.64409932483733
 21
33.60060869782257
 31
0.0
  0
ARC
  5
2DA
330
1F
100
AcDbEntity
  8
0
  6
SLD-Solid
 62
     7
370
    25
100
AcDbCircle
 10
47.60878598585078
 20
33.63635412663304
 30
0.0
 40
0.0502470654986401
100
AcDbArc
 50
269.952108104911
 51
314.6516036103279
  0
LINE
  5
2DB
330
1F
100
AcDbEntity
  8
0
  6
SLD-Solid
 62
     7
370
    25
100
AcDbLine
 10
47.60874398577801
 20
33.58610707868773
 30
0.0
 11
33.43148669825261
 21
33.5861070786878
 31
0.0
  0
ARC
  5
2DC
330
1F
100
AcDbEntity
  8
0
  6
SLD-Solid
 62
     7
370
    25
100
AcDbCircle
 10
33.43144469817999
 20
33.63635412663351
 30
0.0
 40
0.0502470654990379
100
AcDbArc
 50
225.3483963898715
 51
270.0478918949039
  0
LINE
  5
2DD
330
1F
100
AcDbEntity
  8
0
  6
SLD-Solid
 62
     7
370
    25
100
AcDbLine
 10
33.39613135919328
 20
33.60060869782264
 30
0.0
 11
32.13548571219582
 21
34.84894098156751
 31
0.0
  0
CIRCLE
  5
2DE
330
1F
100
AcDbEntity
  8
0
  6
SLD-Solid
 62
     7
370
    25
100
AcDbCircle
 10
31.72684032433757
 20
12.39953509257104
 30
0.0
 40
0.1263641441738769
  0
CIRCLE
  5
2DF
330
1F
100
AcDbEntity
  8
0
  6
SLD-Solid
 62
     7
370
    25
100
AcDbCircle
 10
32.23074032433767
 20
11.91541042599519
 30
0.0
 40
0.1263641441738766
  0
SPLINE
  5
2E0
330
1F
100
AcDbEntity
  8
0
  6
SLD-Solid
 62
     7
370
    25
100
AcDbSpline
210
0.0
220
0.0
230
1.0
 70
    12
 71
     3
 72
    12
 73
     8
 74
     0
 42
0.00000001
 43
0.00000001
 40
0.0
 40
0.0
 40
0.0
 40
0.0
 40
0.2122079440003096
 40
0.4639213760440299
 40
0.7157255558820376
 40
0.967530051843776
 40
1.0
 40
1.0
 40
1.0
 40
1.0
 10
31.50386534201525
 20
11.63731361471
 30
0.0
 41
1.0
 10
31.50704156179125
 20
11.63854392767471
 30
0.0
 41
1.0
 10
31.51398529924672
 20
11.64123359363534
 30
0.0
 41
1.0
 10
31.52472464593196
 20
11.65274388336445
 30
0.0
 41
1.0
 10
31.5360394053607
 20
11.66918834071119
 30
0.0
 41
1.0
 10
31.54410149664958
 20
11.68261013741603
 30
0.0
 41
1.0
 10
31.54834283528567
 20
11.68950685197358
 30
0.0
 41
1.0
 10
31.54882728279221
 20
11.69029459764952
 30
0.0
 41
1.0
  0
SPLINE
  5
2E1
330
1F
100
AcDbEntity
  8
0
  6
SLD-Solid
 62
     7
370
    25
100
AcDbSpline
210
0.0
220
0.0
230
1.0
 70
    12
 71
     3
 72
     9
 73
     5
 74
     0
 42
0.00000001
 43
0.00000001
 40
0.0
 40
0.0
 40
0.0
 40
0.0
 40
0.6101949649218678
 40
1.0
 40
1.0
 40
1.0
 40
1.0
 10
49.57372906081952
 20
35.46098704680703
 30
0.0
 41
1.0
 10
49.57735038640689
 20
35.4654418973124
 30
0.0
 41
1.0
 10
49.58328508891273
 20
35.47274259751718
 30
0.0
 41
1.0
 10
49.58399040590174
 20
35.47976917910957
 30
0.0
 41
1.0
 10
49.58426534201538
 20
35.48250817599367
 30
0.0
 41
1.0
  0
LINE
  5
2E2
330
1F
100
AcDbEntity
  8
0
  6
SLD-Solid
 62
     7
370
    25
100
AcDbLine
 10
49.58426534201524
 20
11.66989226378004
 30
0.0
 11
49.58426534201538
 21
35.48250817599367
 31
0.0
  0
SPLINE
  5
2E3
330
1F
100
AcDbEntity
  8
0
  6
SLD-Solid
 62
     7
370
    25
100
AcDbSpline
210
0.0
220
0.0
230
1.0
 70
    12
 71
     3
 72
     9
 73
     5
 74
     0
 42
0.00000001
 43
0.00000001
 40
0.0
 40
0.0
 40
0.0
 40
0.0
 40
0.6665695564052327
 40
1.0
 40
1.0
 40
1.0
 40
1.0
 10
31.45596534201533
 20
35.48250817599379
 30
0.0
 41
1.0
 10
31.45654198429696
 20
35.47799855013752
 30
0.0
 41
1.0
 10
31.45740707373299
 20
35.47123312586493
 30
0.0
 41
1.0
 10
31.46422748909232
 20
35.46408115930443
 30
0.0
 41
1.0
 10
31.46650162321109
 20
35.46169647592159
 30
0.0
 41
1.0
  0
LINE
  5
2E4
330
1F
100
AcDbEntity
  8
0
  6
SLD-Solid
 62
     7
370
    25
100
AcDbLine
 10
31.45596534201533
 20
35.48250817599379
 30
0.0
 11
31.45596534201512
 21
11.66989226378017
 31
0.0
  0
LINE
  5
2E5
330
1F
100
AcDbEntity
  8
0
  6
SLD-Solid
 62
     7
370
    25
100
AcDbLine
 10
31.54882728279221
 20
11.69029459764952
 30
0.0
 11
31.55556356398804
 21
11.69696508218193
 31
0.0
  0
LINE
  5
2E6
330
1F
100
AcDbEntity
  8
0
  6
SLD-Solid
 62
     7
370
    25
100
AcDbLine
 10
31.50386534201525
 20
11.58126436660157
 30
0.0
 11
49.55136534201525
 21
11.58126436660148
 31
0.0
  0
LINE
  5
2E7
330
1F
100
AcDbEntity
  8
0
  6
SLD-Solid
 62
     7
370
    25
100
AcDbLine
 10
31.50386534201525
 20
11.63731361471
 30
0.0
 11
31.50386534201525
 21
11.58126436660157
 31
0.0
  0
ARC
  5
2E8
330
1F
100
AcDbEntity
  8
0
  6
SLD-Solid
 62
     7
370
    25
100
AcDbCircle
 10
49.5515252327809
 20
11.61400448357593
 30
0.0
 40
0.0327405073961594
100
AcDbArc
 50
269.7201905774073
 51
359.7174305566259
  0
LINE
  5
2E9
330
1F
100
AcDbEntity
  8
0
  6
SLD-Solid
 62
     7
370
    25
100
AcDbLine
 10
49.5842653420152
 20
11.61384301567155
 30
0.0
 11
49.58426534201524
 21
11.66989226378004
 31
0.0
  0
LINE
  5
2EA
330
1F
100
AcDbEntity
  8
0
  6
SLD-Solid
 62
     7
370
    25
100
AcDbLine
 10
31.45596534201508
 20
11.61384301567168
 30
0.0
 11
31.47386534201508
 21
11.61384301567168
 31
0.0
  0
LINE
  5
2EB
330
1F
100
AcDbEntity
  8
0
  6
SLD-Solid
 62
     7
370
    25
100
AcDbLine
 10
31.45596534201512
 20
11.66989226378017
 30
0.0
 11
31.45596534201508
 21
11.61384301567168
 31
0.0
  0
LINE
  5
2EC
330
1F
100
AcDbEntity
  8
0
  6
SLD-Solid
 62
     7
370
    25
100
AcDbLine
 10
31.5052347201178
 20
11.58163137057906
 30
0.0
 11
31.50386534201525
 21
11.58126436660157
 31
0.0
  0
LINE
  5
2ED
330
1F
100
AcDbEntity
  8
0
  6
SLD-Solid
 62
     7
370
    25
100
AcDbLine
 10
49.55136534201525
 20
11.58126436660148
 30
0.0
 11
49.54999596391269
 21
11.58163137057896
 31
0.0
  0
SPLINE
  5
2EE
330
1F
100
AcDbEntity
  8
0
  6
SLD-Solid
 62
     7
370
    25
100
AcDbSpline
210
0.0
220
0.0
230
1.0
 70
    12
 71
     3
 72
    11
 73
     7
 74
     0
 42
0.00000001
 43
0.00000001
 40
0.0
 40
0.0
 40
0.0
 40
0.0
 40
0.249999999999902
 40
0.4999999999996625
 40
0.7499999999994383
 40
1.0
 40
1.0
 40
1.0
 40
1.0
 10
31.47386534201508
 20
11.61384301567168
 30
0.0
 41
1.0
 10
31.47430125762593
 20
11.61458515781549
 30
0.0
 41
1.0
 10
31.47517308884763
 20
11.61606944210311
 30
0.0
 41
1.0
 10
31.48187931602815
 20
11.61854884578906
 30
0.0
 41
1.0
 10
31.49146511920396
 20
11.62142973720985
 30
0.0
 41
1.0
 10
31.49906526774473
 20
11.62385212380287
 30
0.0
 41
1.0
 10
31.50286534201512
 20
11.62506331709938
 30
0.0
 41
1.0
  0
ARC
  5
2EF
330
1F
100
AcDbEntity
  8
0
  6
SLD-Solid
 62
     7
370
    25
100
AcDbCircle
 10
49.55180248046488
 20
35.48246407510052
 30
0.0
 40
0.0324628915060827
100
AcDbArc
 50
0.0778364375623752
 51
47.51204312788417
  0
ARC
  5
2F0
330
1F
100
AcDbEntity
  8
0
  6
SLD-Solid
 62
     7
370
    25
100
AcDbCircle
 10
31.48841317231879
 20
35.48247070308485
 30
0.0
 40
0.0324478519415555
100
AcDbArc
 50
132.4762893760679
 51
179.9338310588438
  0
LINE
  5
2F1
330
1F
100
AcDbEntity
  8
0
  6
SLD-Solid
 62
     8
370
    25
100
AcDbLine
 10
49.50772906081932
 20
15.20711694784701
 30
0.0
 11
49.50772906081929
 21
11.70059015793012
 31
0.0
  0
LINE
  5
2F2
330
1F
100
AcDbEntity
  8
0
  6
SLD-Solid
 62
     8
370
    25
100
AcDbLine
 10
31.53250162321102
 20
11.70059015793023
 30
0.0
 11
31.53250162321103
 21
15.20711694784715
 31
0.0
  0
LINE
  5
2F3
330
1F
100
AcDbEntity
  8
0
  6
SLD-Solid
 62
     8
370
    25
100
AcDbLine
 10
32.05364530231878
 20
35.43018866028321
 30
0.0
 11
48.98658538171183
 21
35.43018866028313
 31
0.0
  0
DIMENSION
  5
2F4
330
1F
100
AcDbEntity
  8
DIMS
100
AcDbDimension
  2
_D_5
 10
31.83408978933274
 20
30.48479618680472
 30
0.0
 11
38.59944276948073
 21
37.00994855770335
 31
0.0
 70
    35
  1
<> mounting hole (4)
 71
     1
 42
-1.0
  3
SLDDIMSTYLE2
100
AcDbDiametricDimension
 15
31.9025852142025
 25
30.6626503885106
 35
0.0
 40
0.0
  0
DIMENSION
  5
302
330
1F
100
AcDbEntity
  8
DIMS
100
AcDbDimension
  2
_D_6
 10
49.17189318226285
 20
38.51720694937237
 30
0.0
 11
40.52011534201522
 21
38.5172069493724
 31
0.0
 70
    32
  1
<>
 71
     2
 42
-1.0
  3
SLDDIMSTYLE1
100
AcDbAlignedDimension
 13
31.86833750176762
 23
30.57372328765766
 33
0.0
 14
49.17189318226283
 24
30.5737232876576
 34
0.0
 50
-0.0000000000001882
100
AcDbRotatedDimension
  0
DIMENSION
  5
311
330
1F
100
AcDbEntity
  8
DIMS
100
AcDbDimension
  2
_D_7
 10
50.92284801918077
 20
30.5737232876576
 30
0.0
 11
50.92284801918077
 21
24.46448424019959
 31
0.0
 70
    32
  1
<>
 71
     2
 42
-1.0
  3
SLDDIMSTYLE0
100
AcDbAlignedDimension
 13
49.16847530153104
 23
18.57408662247547
 33
0.0
 14
49.17189318226283
 24
30.5737232876576
 34
0.0
 50
90.0000000000002
100
AcDbRotatedDimension
  0
DIMENSION
  5
31C
330
1F
100
AcDbEntity
  8
DIMS
100
AcDbDimension
  2
_D_8
 10
50.92284801918079
 20
35.96013278266814
 30
0.0
 11
50.92284801918078
 21
33.10857583978805
 31
0.0
 70
    32
  1
<>
 71
     2
 42
-1.0
  3
SLDDIMSTYLE1
100
AcDbAlignedDimension
 13
49.17189318226283
 23
30.5737232876576
 33
0.0
 14
49.5201653419769
 24
35.96013278266815
 34
0.0
 50
90.0000000000002
100
AcDbRotatedDimension
  0
DIMENSION
  5
32B
330
1F
100
AcDbEntity
  8
DIMS
100
AcDbDimension
  2
_D_9
 10
50.92284801918076
 20
11.58126436660153
 30
0.0
 11
50.92284801918077
 21
15.05699136098655
 31
0.0
 70
    32
  1
<>
 71
     2
 42
-1.0
  3
SLDDIMSTYLE0
100
AcDbAlignedDimension
 13
49.16847530153104
 23
18.57408662247547
 33
0.0
 14
49.55136534201525
 24
11.58126436660153
 34
0.0
 50
90.0000000000002
100
AcDbRotatedDimension
  0
LINE
  5
336
330
1F
100
AcDbEntity
  8
0
  6
SLD-Solid
 62
     7
370
    25
100
AcDbLine
 10
67.87906589606239
 20
24.26038105638018
 30
0.0
 11
67.87906589606237
 21
41.16612043879994
 31
0.0
  0
LINE
  5
337
330
1F
100
AcDbEntity
  8
0
  6
SLD-Solid
 62
     7
370
    25
100
AcDbLine
 10
67.85304500215031
 20
41.20890962251122
 30
0.0
 11
55.12505223016862
 21
48.55662344928979
 31
0.0
  0
LINE
  5
338
330
1F
100
AcDbEntity
  8
0
  6
SLD-Solid
 62
     7
370
    25
100
AcDbLine
 10
55.05212885205838
 20
48.54655718108425
 30
0.0
 11
52.76836916152383
 21
46.85684947497469
 31
0.0
  0
LINE
  5
339
330
1F
100
AcDbEntity
  8
0
  6
SLD-Solid
 62
     7
370
    25
100
AcDbLine
 10
65.45810718760674
 20
39.46817895603774
 30
0.0
 11
52.73592396570485
 21
46.8125390009425
 31
0.0
  0
LINE
  5
33A
330
1F
100
AcDbEntity
  8
0
  6
SLD-Solid
 62
     7
370
    25
100
AcDbLine
 10
52.36889204014652
 20
46.57039389593378
 30
0.0
 11
54.73803819682256
 21
28.50783202048191
 31
0.0
  0
LINE
  5
33B
330
1F
100
AcDbEntity
  8
0
  6
SLD-Solid
 62
     7
370
    25
100
AcDbLine
 10
52.66656924072925
 20
46.82330034750381
 30
0.0
 11
52.38508879577217
 21
46.61503864688163
 31
0.0
  0
LINE
  5
33C
330
1F
100
AcDbEntity
  8
0
  6
SLD-Solid
 62
     7
370
    25
100
AcDbLine
 10
54.75706671096383
 20
28.47946423096875
 30
0.0
 11
67.50574138962993
 21
21.11981099359877
 31
0.0
  0
ARC
  5
33D
330
1F
100
AcDbEntity
  8
0
  6
SLD-Solid
 62
     7
370
    25
100
AcDbCircle
 10
65.57701348141876
 20
39.41514137744708
 30
0.0
 40
0.1068208951519782
100
AcDbArc
 50
128.0517887069767
 51
165.5541286830548
  0
ARC
  5
33E
330
1F
100
AcDbEntity
  8
0
  6
SLD-Solid
 62
     7
370
    25
100
AcDbCircle
 10
52.85491386134724
 20
46.75988738305045
 30
0.0
 40
0.1046802781631788
100
AcDbArc
 50
127.8012789483333
 51
157.6284229948858
  0
SPLINE
  5
33F
330
1F
100
AcDbEntity
  8
0
  6
SLD-Solid
 62
     7
370
    25
100
AcDbSpline
210
0.0
220
0.0
230
1.0
 70
    12
 71
     3
 72
    10
 73
     6
 74
     0
 42
0.00000001
 43
0.00000001
 40
0.0
 40
0.0
 40
0.0
 40
0.0
 40
0.5898475334980751
 40
0.8485235049294038
 40
0.9999999999999999
 40
0.9999999999999999
 40
0.9999999999999999
 40
0.9999999999999999
 10
67.88542644861882
 20
21.44738778283027
 30
0.0
 41
1.0
 10
67.88341311719977
 20
21.43758323855748
 30
0.0
 41
1.0
 10
67.88051684496793
 20
21.42347893905954
 30
0.0
 41
1.0
 10
67.86719137603828
 20
21.41074198602972
 30
0.0
 41
1.0
 10
67.86167979466661
 20
21.40738380410267
 30
0.0
 41
1.0
 10
67.85964427105853
 20
21.40614356865448
 30
0.0
 41
1.0
  0
LINE
  5
340
330
1F
100
AcDbEntity
  8
0
  6
SLD-Solid
 62
     7
370
    25
100
AcDbLine
 10
67.89744199463513
 20
21.59972580622006
 30
0.0
 11
67.88542645405012
 21
21.44738783289768
 31
0.0
  0
LINE
  5
341
330
1F
100
AcDbEntity
  8
0
  6
SLD-Solid
 62
     7
370
    25
100
AcDbLine
 10
65.52896543483617
 20
39.50132183106933
 30
0.0
 11
67.81272512537072
 21
41.1910295371789
 31
0.0
  0
ARC
  5
342
330
1F
100
AcDbEntity
  8
0
  6
SLD-Solid
 62
     7
370
    25
100
AcDbCircle
 10
67.76917590431788
 20
41.12036894000946
 30
0.0
 40
0.0830027387900642
100
AcDbArc
 50
11.21789318104868
 51
58.35382836338911
  0
LINE
  5
343
330
1F
100
AcDbEntity
  8
0
  6
SLD-Solid
 62
     7
370
    25
100
AcDbLine
 10
55.07544985318221
 20
48.54410203726428
 30
0.0
 11
55.0800911032856
 21
48.54142270061088
 31
0.0
  0
LINE
  5
344
330
1F
100
AcDbEntity
  8
0
  6
SLD-Solid
 62
     7
370
    25
100
AcDbLine
 10
55.0800911032856
 20
48.54142270061088
 30
0.0
 11
55.09213206654356
 21
48.55033156632486
 31
0.0
  0
LINE
  5
345
330
1F
100
AcDbEntity
  8
0
  6
SLD-Solid
 62
     7
370
    25
100
AcDbLine
 10
67.82012483852529
 20
41.2026177395463
 30
0.0
 11
67.80808387526731
 21
41.19370887383231
 31
0.0
  0
LINE
  5
346
330
1F
100
AcDbEntity
  8
0
  6
SLD-Solid
 62
     7
370
    25
100
AcDbLine
 10
67.80808387526731
 20
41.19370887383231
 30
0.0
 11
67.81272512537072
 21
41.1910295371789
 31
0.0
  0
LINE
  5
347
330
1F
100
AcDbEntity
  8
0
  6
SLD-Solid
 62
     7
370
    25
100
AcDbLine
 10
65.52896543483617
 20
39.50132183106933
 30
0.0
 11
65.52053738819549
 21
39.50618723883187
 31
0.0
  0
LINE
  5
348
330
1F
100
AcDbEntity
  8
0
  6
SLD-Solid
 62
     7
370
    25
100
AcDbLine
 10
65.52053738819549
 20
39.50618723883187
 30
0.0
 11
65.51117191308343
 21
39.49925791280258
 31
0.0
  0
LINE
  5
349
330
1F
100
AcDbEntity
  8
0
  6
SLD-Solid
 62
     7
370
    25
100
AcDbLine
 10
52.79075273417624
 20
46.84259959736293
 30
0.0
 11
52.80011820928833
 21
46.84952892339221
 31
0.0
  0
LINE
  5
34A
330
1F
100
AcDbEntity
  8
0
  6
SLD-Solid
 62
     7
370
    25
100
AcDbLine
 10
52.80011820928833
 20
46.84952892339221
 30
0.0
 11
52.79169016264765
 21
46.85439433115475
 31
0.0
  0
LINE
  5
34B
330
1F
100
AcDbEntity
  8
0
  6
SLD-Solid
 62
     7
370
    25
100
AcDbLine
 10
67.85059283005823
 20
41.13651635000738
 30
0.0
 11
67.85123994094265
 21
41.13158272429705
 31
0.0
  0
LINE
  5
34C
330
1F
100
AcDbEntity
  8
0
  6
SLD-Solid
 62
     7
370
    25
100
AcDbLine
 10
67.85123994094265
 20
41.13158272429705
 30
0.0
 11
67.86295676902765
 21
41.14025176893796
 31
0.0
  0
LINE
  5
34D
330
1F
100
AcDbEntity
  8
0
  6
SLD-Solid
 62
     7
370
    25
100
AcDbLine
 10
67.84392220686082
 20
24.2269414144612
 30
0.0
 11
67.86295676902766
 21
24.23792983330506
 31
0.0
  0
LINE
  5
34E
330
1F
100
AcDbEntity
  8
0
  6
SLD-Solid
 62
     7
370
    25
100
AcDbLine
 10
67.84392220686082
 20
24.2269414144612
 30
0.0
 11
67.84392220686084
 21
24.18611437386692
 31
0.0
  0
LINE
  5
34F
330
1F
100
AcDbEntity
  8
0
  6
SLD-Solid
 62
     7
370
    25
100
AcDbLine
 10
67.84392220686084
 20
24.18611437386692
 30
0.0
 11
67.90044382311945
 21
24.21865716146869
 31
0.0
  0
LINE
  5
350
330
1F
100
AcDbEntity
  8
0
  6
SLD-Solid
 62
     7
370
    25
100
AcDbLine
 10
67.89744199463513
 20
21.59972580622006
 30
0.0
 11
67.90044382311945
 21
24.21865716146869
 31
0.0
  0
ARC
  5
351
330
1F
100
AcDbEntity
  8
0
  6
SLD-Solid
 62
     7
370
    25
100
AcDbCircle
 10
67.85154075762536
 20
24.26312590710967
 30
0.0
 40
0.0276616603172226
100
AcDbArc
 50
294.3746582936775
 51
354.3052007487826
  0
SPLINE
  5
352
330
1F
100
AcDbEntity
  8
0
  6
SLD-Solid
 62
     7
370
    25
100
AcDbSpline
210
0.0
220
0.0
230
1.0
 70
    12
 71
     3
 72
    11
 73
     7
 74
     0
 42
0.00000001
 43
0.00000001
 40
0.0
 40
0.0
 40
0.0
 40
0.0
 40
0.2500000960488691
 40
0.5000001920977653
 40
0.7500002881467261
 40
1.0
 40
1.0
 40
1.0
 40
1.0
 10
67.86295676902765
 20
41.14025176893796
 30
0.0
 41
1.0
 10
67.86649090263086
 20
41.14310978034136
 30
0.0
 41
1.0
 10
67.87355916983729
 20
41.14882580314814
 30
0.0
 41
1.0
 10
67.87879612566395
 20
41.15924943119618
 30
0.0
 41
1.0
 10
67.87976763222831
 20
41.17014438126073
 30
0.0
 41
1.0
 10
67.87630239823137
 20
41.17702434108762
 30
0.0
 41
1.0
 10
67.87456978256422
 20
41.18046431835782
 30
0.0
 41
1.0
  0
LINE
  5
353
330
1F
100
AcDbEntity
  8
0
  6
SLD-Solid
 62
     7
370
    25
100
AcDbLine
 10
67.87456977251145
 20
41.18046433382288
 30
0.0
 11
67.87293315400477
 21
41.18045256031421
 31
0.0
  0
LINE
  5
354
330
1F
100
AcDbEntity
  8
0
  6
SLD-Solid
 62
     7
370
    25
100
AcDbLine
 10
67.87293315400477
 20
41.18045256031421
 30
0.0
 11
67.86295676902765
 21
41.18004778516593
 31
0.0
  0
LWPOLYLINE
  5
355
330
1F
100
AcDbEntity
  8
0
  6
SLD-Solid
 62
     7
370
    25
100
AcDbPolyline
 90
        9
 70
   128
 43
0.0
 10
67.85932453786131
 20
41.20303626085984
 10
67.85608842269575
 20
41.20671203368858
 10
67.8521754256715
 20
41.20938083205657
 10
67.84767227022908
 20
41.21098350759877
 10
67.84267875944278
 20
41.21148454034517
 10
67.83730556409323
 20
41.21087282594706
 10
67.83167176987972
 20
41.20916192178174
 10
67.82590223813334
 20
41.2063897464816
 10
67.82012483852526
 20
41.20261773954631
  0
LINE
  5
356
330
1F
100
AcDbEntity
  8
0
  6
SLD-Solid
 62
     7
370
    25
100
AcDbLine
 10
67.85932453786133
 20
41.20303626085984
 30
0.0
 11
67.8433570865464
 21
41.18329548867313
 31
0.0
  0
ARC
  5
357
330
1F
100
AcDbEntity
  8
0
  6
SLD-Solid
 62
     7
370
    25
100
AcDbCircle
 10
55.11310109185537
 20
48.5298859758923
 30
0.0
 40
0.0292868945206469
100
AcDbArc
 50
65.916271678039
 51
135.7241166464755
  0
LINE
  5
358
330
1F
100
AcDbEntity
  8
0
  6
SLD-Solid
 62
     7
370
    25
100
AcDbLine
 10
67.84195112298298
 20
41.18352114452451
 30
0.0
 11
67.8433570865464
 21
41.18329548867314
 31
0.0
  0
LINE
  5
359
330
1F
100
AcDbEntity
  8
0
  6
SLD-Solid
 62
     7
370
    25
100
AcDbLine
 10
67.8288718832139
 20
41.18219891508584
 30
0.0
 11
67.84195112298298
 21
41.18352114452451
 31
0.0
  0
LINE
  5
35A
330
1F
100
AcDbEntity
  8
0
  6
SLD-Solid
 62
     7
370
    25
100
AcDbLine
 10
67.83642529877804
 20
41.16874498370458
 30
0.0
 11
67.86295676902765
 21
41.18004778516592
 31
0.0
  0
LINE
  5
35B
330
1F
100
AcDbEntity
  8
0
  6
SLD-Solid
 62
     7
370
    25
100
AcDbLine
 10
67.8288718832139
 20
41.18219891508583
 30
0.0
 11
67.82588434653138
 21
41.18091321391843
 31
0.0
  0
ARC
  5
35C
330
1F
100
AcDbEntity
  8
0
  6
SLD-Solid
 62
     7
370
    25
100
AcDbCircle
 10
52.78601444213569
 20
46.77901794133662
 30
0.0
 40
0.0533575330081054
100
AcDbArc
 50
125.6718126660883
 51
145.7166948179973
  0
LWPOLYLINE
  5
35D
330
1F
100
AcDbEntity
  8
0
  6
SLD-Solid
 62
     7
370
    25
100
AcDbPolyline
 90
        9
 70
   128
 43
0.0
 10
52.79169016264765
 20
46.85439433115475
 10
52.78529556221116
 20
46.8574584443468
 10
52.77932477263658
 20
46.85904718566401
 10
52.77400724801885
 20
46.85909950066855
 10
52.7695473378469
 20
46.85761337892414
 10
52.7661164339675
 20
46.85464593125598
 10
52.76384638409265
 20
46.85031119501382
 10
52.762824424966
 20
46.84477575168045
 10
52.76308982990365
 20
46.8382523252389
  0
ARC
  5
35E
330
1F
100
AcDbEntity
  8
0
  6
SLD-Solid
 62
     7
370
    25
100
AcDbCircle
 10
55.06188603704941
 20
48.52725033243021
 30
0.0
 40
0.0216323152690413
100
AcDbArc
 50
51.16966168814838
 51
116.8108606960064
  0
LINE
  5
35F
330
1F
100
AcDbEntity
  8
0
  6
SLD-Solid
 62
     7
370
    25
100
AcDbLine
 10
52.76426491865298
 20
46.82929335359241
 30
0.0
 11
52.77258539697686
 21
46.82449004369737
 31
0.0
  0
LINE
  5
360
330
1F
100
AcDbEntity
  8
0
  6
SLD-Solid
 62
     7
370
    25
100
AcDbLine
 10
52.76308982990365
 20
46.8382523252389
 30
0.0
 11
52.76426491865298
 21
46.82929335359241
 31
0.0
  0
LINE
  5
361
330
1F
100
AcDbEntity
  8
0
  6
SLD-Solid
 62
     7
370
    25
100
AcDbLine
 10
52.76426491865298
 20
46.82929335359241
 30
0.0
 11
52.7548994435409
 21
46.82236402756314
 31
0.0
  0
LINE
  5
362
330
1F
100
AcDbEntity
  8
0
  6
SLD-Solid
 62
     7
370
    25
100
AcDbLine
 10
67.90044382311945
 20
24.21865716146869
 30
0.0
 11
67.8820590468086
 21
24.22927046692238
 31
0.0
  0
LINE
  5
363
330
1F
100
AcDbEntity
  8
0
  6
SLD-Solid
 62
     7
370
    25
100
AcDbLine
 10
67.84392220686082
 20
24.20731286619588
 30
0.0
 11
67.8820590468086
 21
24.22927046692238
 31
0.0
  0
SPLINE
  5
364
330
1F
100
AcDbEntity
  8
0
  6
SLD-Solid
 62
     7
370
    25
100
AcDbSpline
210
0.0
220
0.0
230
1.0
 70
    12
 71
     3
 72
    11
 73
     7
 74
     0
 42
0.00000001
 43
0.00000001
 40
0.0
 40
0.0
 40
0.0
 40
0.0
 40
0.2500000000001557
 40
0.5000000000002416
 40
0.7500000000002869
 40
0.9999999999999999
 40
0.9999999999999999
 40
0.9999999999999999
 40
0.9999999999999999
 10
65.17352973174087
 20
39.24013428630887
 30
0.0
 41
1.0
 10
65.16838776792633
 20
39.23694489914235
 30
0.0
 41
1.0
 10
65.15810384029724
 20
39.23056612480932
 30
0.0
 41
1.0
 10
65.14559333040347
 20
39.2159557479821
 30
0.0
 41
1.0
 10
65.13680275729848
 20
39.20025756335897
 30
0.0
 41
1.0
 10
65.1352107048493
 20
39.1913370550884
 30
0.0
 41
1.0
 10
65.13441467862471
 20
39.18687680095312
 30
0.0
 41
1.0
  0
LINE
  5
365
330
1F
100
AcDbEntity
  8
0
  6
SLD-Solid
 62
     7
370
    25
100
AcDbLine
 10
52.40141349655886
 20
46.61332004620763
 30
0.0
 11
65.17352973174087
 21
39.24013428630887
 31
0.0
  0
SPLINE
  5
366
330
1F
100
AcDbEntity
  8
0
  6
SLD-Solid
 62
     7
370
    25
100
AcDbSpline
210
0.0
220
0.0
230
1.0
 70
    12
 71
     3
 72
    11
 73
     7
 74
     0
 42
0.00000001
 43
0.00000001
 40
0.0
 40
0.0
 40
0.0
 40
0.0
 40
0.2499999999998563
 40
0.4999999999996202
 40
0.74999999999939
 40
0.9999999999999999
 40
0.9999999999999999
 40
0.9999999999999999
 40
0.9999999999999999
 10
67.57085762301344
 20
21.12664786625712
 30
0.0
 41
1.0
 10
67.56592931096559
 20
21.12471731828638
 30
0.0
 41
1.0
 10
67.55607268686988
 20
21.12085622234492
 30
0.0
 41
1.0
 10
67.53716888723268
 20
21.12014864669766
 30
0.0
 41
1.0
 10
67.51823292344723
 20
21.12375467277621
 30
0.0
 41
1.0
 10
67.50830114571926
 20
21.12997258890012
 30
0.0
 41
1.0
 10
67.50333525685527
 20
21.13308154696208
 30
0.0
 41
1.0
  0
LINE
  5
367
330
1F
100
AcDbEntity
  8
0
  6
SLD-Solid
 62
     7
370
    25
100
AcDbLine
 10
67.57085762301344
 20
21.12664786625712
 30
0.0
 11
65.20003712502216
 21
39.20197505528879
 31
0.0
  0
ARC
  5
368
330
1F
100
AcDbEntity
  8
0
  6
SLD-Solid
 62
     7
370
    25
100
AcDbCircle
 10
65.42452572196095
 20
39.39893356891243
 30
0.0
 40
0.058101917153069
100
AcDbArc
 50
11.2178931810604
 51
58.35382836338399
  0
LINE
  5
369
330
1F
100
AcDbEntity
  8
0
  6
SLD-Solid
 62
     7
370
    25
100
AcDbLine
 10
65.48151756997922
 20
39.41023675591099
 30
0.0
 11
65.20003712502216
 21
39.20197505528879
 31
0.0
  0
ARC
  5
36A
330
1F
100
AcDbEntity
  8
0
  6
SLD-Solid
 62
     7
370
    25
100
AcDbCircle
 10
65.14304527700399
 20
39.1906718682903
 30
0.0
 40
0.0581019171529576
100
AcDbArc
 50
11.21789318101075
 51
58.35382836346194
  0
LINE
  5
36B
330
1F
100
AcDbEntity
  8
0
  6
SLD-Solid
 62
     7
370
    25
100
AcDbLine
 10
65.17352973174087
 20
39.24013428630887
 30
0.0
 11
65.45501017669795
 21
39.44839598693105
 31
0.0
  0
LINE
  5
36C
330
1F
100
AcDbEntity
  8
0
  6
SLD-Solid
 62
     7
370
    25
100
AcDbLine
 10
67.85233806797049
 20
21.33490956687932
 30
0.0
 11
67.57085762301344
 21
21.12664786625712
 31
0.0
  0
LINE
  5
36D
330
1F
100
AcDbEntity
  8
0
  6
SLD-Solid
 62
     7
370
    25
100
AcDbLine
 10
65.48151756997922
 20
39.41023675591099
 30
0.0
 11
67.85233806797049
 21
21.33490956687932
 31
0.0
  0
LINE
  5
36E
330
1F
100
AcDbEntity
  8
0
  6
SLD-Solid
 62
     7
370
    25
100
AcDbLine
 10
52.74102069239184
 20
46.03366248639441
 30
0.0
 11
52.38409743331591
 21
46.5474782718622
 31
0.0
  0
LINE
  5
36F
330
1F
100
AcDbEntity
  8
0
  6
SLD-Solid
 62
     7
370
    25
100
AcDbLine
 10
65.13441467862471
 20
39.18687680095312
 30
0.0
 11
64.86484132956936
 21
39.03472980902276
 31
0.0
  0
LINE
  5
370
330
1F
100
AcDbEntity
  8
0
  6
SLD-Solid
 62
     7
370
    25
100
AcDbLine
 10
52.74102069239184
 20
46.03366248639441
 30
0.0
 11
64.86484132956936
 21
39.03472980902276
 31
0.0
  0
LINE
  5
371
330
1F
100
AcDbEntity
  8
0
  6
SLD-Solid
 62
     7
370
    25
100
AcDbLine
 10
67.50333525685527
 20
21.13308154696208
 30
0.0
 11
67.14641199777934
 21
21.64689733242986
 31
0.0
  0
LINE
  5
372
330
1F
100
AcDbEntity
  8
0
  6
SLD-Solid
 62
     7
370
    25
100
AcDbLine
 10
64.86598075555968
 20
39.03308952628603
 30
0.0
 11
67.14641199777934
 21
21.64689733242986
 31
0.0
  0
LINE
  5
373
330
1F
100
AcDbEntity
  8
0
  6
SLD-Solid
 62
     7
370
    25
100
AcDbLine
 10
64.86598075555968
 20
39.03308952628603
 30
0.0
 11
65.13555410461501
 21
39.1852365182164
 31
0.0
  0
LINE
  5
374
330
1F
100
AcDbEntity
  8
0
  6
SLD-Solid
 62
     7
370
    25
100
AcDbLine
 10
64.8785143375615
 20
39.04236287066696
 30
0.0
 11
64.86598075555968
 21
39.03308952628603
 31
0.0
  0
SPLINE
  5
375
330
1F
100
AcDbEntity
  8
0
  6
SLD-Solid
 62
     7
370
    25
100
AcDbSpline
210
0.0
220
0.0
230
1.0
 70
    12
 71
     3
 72
    10
 73
     6
 74
     0
 42
0.00000001
 43
0.00000001
 40
0.0
 40
0.0
 40
0.0
 40
0.0
 40
0.243821085132913
 40
0.714547097120626
 40
1.0
 40
1.0
 40
1.0
 40
1.0
 10
65.45755746683712
 20
39.46721676127242
 30
0.0
 41
1.0
 10
65.4579232773272
 20
39.4672299922539
 30
0.0
 41
1.0
 10
65.45899532908855
 20
39.46726876724088
 30
0.0
 41
1.0
 10
65.4569276568006
 20
39.46015759837087
 30
0.0
 41
1.0
 10
65.45553565052872
 20
39.45161918544596
 30
0.0
 41
1.0
 10
65.45501017669795
 20
39.44839598693105
 30
0.0
 41
1.0
  0
SPLINE
  5
376
330
1F
100
AcDbEntity
  8
0
  6
SLD-Solid
 62
     7
370
    25
100
AcDbSpline
210
0.0
220
0.0
230
1.0
 70
    12
 71
     3
 72
    10
 73
     6
 74
     0
 42
0.00000001
 43
0.00000001
 40
0.0
 40
0.0
 40
0.0
 40
0.0
 40
0.4709064206679515
 40
0.942349495951568
 40
1.0
 40
1.0
 40
1.0
 40
1.0
 10
52.68289394151594
 20
46.82158174682984
 30
0.0
 41
1.0
 10
52.69156871651501
 20
46.82205648010988
 30
0.0
 41
1.0
 10
52.70892815246469
 20
46.82300648768574
 30
0.0
 41
1.0
 10
52.7273968729361
 20
46.81870274409161
 30
0.0
 41
1.0
 10
52.73483747117864
 20
46.81279546501143
 30
0.0
 41
1.0
 10
52.73564820533958
 20
46.81215180266165
 30
0.0
 41
1.0
  0
SPLINE
  5
377
330
1F
100
AcDbEntity
  8
0
  6
SLD-Solid
 62
     7
370
    25
100
AcDbSpline
210
0.0
220
0.0
230
1.0
 70
    12
 71
     3
 72
    10
 73
     6
 74
     0
 42
0.00000001
 43
0.00000001
 40
0.0
 40
0.0
 40
0.0
 40
0.0
 40
0.1915946007202563
 40
0.6948319195489923
 40
1.0
 40
1.0
 40
1.0
 40
1.0
 10
67.86138716200071
 20
21.38481432444413
 30
0.0
 41
1.0
 10
67.8620780640769
 20
21.38159587876687
 30
0.0
 41
1.0
 10
67.86458367130177
 20
21.369923948663
 30
0.0
 41
1.0
 10
67.86063551787295
 20
21.35234004763672
 30
0.0
 41
1.0
 10
67.8546119339573
 20
21.33968628476179
 30
0.0
 41
1.0
 10
67.85233806797049
 20
21.33490956687932
 30
0.0
 41
1.0
  0
LINE
  5
378
330
1F
100
AcDbEntity
  8
0
  6
SLD-Solid
 62
     7
370
    25
100
AcDbLine
 10
52.74016011838216
 20
46.03317677908186
 30
0.0
 11
52.74095140239338
 21
46.03376223415274
 31
0.0
  0
LINE
  5
379
330
1F
100
AcDbEntity
  8
0
  6
SLD-Solid
 62
     7
370
    25
100
AcDbLine
 10
52.38323685930619
 20
46.54699256454965
 30
0.0
 11
52.74016011838216
 21
46.03317677908186
 31
0.0
  0
LINE
  5
37A
330
1F
100
AcDbEntity
  8
0
  6
SLD-Solid
 62
     7
370
    25
100
AcDbLine
 10
55.02059136060169
 20
28.64698458522584
 30
0.0
 11
52.74016011838216
 21
46.03317677908186
 31
0.0
  0
LINE
  5
37B
330
1F
100
AcDbEntity
  8
0
  6
SLD-Solid
 62
     7
370
    25
100
AcDbLine
 10
55.02059136060169
 20
28.64698458522584
 30
0.0
 11
54.75101801154636
 21
28.49483759329546
 31
0.0
  0
SPLINE
  5
37C
330
1F
100
AcDbEntity
  8
0
  6
SLD-Solid
 62
     7
370
    25
100
AcDbSpline
210
0.0
220
0.0
230
1.0
 70
    12
 71
     3
 72
    11
 73
     7
 74
     0
 42
0.00000001
 43
0.00000001
 40
0.0
 40
0.0
 40
0.0
 40
0.0
 40
0.2500000000002031
 40
0.5000000000004219
 40
0.7500000000006471
 40
1.0
 40
1.0
 40
1.0
 40
1.0
 10
52.38139326363805
 20
46.60202064206655
 30
0.0
 41
1.0
 10
52.37771522376004
 20
46.59758352393351
 30
0.0
 41
1.0
 10
52.37035914400404
 20
46.58870928766742
 30
0.0
 41
1.0
 10
52.36755315858107
 20
46.5733542314772
 30
0.0
 41
1.0
 10
52.37130095837186
 20
46.55851078937375
 30
0.0
 41
1.0
 10
52.37925822566143
 20
46.55083197282434
 30
0.0
 41
1.0
 10
52.38323685930619
 20
46.54699256454965
 30
0.0
 41
1.0
  0
SPLINE
  5
37D
330
1F
100
AcDbEntity
  8
0
  6
SLD-Solid
 62
     7
370
    25
100
AcDbSpline
210
0.0
220
0.0
230
1.0
 70
    12
 71
     3
 72
     9
 73
     5
 74
     0
 42
0.00000001
 43
0.00000001
 40
0.0
 40
0.0
 40
0.0
 40
0.0
 40
0.5566549219961289
 40
0.9999999999999999
 40
0.9999999999999999
 40
0.9999999999999999
 40
0.9999999999999999
 10
54.75101801154636
 20
28.49483759329546
 30
0.0
 41
1.0
 10
54.74713977388853
 20
28.49671714030533
 30
0.0
 41
1.0
 10
54.74017273290032
 20
28.50009364329775
 30
0.0
 41
1.0
 10
54.73908997620788
 20
28.50553792692326
 30
0.0
 41
1.0
 10
54.73860994135762
 20
28.50795162327189
 30
0.0
 41
1.0
  0
LWPOLYLINE
  5
37E
330
1F
100
AcDbEntity
  8
0
  6
SLD-Solid
 62
     7
370
    25
100
AcDbPolyline
 90
        9
 70
   128
 43
0.0
 10
52.40141349655886
 20
46.61332004620763
 10
52.39693727625332
 20
46.61546492544205
 10
52.39275772355111
 20
46.61657704436411
 10
52.3890354563187
 20
46.61661366486729
 10
52.38591351919833
 20
46.61557337964619
 10
52.38351188648275
 20
46.61349616627849
 10
52.38192285157036
 20
46.61046185090898
 10
52.38120748018169
 20
46.60658704057563
 10
52.38139326363805
 20
46.60202064206655
  0
ARC
  5
37F
330
1F
100
AcDbEntity
  8
0
  6
SLD-Solid
 62
     7
370
    25
100
AcDbCircle
 10
52.67339927022304
 20
46.80978555344645
 30
0.0
 40
0.0151426206879373
100
AcDbArc
 50
51.16966168722612
 51
116.8108606969782
  0
LINE
  5
380
330
1F
100
AcDbEntity
  8
0
  6
SLD-Solid
 62
     7
370
    25
100
AcDbLine
 10
55.03312494260352
 20
28.65625792960678
 30
0.0
 11
55.02059136060169
 21
28.64698458522584
 31
0.0
  0
LINE
  5
381
330
1F
100
AcDbEntity
  8
0
  6
SLD-Solid
 62
     7
370
    25
100
AcDbLine
 10
55.03312494260352
 20
28.65625792960678
 30
0.0
 11
52.75489701766777
 21
46.02565185432371
 31
0.0
  0
LINE
  5
382
330
1F
100
AcDbEntity
  8
0
  6
SLD-Solid
 62
     7
370
    25
100
AcDbLine
 10
67.13494482205175
 20
21.65253468595611
 30
0.0
 11
67.49186808112778
 21
21.1387189004882
 31
0.0
  0
LINE
  5
383
330
1F
100
AcDbEntity
  8
0
  6
SLD-Solid
 62
     7
370
    25
100
AcDbLine
 10
54.7521574375367
 20
28.49319731055869
 30
0.0
 11
55.02173078659201
 21
28.64534430248911
 31
0.0
  0
LINE
  5
384
330
1F
100
AcDbEntity
  8
0
  6
SLD-Solid
 62
     7
370
    25
100
AcDbLine
 10
67.13494482205175
 20
21.65253468595611
 30
0.0
 11
55.02173078659201
 21
28.64534430248911
 31
0.0
  0
LINE
  5
385
330
1F
100
AcDbEntity
  8
0
  6
SLD-Solid
 62
     7
370
    25
100
AcDbLine
 10
67.14472360086275
 20
21.65976980705128
 30
0.0
 11
67.13494482205175
 21
21.65253468595611
 31
0.0
  0
LINE
  5
386
330
1F
100
AcDbEntity
  8
0
  6
SLD-Solid
 62
     7
370
    25
100
AcDbLine
 10
55.02173078659201
 20
28.64534430248911
 30
0.0
 11
55.03426436859383
 21
28.65461764687005
 31
0.0
  0
LINE
  5
387
330
1F
100
AcDbEntity
  8
0
  6
SLD-Solid
 62
     7
370
    25
100
AcDbLine
 10
67.14420868049554
 20
21.66369560156901
 30
0.0
 11
55.03426436859383
 21
28.65461764687005
 31
0.0
  0
SPLINE
  5
388
330
1F
100
AcDbEntity
  8
0
  6
SLD-Solid
 62
     7
370
    25
100
AcDbSpline
210
0.0
220
0.0
230
1.0
 70
    12
 71
     3
 72
     9
 73
     5
 74
     0
 42
0.00000001
 43
0.00000001
 40
0.0
 40
0.0
 40
0.0
 40
0.0
 40
0.392043045051769
 40
1.0
 40
1.0
 40
1.0
 40
1.0
 10
54.75750246801688
 20
28.48016513883457
 30
0.0
 41
1.0
 10
54.75605230193268
 20
28.48092267364083
 30
0.0
 41
1.0
 10
54.75235330483908
 20
28.48285494821073
 30
0.0
 41
1.0
 10
54.7522314935544
 20
28.48928693777124
 30
0.0
 41
1.0
 10
54.7521574375367
 20
28.49319731055869
 30
0.0
 41
1.0
  0
SPLINE
  5
389
330
1F
100
AcDbEntity
  8
0
  6
SLD-Solid
 62
     7
370
    25
100
AcDbSpline
210
0.0
220
0.0
230
1.0
 70
    12
 71
     3
 72
    11
 73
     7
 74
     0
 42
0.00000001
 43
0.00000001
 40
0.0
 40
0.0
 40
0.0
 40
0.0
 40
0.250000000000357
 40
0.5000000000002331
 40
0.7500000000001233
 40
1.0
 40
1.0
 40
1.0
 40
1.0
 10
67.49186808112778
 20
21.1387189004882
 30
0.0
 41
1.0
 10
67.49387589261183
 20
21.13394040581651
 30
0.0
 41
1.0
 10
67.49789151557991
 20
21.12438341647314
 30
0.0
 41
1.0
 10
67.50973885393786
 20
21.11677657562753
 30
0.0
 41
1.0
 10
67.52438787657258
 20
21.11508275839033
 30
0.0
 41
1.0
 10
67.534949817774
 20
21.11934193476658
 30
0.0
 41
1.0
 10
67.54023078837471
 20
21.12147152295471
 30
0.0
 41
1.0
  0
LINE
  5
38A
330
1F
100
AcDbEntity
  8
0
  6
SLD-Solid
 62
     7
370
    25
100
AcDbLine
 10
54.7521574375367
 20
28.49319731055869
 30
0.0
 11
54.76469101953851
 21
28.50247065493963
 31
0.0
  0
LINE
  5
38B
330
1F
100
AcDbEntity
  8
0
  6
SLD-Solid
 62
     7
370
    25
100
AcDbLine
 10
55.03426436859383
 20
28.65461764687005
 30
0.0
 11
54.76469101953851
 21
28.50247065493963
 31
0.0
  0
LINE
  5
38C
330
1F
100
AcDbEntity
  8
0
  6
SLD-Solid
 62
     7
370
    25
100
AcDbLine
 10
54.77431712107326
 20
28.50798759288406
 30
0.0
 11
54.7743273761637
 21
28.50790940724519
 31
0.0
  0
INSERT
  5
392
330
1F
100
AcDbEntity
  8
NOTES
100
AcDbBlockReference
  2
SW_NOTE_0_3
 10
60.0752300880211
 20
21.89178846299717
 30
0.0
  0
MTEXT
  5
396
330
1F
100
AcDbEntity
  8
NOTES
100
AcDbMText
 10
60.2661315570167
 20
4.98650087456716
 30
0.0
 40
0.2916666666666666
 41
0.0
 71
     1
 72
     1
  1
FROST PRODUCTS LTD.
  7
SLDTEXTSTYLE1
 73
     1
 44
1.0
  0
MTEXT
  5
397
330
1F
100
AcDbEntity
  8
NOTES
100
AcDbMText
 10
60.2661315570167
 20
4.5610085129417
 30
0.0
 40
0.2291666666666666
 41
0.0
 71
     1
 72
     1
  1
5280 JOHN LUCAS DRIVE, BURLINGTON, ON, L7L 5Z9
  7
SLDTEXTSTYLE1
 73
     1
 44
1.0
  0
ENDSEC
  0
SECTION
  2
OBJECTS
  0
DICTIONARY
  5
C
330
0
100
AcDbDictionary
281
     1
  3
ACAD_COLOR
350
6C
  3
ACAD_GROUP
350
D
  3
ACAD_LAYOUT
350
1A
  3
ACAD_MATERIAL
350
6B
  3
ACAD_MLINESTYLE
350
17
  3
ACAD_PLOTSETTINGS
350
19
  3
ACAD_PLOTSTYLENAME
350
E
  3
ACAD_SCALELIST
350
47
  3
ACAD_TABLESTYLE
350
92
  3
AcDbVariableDictionary
350
59
  0
DICTIONARY
  5
6C
102
{ACAD_REACTORS
330
C
102
}
330
C
100
AcDbDictionary
281
     1
  0
DICTIONARY
  5
D
102
{ACAD_REACTORS
330
C
102
}
330
C
100
AcDbDictionary
281
     1
  0
DICTIONARY
  5
1A
102
{ACAD_REACTORS
330
C
102
}
330
C
100
AcDbDictionary
281
     1
  3
Layout1
350
74
  3
Layout2
350
26
  3
Model
350
22
  0
DICTIONARY
  5
6B
102
{ACAD_REACTORS
330
C
102
}
330
C
100
AcDbDictionary
281
     1
  0
DICTIONARY
  5
17
102
{ACAD_REACTORS
330
C
102
}
330
C
100
AcDbDictionary
281
     1
  3
Standard
350
18
  0
DICTIONARY
  5
19
102
{ACAD_REACTORS
330
C
102
}
330
C
100
AcDbDictionary
281
     1
  0
ACDBDICTIONARYWDFLT
  5
E
102
{ACAD_REACTORS
330
C
102
}
330
C
100
AcDbDictionary
281
     1
  3
Normal
350
F
100
AcDbDictionaryWithDefault
340
F
  0
DICTIONARY
  5
47
102
{ACAD_REACTORS
330
C
102
}
330
C
100
AcDbDictionary
281
     1
  3
A0
350
48
  3
A1
350
49
  3
A2
350
4A
  3
A3
350
4B
  3
A4
350
4C
  3
A5
350
4D
  3
A6
350
4E
  3
A7
350
4F
  3
A8
350
50
  3
A9
350
51
  3
B0
350
52
  3
B1
350
53
  3
B2
350
54
  3
B3
350
55
  3
B4
350
56
  3
B5
350
57
  3
B6
350
58
  3
B7
350
3A8
  3
B8
350
3A9
  3
B9
350
5B
  3
C0
350
5C
  3
C1
350
5D
  3
C2
350
3AA
  3
C3
350
5F
  3
C4
350
60
  3
C5
350
61
  3
C6
350
62
  3
C7
350
63
  3
C8
350
64
  3
C9
350
65
  3
D0
350
66
  3
D1
350
67
  3
D2
350
68
  0
DICTIONARY
  5
92
102
{ACAD_REACTORS
330
C
102
}
330
C
100
AcDbDictionary
281
     1
  3
Standard
350
93
  0
DICTIONARY
  5
59
102
{ACAD_REACTORS
330
C
102
}
330
C
100
AcDbDictionary
281
     1
  3
CTABLESTYLE
350
98
  3
HIDETEXT
350
395
  0
LAYOUT
  5
74
102
{ACAD_REACTORS
330
1A
102
}
330
1A
100
AcDbPlotSettings
  1

  2
none_device
  4

  6

 40
0.0
 41
0.0
 42
0.0
 43
0.0
 44
0.0
 45
0.0
 46
0.0
 47
0.0
 48
0.0
 49
0.0
140
0.0
141
0.0
142
1.0
143
1.0
 70
   688
 72
     0
 73
     0
 74
     5
  7

 75
    16
 76
     0
 77
     2
 78
   300
147
1.0
148
0.0
149
0.0
100
AcDbLayout
  1
Layout1
 70
     1
 71
     1
 10
0.0
 20
0.0
 11
12.0
 21
9.0
 12
0.0
 22
0.0
 32
0.0
 14
1.000000000000000E+20
 24
1.000000000000000E+20
 34
1.000000000000000E+20
 15
-1.000000000000000E+20
 25
-1.000000000000000E+20
 35
-1.000000000000000E+20
146
0.0
 13
0.0
 23
0.0
 33
0.0
 16
1.0
 26
0.0
 36
0.0
 17
0.0
 27
1.0
 37
0.0
 76
     0
330
73
  0
LAYOUT
  5
26
102
{ACAD_REACTORS
330
1A
102
}
330
1A
100
AcDbPlotSettings
  1

  2
none_device
  4

  6

 40
0.0
 41
0.0
 42
0.0
 43
0.0
 44
0.0
 45
0.0
 46
0.0
 47
0.0
 48
0.0
 49
0.0
140
0.0
141
0.0
142
1.0
143
1.0
 70
   688
 72
     0
 73
     0
 74
     5
  7

 75
    16
 76
     0
 77
     2
 78
   300
147
1.0
148
0.0
149
0.0
100
AcDbLayout
  1
Layout2
 70
     1
 71
     2
 10
0.0
 20
0.0
 11
0.0
 21
0.0
 12
0.0
 22
0.0
 32
0.0
 14
0.0
 24
0.0
 34
0.0
 15
0.0
 25
0.0
 35
0.0
146
0.0
 13
0.0
 23
0.0
 33
0.0
 16
1.0
 26
0.0
 36
0.0
 17
0.0
 27
1.0
 37
0.0
 76
     0
330
23
  0
LAYOUT
  5
22
102
{ACAD_REACTORS
330
1A
102
}
330
1A
100
AcDbPlotSettings
  1

  2
none_device
  4
Letter_(8.50_x_11.00_Inches)
  6

 40
6.35
 41
6.35
 42
6.35000508
 43
6.35000508
 44
215.9
 45
279.4
 46
0.0
 47
0.0
 48
0.0
 49
0.0
140
0.0
141
0.0
142
1.0
143
1.0
 70
 11952
 72
     0
 73
     0
 74
     0
  7

 75
     0
 76
     0
 77
     2
 78
   300
147
1.0
148
0.0
149
0.0
100
AcDbLayout
  1
Model
 70
     1
 71
     0
 10
0.0
 20
0.0
 11
70.0
 21
50.0
 12
0.0
 22
0.0
 32
0.0
 14
0.1653543307086614
 24
0.1653543307086614
 34
-0.2102434779826743
 15
69.83464566929135
 25
49.83464566929134
 35
9.026449999999837
146
0.0
 13
0.0
 23
0.0
 33
0.0
 16
1.0
 26
0.0
 36
0.0
 17
0.0
 27
1.0
 37
0.0
 76
     0
330
1F
  0
MLINESTYLE
  5
18
102
{ACAD_REACTORS
330
17
102
}
330
17
100
AcDbMlineStyle
  2
Standard
 70
     0
  3

 62
   256
 51
90.0
 52
90.0
 71
     2
 49
0.5
 62
   256
  6
BYLAYER
 49
-0.5
 62
   256
  6
BYLAYER
  0
ACDBPLACEHOLDER
  5
F
102
{ACAD_REACTORS
330
E
102
}
330
E
  0
ACAD_PROXY_OBJECT
  5
48
102
{ACAD_REACTORS
330
47
102
}
330
47
100
AcDbProxyObject
 90
      499
 91
      505
 95
   393239
 70
     0
 93
       41
310
903313A31580
  0
ACAD_PROXY_OBJECT
  5
49
102
{ACAD_REACTORS
330
47
102
}
330
47
100
AcDbProxyObject
 90
      499
 91
      505
 95
   393239
 70
     0
 93
      105
310
903313A324000000000000004000
  0
ACAD_PROXY_OBJECT
  5
4A
102
{ACAD_REACTORS
330
47
102
}
330
47
100
AcDbProxyObject
 90
      499
 91
      505
 95
   393239
 70
     0
 93
      105
310
903313A344000000000000104000
  0
ACAD_PROXY_OBJECT
  5
4B
102
{ACAD_REACTORS
330
47
102
}
330
47
100
AcDbProxyObject
 90
      499
 91
      505
 95
   393239
 70
     0
 93
      105
310
903313A354000000000000144000
  0
ACAD_PROXY_OBJECT
  5
4C
102
{ACAD_REACTORS
330
47
102
}
330
47
100
AcDbProxyObject
 90
      499
 91
      505
 95
   393239
 70
     0
 93
      105
310
903313A384000000000000204000
  0
ACAD_PROXY_OBJECT
  5
4D
102
{ACAD_REACTORS
330
47
102
}
330
47
100
AcDbProxyObject
 90
      499
 91
      505
 95
   393239
 70
     0
 93
      113
310
904313A31304000000000000244000
  0
ACAD_PROXY_OBJECT
  5
4E
102
{ACAD_REACTORS
330
47
102
}
330
47
100
AcDbProxyObject
 90
      499
 91
      505
 95
   393239
 70
     0
 93
      113
310
904313A31364000000000000304000
  0
ACAD_PROXY_OBJECT
  5
4F
102
{ACAD_REACTORS
330
47
102
}
330
47
100
AcDbProxyObject
 90
      499
 91
      505
 95
   393239
 70
     0
 93
      113
310
904313A32304000000000000344000
  0
ACAD_PROXY_OBJECT
  5
50
102
{ACAD_REACTORS
330
47
102
}
330
47
100
AcDbProxyObject
 90
      499
 91
      505
 95
   393239
 70
     0
 93
      113
310
904313A333040000000000003E4000
  0
ACAD_PROXY_OBJECT
  5
51
102
{ACAD_REACTORS
330
47
102
}
330
47
100
AcDbProxyObject
 90
      499
 91
      505
 95
   393239
 70
     0
 93
      113
310
904313A34304000000000000444000
  0
ACAD_PROXY_OBJECT
  5
52
102
{ACAD_REACTORS
330
47
102
}
330
47
100
AcDbProxyObject
 90
      499
 91
      505
 95
   393239
 70
     0
 93
      113
310
904313A35304000000000000494000
  0
ACAD_PROXY_OBJECT
  5
53
102
{ACAD_REACTORS
330
47
102
}
330
47
100
AcDbProxyObject
 90
      499
 91
      505
 95
   393239
 70
     0
 93
      121
310
905313A3130304000000000000594000
  0
ACAD_PROXY_OBJECT
  5
54
102
{ACAD_REACTORS
330
47
102
}
330
47
100
AcDbProxyObject
 90
      499
 91
      505
 95
   393239
 70
     0
 93
      105
310
903323A310000000000000010100
  0
ACAD_PROXY_OBJECT
  5
55
102
{ACAD_REACTORS
330
47
102
}
330
47
100
AcDbProxyObject
 90
      499
 91
      505
 95
   393239
 70
     0
 93
      105
310
903343A310000000000000410100
  0
ACAD_PROXY_OBJECT
  5
56
102
{ACAD_REACTORS
330
47
102
}
330
47
100
AcDbProxyObject
 90
      499
 91
      505
 95
   393239
 70
     0
 93
      105
310
903383A310000000000000810100
  0
ACAD_PROXY_OBJECT
  5
57
102
{ACAD_REACTORS
330
47
102
}
330
47
100
AcDbProxyObject
 90
      499
 91
      505
 95
   393239
 70
     0
 93
      113
310
90431303A310000000000000910100
  0
ACAD_PROXY_OBJECT
  5
58
102
{ACAD_REACTORS
330
47
102
}
330
47
100
AcDbProxyObject
 90
      499
 91
      505
 95
   393239
 70
     0
 93
      121
310
9053130303A310000000000001650100
  0
ACAD_PROXY_OBJECT
  5
3A8
102
{ACAD_REACTORS
330
47
102
}
330
47
100
AcDbProxyObject
 90
      499
 91
      505
 95
   393239
 70
     0
 93
      257
310
90E312F31323822203D2031272D3022000000000000200FC000000000000284000
  0
ACAD_PROXY_OBJECT
  5
3A9
102
{ACAD_REACTORS
330
47
102
}
330
47
100
AcDbProxyObject
 90
      499
 91
      505
 95
   393239
 70
     0
 93
      249
310
90D312F363422203D2031272D3022000000000000240FC000000000000284000
  0
ACAD_PROXY_OBJECT
  5
5B
102
{ACAD_REACTORS
330
47
102
}
330
47
100
AcDbProxyObject
 90
      499
 91
      505
 95
   393239
 70
     0
 93
      249
310
90D312F333222203D2031272D3022000000000000280FC000000000000284000
  0
ACAD_PROXY_OBJECT
  5
5C
102
{ACAD_REACTORS
330
47
102
}
330
47
100
AcDbProxyObject
 90
      499
 91
      505
 95
   393239
 70
     0
 93
      249
310
90D312F313622203D2031272D30220000000000002C0FC000000000000284000
  0
ACAD_PROXY_OBJECT
  5
5D
102
{ACAD_REACTORS
330
47
102
}
330
47
100
AcDbProxyObject
 90
      499
 91
      505
 95
   393239
 70
     0
 93
      249
310
90D332F333222203D2031272D30220000000000002E0FC000000000000284000
  0
ACAD_PROXY_OBJECT
  5
3AA
102
{ACAD_REACTORS
330
47
102
}
330
47
100
AcDbProxyObject
 90
      499
 91
      505
 95
   393239
 70
     0
 93
      241
310
90C312F3822203D2031272D3022000000000000300FC000000000000284000
  0
ACAD_PROXY_OBJECT
  5
5F
102
{ACAD_REACTORS
330
47
102
}
330
47
100
AcDbProxyObject
 90
      499
 91
      505
 95
   393239
 70
     0
 93
      249
310
90D332F313622203D2031272D3022000000000000320FC000000000000284000
  0
ACAD_PROXY_OBJECT
  5
60
102
{ACAD_REACTORS
330
47
102
}
330
47
100
AcDbProxyObject
 90
      499
 91
      505
 95
   393239
 70
     0
 93
      241
310
90C312F3422203D2031272D3022000000000000340FC000000000000284000
  0
ACAD_PROXY_OBJECT
  5
61
102
{ACAD_REACTORS
330
47
102
}
330
47
100
AcDbProxyObject
 90
      499
 91
      505
 95
   393239
 70
     0
 93
      241
310
90C332F3822203D2031272D3022000000000000360FC000000000000284000
  0
ACAD_PROXY_OBJECT
  5
62
102
{ACAD_REACTORS
330
47
102
}
330
47
100
AcDbProxyObject
 90
      499
 91
      505
 95
   393239
 70
     0
 93
      241
310
90C312F3222203D2031272D3022000000000000380FC000000000000284000
  0
ACAD_PROXY_OBJECT
  5
63
102
{ACAD_REACTORS
330
47
102
}
330
47
100
AcDbProxyObject
 90
      499
 91
      505
 95
   393239
 70
     0
 93
      241
310
90C332F3422203D2031272D30220000000000003A0FC000000000000284000
  0
ACAD_PROXY_OBJECT
  5
64
102
{ACAD_REACTORS
330
47
102
}
330
47
100
AcDbProxyObject
 90
      499
 91
      505
 95
   393239
 70
     0
 93
      161
310
90A3122203D2031272D30224000000000000284000
  0
ACAD_PROXY_OBJECT
  5
65
102
{ACAD_REACTORS
330
47
102
}
330
47
100
AcDbProxyObject
 90
      499
 91
      505
 95
   393239
 70
     0
 93
      257
310
90E312D312F3222203D2031272D30220000000000003E0FC000000000000284000
  0
ACAD_PROXY_OBJECT
  5
66
102
{ACAD_REACTORS
330
47
102
}
330
47
100
AcDbProxyObject
 90
      499
 91
      505
 95
   393239
 70
     0
 93
      225
310
90A3322203D2031272D302200000000000002100000000000000284000
  0
ACAD_PROXY_OBJECT
  5
67
102
{ACAD_REACTORS
330
47
102
}
330
47
100
AcDbProxyObject
 90
      499
 91
      505
 95
   393239
 70
     0
 93
      225
310
90A3622203D2031272D302200000000000006100000000000000284000
  0
ACAD_PROXY_OBJECT
  5
68
102
{ACAD_REACTORS
330
47
102
}
330
47
100
AcDbProxyObject
 90
      499
 91
      505
 95
   393239
 70
     0
 93
      249
310
90D31272D3022203D2031272D30220000000000000A100000000000000284000
  0
TABLESTYLE
  5
93
102
{ACAD_REACTORS
330
92
102
}
330
92
100
AcDbTableStyle
  3
Standard
 70
     0
 71
     0
 40
0.06
 41
0.06
280
     0
281
     0
  7
Standard
140
0.18
170
     2
 62
     0
 63
     7
283
     0
274
    -2
284
     1
 64
     0
275
    -2
285
     1
 65
     0
276
    -2
286
     1
 66
     0
277
    -2
287
     1
 67
     0
278
    -2
288
     1
 68
     0
279
    -2
289
     1
 69
     0
  7
Standard
140
0.25
170
     5
 62
     0
 63
     7
283
     0
274
    -2
284
     1
 64
     0
275
    -2
285
     1
 65
     0
276
    -2
286
     1
 66
     0
277
    -2
287
     1
 67
     0
278
    -2
288
     1
 68
     0
279
    -2
289
     1
 69
     0
  7
Standard
140
0.18
170
     5
 62
     0
 63
     7
283
     0
274
    -2
284
     1
 64
     0
275
    -2
285
     1
 65
     0
276
    -2
286
     1
 66
     0
277
    -2
287
     1
 67
     0
278
    -2
288
     1
 68
     0
279
    -2
289
     1
 69
     0
  0
DICTIONARYVAR
  5
98
102
{ACAD_REACTORS
330
59
102
}
330
59
100
DictionaryVariables
280
     0
  1
STANDARD
  0
DICTIONARYVAR
  5
395
102
{ACAD_REACTORS
330
59
102
}
330
59
100
DictionaryVariables
280
     0
  1
2
  0
ENDSEC
  0
EOF
